<?xml version="1.0" standalone="no"?>
<!DOCTYPE svg PUBLIC "-//W3C//DTD SVG 1.1//EN" "http://www.w3.org/Graphics/SVG/1.1/DTD/svg11.dtd" >
<svg xmlns="http://www.w3.org/2000/svg" xmlns:xlink="http://www.w3.org/1999/xlink" version="1.1">
<metadata></metadata>
<defs>
<font id="rawlinethin" horiz-adv-x="1179" >
<font-face units-per-em="2048" ascent="1638" descent="-410" />
<missing-glyph horiz-adv-x="534" />
<glyph unicode="fi" horiz-adv-x="925" d="M211 1022h-154v41h154v43q0 55 10 109t34.5 109.5t61.5 97t95.5 68t130.5 26.5q41 0 81.5 -6.5t68.5 -16t50.5 -20t33.5 -18t11 -9.5l-32 -25q-21 21 -80.5 37.5t-132.5 16.5q-76 0 -134 -33.5t-91 -88.5t-49.5 -118t-16.5 -129v-43h502v-1063h-41v1022h-461v-1022h-41 v1022z" />
<glyph unicode="fl" horiz-adv-x="1081" d="M938 -10q-74 0 -118 49t-44 119v1097q0 91 -63.5 155.5t-190.5 64.5q-70 0 -124 -32.5t-84.5 -87t-46 -118t-15.5 -131.5v-43h256v-41h-256v-1022h-41v1022h-154v41h154v43q0 87 17 159t53 129.5t97.5 89.5t143.5 32q137 0 216 -74t79 -185v-1099q0 -49 33.5 -89 t89.5 -40q15 0 33.5 2t34 4.5t28.5 5t21 4.5l8 2l18 -39q-1 -1 -21 -5.5t-56 -8.5t-68 -4z" />
<glyph unicode="&#xd;" horiz-adv-x="0" />
<glyph unicode=" "  horiz-adv-x="534" />
<glyph unicode="&#x09;" horiz-adv-x="534" />
<glyph unicode="&#xa0;" horiz-adv-x="534" />
<glyph unicode="!" horiz-adv-x="466" d="M213 410v1058h41v-1058h-41zM213 0v172h41v-172h-41z" />
<glyph unicode="&#x22;" horiz-adv-x="442" d="M150 1167v287h40v-287h-40zM252 1167v287h41v-287h-41z" />
<glyph unicode="#" horiz-adv-x="1331" d="M1253 985h-241l-119 -491h278v-41h-288l-109 -453h-43l111 453h-492l-108 -453h-43l110 453h-231v41h241l119 491h-278v41h289l104 428h43l-107 -428h492l104 428h43l-106 -428h231v-41zM852 494l119 491h-492l-119 -491h492z" />
<glyph unicode="$" horiz-adv-x="1255" d="M655 745q106 -22 176.5 -42t140.5 -51t110 -69.5t64.5 -95.5t24.5 -131q0 -175 -136 -270.5t-376 -95.5h-4v-180h-41v180q-158 7 -284.5 62t-235.5 163l31 27q102 -105 220.5 -157t268.5 -58v688q-99 19 -166 37.5t-129.5 46.5t-98 64.5t-56.5 88.5t-21 121 q0 179 125.5 280.5t345.5 110.5v205h41v-205q139 0 241 -41t187 -133l-26 -28q-83 92 -175.5 127.5t-226.5 35.5v-680zM184 1077q0 -61 16.5 -106t46.5 -77t85.5 -57.5t119.5 -44t162 -38.5v671q-220 -9 -325 -99.5t-105 -248.5zM662 25q221 0 344.5 82.5t123.5 242.5 q0 80 -27 137t-89 98t-145.5 68.5t-213.5 53.5v-682h7z" />
<glyph unicode="%" horiz-adv-x="1372" d="M98 1192q0 117 83 200t200 83t200 -83t83 -200t-83 -200t-200 -83t-200 83t-83 200zM98 23l1143 1433l33 -24l-1143 -1434zM623 1192q0 100 -72.5 171t-169.5 71q-100 0 -171 -72.5t-71 -169.5q0 -101 71.5 -171.5t170.5 -70.5q100 0 171 72.5t71 169.5zM711 262 q0 117 82.5 200t199.5 83t200 -83t83 -200q0 -118 -83 -200t-200 -82t-199.5 82t-82.5 200zM1235 262q0 99 -73 170.5t-169 71.5q-100 0 -170.5 -72.5t-70.5 -169.5q0 -101 70.5 -171.5t170.5 -70.5t171 72t71 170z" />
<glyph unicode="&#x26;" horiz-adv-x="1300" d="M1280 0h-55l-215 225q-82 -114 -198.5 -179.5t-258.5 -65.5q-84 0 -162.5 24.5t-142 69t-101.5 116t-38 158.5q0 59 19 113.5t47 95.5t79 87.5t93.5 78.5t111.5 80q-130 136 -182 218t-52 155q0 119 100 208t242 89q131 0 218 -77.5t87 -185.5q0 -35 -11.5 -70t-27 -63 t-46.5 -61.5t-55 -56t-69 -56t-72 -52.5t-79 -54l492 -510q106 174 106 395h41q0 -230 -121 -424zM565 1432q-125 0 -212 -76t-87 -182q0 -61 45.5 -138t175.5 -213q75 51 118 82t92.5 72.5t74.5 74t42 72.5t17 82q0 97 -75.5 161.5t-190.5 64.5zM559 16q131 0 240 64 t184 174l-500 522q-62 -42 -103.5 -73.5t-89 -76t-75 -84.5t-46.5 -91.5t-19 -106.5q0 -80 37 -144.5t97.5 -103.5t131 -59.5t143.5 -20.5z" />
<glyph unicode="'" horiz-adv-x="339" d="M150 1165v289h40v-289h-40z" />
<glyph unicode="(" horiz-adv-x="479" d="M375 1487l33 -25q-107 -158 -187 -372.5t-80 -389.5q0 -159 70.5 -354.5t196.5 -374.5l-33 -24q-273 400 -273 760q0 192 71 377t202 403z" />
<glyph unicode=")" horiz-adv-x="477" d="M104 -53l-32 24q125 179 195.5 374.5t70.5 354.5q0 175 -79.5 389.5t-186.5 372.5l32 25q131 -218 202 -403t71 -377q0 -360 -273 -760z" />
<glyph unicode="*" horiz-adv-x="618" d="M193 1155l83 117l-137 45l13 39l137 -45v143h41v-143l137 45l12 -39l-137 -45l86 -117l-35 -25l-84 117l-84 -117z" />
<glyph unicode="+" horiz-adv-x="843" d="M729 748v-41h-287v-308h-41v308h-286v41h286v307h41v-307h287z" />
<glyph unicode="," horiz-adv-x="532" d="M238 -166l20 146h-18v151h53v-151l-27 -146h-28z" />
<glyph unicode="-" horiz-adv-x="862" d="M141 535v40h580v-40h-580z" />
<glyph unicode="." horiz-adv-x="323" d="M141 0v131h41v-131h-41z" />
<glyph unicode="/" horiz-adv-x="1097" d="M1040 1454l-934 -1454h-51l932 1454h53z" />
<glyph unicode="0" horiz-adv-x="1368" d="M106 717q0 105 25.5 210.5t76 200t119 167.5t161.5 116t196 43q110 0 206 -46t162.5 -122t115 -172.5t71.5 -198t23 -198.5q0 -106 -25.5 -211.5t-76 -199t-119 -166t-161 -115.5t-196.5 -45q-92 3 -174.5 36t-145 87.5t-112 126t-81.5 153t-48.5 166.5t-16.5 168z M684 20q103 0 192 44t151 116t107 164t66 187.5t21 185.5q0 98 -23.5 197.5t-70.5 188.5t-110.5 158.5t-150 110.5t-182.5 41q-103 0 -192 -44t-151 -116.5t-107 -164t-66 -186.5t-21 -185q4 -100 27.5 -198t69 -188.5t107 -159.5t148 -110t185.5 -41z" />
<glyph unicode="1" horiz-adv-x="731" d="M698 41v-41h-571v41h270v1366q-39 -54 -139.5 -115t-177.5 -61v41q40 0 86.5 20.5t85 49t72.5 59t52.5 50.5t20.5 24h41v-1434h260z" />
<glyph unicode="2" horiz-adv-x="1148" d="M106 0q-7 110 10 203t52.5 161t91 124.5t118 94.5t140.5 70q27 11 77.5 30t82 31.5t77.5 34t75.5 41t63 49t52.5 61.5t32 75.5t13 93.5q0 70 -24 133.5t-70.5 115.5t-123.5 83t-175 31q-278 0 -438 -238l-35 20q0 4 17.5 29.5t57.5 64.5t92.5 75.5t135.5 63t174 26.5 q106 0 190 -34.5t135.5 -92.5t78 -129.5t26.5 -149.5q0 -55 -14.5 -104t-36 -84.5t-58 -68.5t-68.5 -54t-81 -44.5t-81.5 -36t-83 -31t-74.5 -28.5q-76 -30 -137.5 -70t-101.5 -80t-69.5 -88.5t-44.5 -89t-24 -90t-11 -82.5t-2 -75h889v-41h-928z" />
<glyph unicode="3" horiz-adv-x="1193" d="M604 -18q-136 0 -248 49t-177 135.5t-68 193.5h41q6 -143 137 -240t317 -97q187 0 311.5 98t124.5 246q0 158 -137.5 254t-363.5 96h-72v41h72q224 0 342 79t118 230q0 158 -120.5 261.5t-305.5 103.5q-141 0 -250.5 -64.5t-152.5 -171.5l-37 16q47 118 167.5 189.5 t272.5 71.5q201 0 334 -116t133 -290q0 -256 -294 -332q152 -29 243.5 -130.5t91.5 -239.5q0 -163 -137.5 -273t-341.5 -110z" />
<glyph unicode="4" horiz-adv-x="1126" d="M838 0v432h-789v35l801 987h29v-981h180v-41h-180v-432h-41zM106 473h732v905z" />
<glyph unicode="5" horiz-adv-x="1126" d="M553 -20q-152 0 -275 82t-184 217h45q56 -117 167.5 -188t246.5 -71q185 0 312.5 122.5t127.5 310.5q0 181 -124 299t-306 118q-117 0 -221.5 -52.5t-171.5 -147.5h-49l160 784h690v-41h-656l-133 -665q73 79 172.5 121t208.5 42q197 0 334 -129.5t137 -328.5 q0 -138 -67 -247.5t-176.5 -167.5t-237.5 -58z" />
<glyph unicode="6" horiz-adv-x="1218" d="M635 973q-163 0 -295.5 -95t-179.5 -247q0 373 128.5 582.5t344.5 209.5q132 0 237.5 -75.5t143.5 -198.5l39 14q-44 138 -158.5 219.5t-263.5 81.5q-116 0 -209 -55t-162.5 -165t-107 -287.5t-37.5 -411.5q0 -257 145 -411t367 -154q210 0 356.5 144.5t146.5 350.5 q0 135 -66 249.5t-180 181.5t-249 67zM168 475q0 91 37 175.5t99 146t147 98.5t178 37q92 0 177 -37t147.5 -98.5t99.5 -146.5t37 -177q0 -186 -135 -319.5t-324 -133.5q-93 0 -178.5 36.5t-148 97.5t-99.5 145.5t-37 175.5z" />
<glyph unicode="7" horiz-adv-x="1005" d="M934 1413h-875v41h942l-745 -1454h-47z" />
<glyph unicode="8" horiz-adv-x="1189" d="M588 -14q-107 0 -198 33.5t-152 89t-95 128.5t-34 152q0 143 99.5 248.5t235.5 142.5q-124 43 -203 127.5t-79 200.5q0 107 65 187.5t162 119.5t207 39t206.5 -39t161 -119.5t64.5 -187.5q0 -116 -80.5 -200.5t-204.5 -127.5q148 -43 243 -148.5t95 -246.5 q0 -118 -69 -210.5t-180.5 -140.5t-243.5 -48zM594 801q93 0 181.5 35t150 107t61.5 165q0 94 -58 165t-146.5 105.5t-190.5 34.5q-101 0 -188.5 -35.5t-144 -107.5t-56.5 -166q0 -92 61.5 -163.5t149 -105.5t180.5 -34zM592 760q-80 0 -159 -27t-142 -74.5t-102 -119 t-39 -152.5q0 -84 41 -155t106.5 -116.5t144 -70.5t156.5 -25q80 0 158.5 26.5t141.5 73.5t102.5 118t39.5 153q0 111 -70 197.5t-171 129t-207 42.5z" />
<glyph unicode="9" horiz-adv-x="1218" d="M584 471q163 0 295.5 95t179.5 247q0 -373 -129 -583t-344 -210q-132 0 -237.5 76t-143.5 199l-39 -14q44 -138 158.5 -219.5t263.5 -81.5q116 0 209 55t162.5 165t107 287.5t37.5 411.5q0 257 -145 411t-367 154q-138 0 -254 -66t-183 -180t-67 -249t66.5 -249.5 t180.5 -181.5t249 -67zM1051 969q0 -91 -37 -175.5t-99 -146t-147 -98.5t-178 -37q-92 0 -177 37t-147.5 98.5t-99.5 146.5t-37 177q0 186 135 319t324 133q124 0 231 -61.5t169.5 -166t62.5 -226.5z" />
<glyph unicode=":" horiz-adv-x="323" d="M141 928v131h41v-131h-41zM141 0v131h41v-131h-41z" />
<glyph unicode=";" horiz-adv-x="344" d="M150 928v131h40v-131h-40zM143 -166l21 146h-19v151h54v-151l-27 -146h-29z" />
<glyph unicode="&#x3c;" horiz-adv-x="1028" d="M70 549l854 510v-45l-795 -484l795 -485v-45l-854 512v37z" />
<glyph unicode="=" horiz-adv-x="890" d="M145 616v41h600v-41h-600zM145 473v41h600v-41h-600z" />
<glyph unicode="&#x3e;" horiz-adv-x="1028" d="M958 512l-854 -512v45l795 485l-795 484v45l854 -510v-37z" />
<glyph unicode="?" horiz-adv-x="958" d="M365 367q0 95 12.5 162.5t39 109.5t54 65.5t70.5 45.5q18 9 49.5 24.5t52 25.5t49.5 27t47.5 33t39.5 40.5t33 51.5t20 64t8 80q0 84 -28.5 150t-77 105.5t-108.5 60t-126 20.5q-124 0 -231.5 -65.5t-159.5 -174.5l-37 16q55 123 174 194t252 71q102 0 187.5 -42 t140.5 -131t55 -210q0 -45 -8.5 -84.5t-21 -68t-35 -55.5t-42.5 -44.5t-51.5 -37t-53.5 -31t-57 -29.5t-55 -29q-38 -20 -61.5 -40.5t-46 -57.5t-33 -97.5t-10.5 -148.5h-41zM365 0v172h41v-172h-41z" />
<glyph unicode="@" horiz-adv-x="1699" d="M1575 455q0 -31 -2 -65t-9 -83.5t-19 -94t-34 -90.5t-51 -79.5t-73.5 -54.5t-98.5 -21q-47 0 -76.5 14.5t-45 46.5t-21 62t-10.5 82q-55 -63 -148 -105t-194 -42q-134 0 -216.5 73t-82.5 189q0 70 32.5 122t87.5 80t117.5 41t132.5 13q141 0 279 -47q0 89 -12.5 155.5 t-42.5 119.5t-84 80.5t-132 27.5q-151 0 -294 -99l-25 33q160 107 321 107q78 0 135 -24t89.5 -61.5t52 -94.5t25.5 -110.5t6 -121.5v-313q0 -99 21.5 -143t86.5 -44q67 0 117 45t76 116t38.5 144t12.5 144q0 201 -92.5 370.5t-250.5 268t-345 98.5q-136 0 -263.5 -54.5 t-225 -148.5t-156 -230.5t-58.5 -289.5q0 -199 94.5 -367t255.5 -265t351 -97q167 0 311 78l21 -37q-158 -82 -332 -82q-200 0 -370.5 101.5t-271 279t-100.5 389.5q0 163 62.5 307t165 243t238 156.5t278.5 57.5q149 0 283.5 -61.5t232.5 -166t155.5 -249t57.5 -303.5z M1141 356v97q-10 0 -50.5 12.5t-104.5 24.5t-132 12q-49 0 -93 -6t-86.5 -22t-72.5 -39.5t-48.5 -61.5t-18.5 -86q0 -103 75.5 -162t182.5 -59q102 0 198 47q48 23 80 52t46 63t19 62.5t5 65.5z" />
<glyph unicode="A" horiz-adv-x="1380" d="M672 1454h37l632 -1454h-45l-227 520h-760l-227 -520h-45zM1051 561l-361 834l-364 -834h725z" />
<glyph unicode="B" horiz-adv-x="1341" d="M877 0h-674v1454h643q98 0 176 -55.5t117 -139t39 -176.5q0 -110 -57 -202.5t-152 -135.5q123 -36 196.5 -138.5t73.5 -229.5q0 -152 -107 -264.5t-255 -112.5zM244 1413v-659h590q86 0 156.5 48.5t108.5 123.5t38 157q0 134 -82.5 232t-208.5 98h-602zM891 713h-647 v-672h633q87 0 162 49t117 126t42 161q0 134 -89 235t-218 101z" />
<glyph unicode="C" horiz-adv-x="1427" d="M784 1462q187 0 324.5 -86.5t206.5 -230.5l-39 -12q-41 77 -99 134.5t-124.5 90t-135 48t-141.5 15.5q-147 0 -270 -60.5t-201.5 -159t-122 -220.5t-43.5 -250q0 -137 50.5 -266t136 -224.5t205.5 -153.5t251 -58q156 0 302.5 78t226.5 229l39 -10 q-72 -157 -236.5 -247.5t-339.5 -90.5q-115 0 -221.5 42t-187.5 115.5t-142 168t-93 204t-32 219.5q0 105 29 209t87.5 197t139 164t192 113t238.5 42z" />
<glyph unicode="D" horiz-adv-x="1456" d="M203 0v1454h467q167 0 298.5 -56.5t214.5 -156t126 -230t43 -282.5q0 -331 -185 -530t-497 -199h-467zM670 1413h-426v-1372h426q155 0 278 52.5t201.5 145.5t120 217.5t41.5 272.5q0 200 -73.5 353.5t-220 242t-347.5 88.5z" />
<glyph unicode="E" horiz-adv-x="1263" d="M1157 41v-41h-954v1454h936v-41h-895v-649h784v-41h-784v-682h913z" />
<glyph unicode="F" horiz-adv-x="1232" d="M203 0v1454h936v-41h-895v-647h764v-41h-764v-725h-41z" />
<glyph unicode="G" horiz-adv-x="1474" d="M967 692h383v-692h-41v250q-224 -260 -525 -260q-146 0 -276.5 65t-218.5 169.5t-139.5 236.5t-51.5 266q0 113 31.5 222t90.5 201.5t139 163t184 110.5t217 40q396 0 555 -317l-39 -12q-156 288 -516 288q-112 0 -211.5 -39.5t-173 -107.5t-127.5 -156.5t-81.5 -189 t-27.5 -203.5q0 -108 32.5 -212t92 -191t138.5 -153t178 -103t204 -37q291 0 525 274v346h-342v41z" />
<glyph unicode="H" horiz-adv-x="1497" d="M1294 1454v-1454h-41v723h-1009v-723h-41v1454h41v-690h1009v690h41z" />
<glyph unicode="I" horiz-adv-x="446" d="M203 0v1454h41v-1454h-41z" />
<glyph unicode="J" horiz-adv-x="968" d="M61 100q121 -82 293 -82q74 0 131 16.5t98 45t70 77t46.5 101.5t27.5 130t13 151t3 176v739h41v-739q0 -104 -3.5 -181t-14.5 -158t-30.5 -138t-51.5 -109t-77 -83.5t-108.5 -50t-144.5 -18.5q-182 0 -315 91z" />
<glyph unicode="K" horiz-adv-x="1271" d="M203 0v1454h41v-944l925 944h60l-621 -635l649 -819h-53l-626 791l-334 -338v-453h-41z" />
<glyph unicode="L" horiz-adv-x="1185" d="M203 0v1454h41v-1413h913v-41h-954z" />
<glyph unicode="M" horiz-adv-x="1810" d="M1567 0v1364l-645 -1077h-33l-645 1077v-1364h-41v1454h33l669 -1118l670 1118h33v-1454h-41z" />
<glyph unicode="N" horiz-adv-x="1589" d="M244 1374v-1374h-41v1454h30l1113 -1395v1395h40v-1454h-47z" />
<glyph unicode="O" horiz-adv-x="1550" d="M98 727q0 192 88.5 361t245.5 272.5t344 103.5q145 0 274 -64.5t215.5 -168.5t136.5 -236t50 -268q0 -194 -88.5 -363t-245 -271.5t-342.5 -102.5q-146 1 -274.5 64t-215.5 165.5t-137.5 235.5t-50.5 272zM776 31q110 0 211 39.5t177 107.5t132.5 156t85.5 189.5 t29 203.5q0 180 -82.5 339.5t-230 258t-322.5 98.5q-138 0 -259 -60.5t-202.5 -158.5t-128.5 -223t-47 -254q0 -135 48.5 -261.5t131.5 -222.5t202.5 -154t254.5 -58z" />
<glyph unicode="P" horiz-adv-x="1267" d="M203 0v1454h592q115 0 210.5 -65t147 -165.5t51.5 -209.5q0 -114 -48.5 -215t-140.5 -164.5t-206 -63.5h-565v-571h-41zM244 612h565q106 0 188.5 60t124 150.5t41.5 191.5q0 158 -108.5 278.5t-259.5 120.5h-551v-801z" />
<glyph unicode="Q" horiz-adv-x="1550" d="M1452 727q0 -155 -58.5 -297t-162.5 -246l145 -184h-51l-125 156q-187 -166 -424 -166q-146 1 -274.5 64t-215.5 165.5t-137.5 235.5t-50.5 272q0 192 88.5 361t245.5 272.5t344 103.5q145 0 274 -64.5t215.5 -168.5t136.5 -236t50 -268zM776 31q227 0 400 157l-154 193 h51l131 -166q98 101 152.5 236.5t54.5 275.5q0 180 -82.5 339.5t-230 258t-322.5 98.5q-138 0 -259 -60.5t-202.5 -158.5t-128.5 -223t-47 -254q0 -135 48.5 -261.5t131.5 -222.5t202.5 -154t254.5 -58z" />
<glyph unicode="R" horiz-adv-x="1314" d="M203 0v1454h592q115 0 210.5 -65t147 -165.5t51.5 -209.5q0 -173 -104.5 -302t-265.5 -141l368 -571h-49l-369 571h-540v-571h-41zM244 612h565q105 0 187.5 59t124.5 150t42 193q0 158 -108.5 278.5t-259.5 120.5h-551v-801z" />
<glyph unicode="S" horiz-adv-x="1232" d="M1042 1262q-83 92 -175 127.5t-226 35.5q-241 0 -356 -91.5t-115 -256.5q0 -45 9 -81t25 -64t45 -51.5t62.5 -41t85 -34t104.5 -29.5t128 -28q109 -22 181 -41.5t143.5 -51t112.5 -70t66 -96.5t25 -133q0 -175 -136 -270.5t-376 -95.5q-174 0 -311 54.5t-254 170.5l31 27 q109 -113 239 -165t297 -52q221 0 345 82.5t124 242.5q0 81 -27.5 138t-90.5 98.5t-148.5 69t-218.5 53.5q-108 20 -177.5 38t-137 46.5t-105 64.5t-60 90t-22.5 125q0 186 136.5 288.5t371.5 102.5q140 0 243.5 -41t188.5 -133z" />
<glyph unicode="T" horiz-adv-x="1228" d="M1192 1413h-557v-1413h-41v1413h-557v41h1155v-41z" />
<glyph unicode="U" horiz-adv-x="1548" d="M776 -10q-134 0 -238.5 42t-170.5 111.5t-109.5 167t-60.5 199.5t-17 217v727h41v-727q0 -111 16 -207.5t55.5 -188t100.5 -156.5t158.5 -104.5t222.5 -39.5q127 0 225.5 40.5t159.5 106t100.5 158t54.5 188t15 203.5v727h41v-727q0 -120 -18.5 -225t-62.5 -200.5 t-111 -163.5t-169.5 -108t-232.5 -40z" />
<glyph unicode="V" horiz-adv-x="1388" d="M82 1454l612 -1403l611 1403h45l-633 -1454h-45l-633 1454h43z" />
<glyph unicode="W" horiz-adv-x="2125" d="M780 1442h45l236 -545l237 545h45l-260 -594l349 -797l610 1403h45l-633 -1454h-45l-346 797l-346 -797h-45l-633 1454h45l610 -1403l346 797z" />
<glyph unicode="X" horiz-adv-x="1271" d="M76 1454l561 -704l561 704h51l-587 -737l571 -717h-51l-545 684l-545 -684h-53l571 717l-587 737h53z" />
<glyph unicode="Y" horiz-adv-x="1312" d="M94 1454l561 -844l564 844h47l-590 -891v-563h-41v567l-588 887h47z" />
<glyph unicode="Z" horiz-adv-x="1277" d="M57 41l1110 1372h-1099v41h1151v-41l-1110 -1372h1101v-41h-1153v41z" />
<glyph unicode="[" horiz-adv-x="466" d="M199 -82v1598h143v-41h-102v-1516h102v-41h-143z" />
<glyph unicode="\" horiz-adv-x="1052" d="M109 1454l890 -1454h-51l-893 1454h54z" />
<glyph unicode="]" horiz-adv-x="466" d="M125 -82v41h102v1516h-102v41h143v-1598h-143z" />
<glyph unicode="^" horiz-adv-x="1034" d="M94 621l406 833h37l403 -833h-47l-375 774l-381 -774h-43z" />
<glyph unicode="_" horiz-adv-x="1087" d="M141 -41v41h805v-41h-805z" />
<glyph unicode="`" horiz-adv-x="405" d="M102 1495h68l133 -149l-33 -25z" />
<glyph unicode="a" horiz-adv-x="1073" d="M80 305q0 134 122.5 218.5t315.5 84.5q197 0 356 -59v121q0 166 -95.5 267t-252.5 101q-158 0 -344 -131l-24 33q204 139 368 139q178 0 283.5 -110.5t105.5 -298.5v-588q0 -41 33 -41v-41q-22 0 -28 4q-20 7 -33 29.5t-13 48.5v98q-73 -95 -192 -147.5t-258 -52.5 q-145 0 -244.5 94t-99.5 231zM844 209q30 44 30 84v211q-163 63 -356 63q-179 0 -288 -72t-109 -190q0 -120 87.5 -202.5t215.5 -82.5q136 0 250 51.5t170 137.5z" />
<glyph unicode="b" horiz-adv-x="1234" d="M213 221v-221h-41v1495h41v-680q187 264 434 264q112 0 207.5 -49t157 -128.5t95.5 -177t34 -196.5q0 -143 -67 -269t-185.5 -202.5t-259.5 -76.5q-123 0 -237 68.5t-179 172.5zM1100 528q0 132 -56.5 248t-161.5 189t-235 73q-143 0 -255.5 -88t-178.5 -221v-387 q5 -83 74.5 -159.5t163.5 -119.5t178 -43q100 0 189 44t150 115.5t96.5 163t35.5 185.5z" />
<glyph unicode="c" horiz-adv-x="1101" d="M608 -20q-138 0 -256.5 75t-188 203.5t-69.5 278.5t67 274.5t185 196t260 71.5q134 0 240 -62.5t160 -174.5l-41 -15q-52 98 -150 154.5t-215 56.5q-195 0 -330 -145t-135 -356q0 -138 63.5 -257.5t171 -189.5t232.5 -70q124 0 238 68t139 156l41 -13q-35 -107 -154 -179 t-258 -72z" />
<glyph unicode="d" horiz-adv-x="1236" d="M94 528q0 109 37.5 209.5t102 176t157.5 120.5t197 45q138 0 251 -74.5t183 -189.5v680h41v-1413q0 -19 9 -30t24 -11v-41q-19 0 -27 4q-22 9 -34.5 30.5t-12.5 47.5v139q-68 -107 -182 -174t-234 -67q-143 0 -262.5 80.5t-184.5 205.5t-65 262zM1022 346v383 q-30 83 -100.5 154.5t-159.5 113t-174 41.5q-100 0 -186.5 -44t-144 -116t-90 -163t-32.5 -187q0 -132 62.5 -248.5t171.5 -188t237 -71.5q62 0 133.5 27t133 70.5t103.5 104.5t46 124z" />
<glyph unicode="e" d="M606 -20q-138 0 -256 75.5t-187 204.5t-69 279q0 147 67 271.5t182.5 196.5t252.5 72q139 0 256.5 -73t186 -199.5t69.5 -276.5v-22h-973q10 -135 75.5 -247t170.5 -176.5t227 -64.5q123 0 230 63t151 161l39 -11q-43 -109 -163.5 -181t-258.5 -72zM135 549h930 q-13 213 -145.5 351t-321.5 138q-124 0 -227.5 -63t-166 -175t-69.5 -251z" />
<glyph unicode="f" horiz-adv-x="612" d="M211 0v1022h-154v41h154v43q0 193 74.5 301.5t206.5 108.5q58 0 112 -19.5t82 -50.5l-33 -25q-25 25 -68.5 40.5t-90.5 15.5q-117 0 -179.5 -95.5t-62.5 -275.5v-43h317v-41h-317v-1022h-41z" />
<glyph unicode="g" horiz-adv-x="1234" d="M94 528q0 106 37 206t100.5 176.5t157 122.5t199.5 46q248 0 434 -264v248h41v-1108q0 -102 -39 -182.5t-105 -129.5t-149 -74.5t-176 -25.5q-179 0 -287.5 65.5t-173.5 188.5l39 13q62 -115 173.5 -170.5t248.5 -55.5q119 0 214.5 41t154.5 126.5t59 203.5v266 q-68 -107 -182 -174t-234 -67q-143 0 -262.5 80.5t-184.5 205.5t-65 262zM1022 346v383q-51 133 -174 221t-260 88q-104 0 -191.5 -45.5t-143.5 -119t-87 -163.5t-31 -182q0 -132 62.5 -248.5t171.5 -188t237 -71.5q97 0 192.5 49.5t156.5 125.5t67 151z" />
<glyph unicode="h" horiz-adv-x="1157" d="M997 0h-41v592q0 446 -294 446q-149 0 -278.5 -105.5t-170.5 -260.5v-672h-41v1495h41v-707q66 132 188 211.5t258 79.5q166 0 252 -124t86 -363v-592z" />
<glyph unicode="i" horiz-adv-x="385" d="M172 1337v158h41v-158h-41zM172 0v1063h41v-1063h-41z" />
<glyph unicode="j" horiz-adv-x="401" d="M188 1337v158h41v-158h-41zM-248 -279l33 25q60 -53 170 -53q88 0 160.5 69t72.5 164v1137h41v-1137q0 -115 -85.5 -194.5t-186.5 -79.5q-136 0 -205 69z" />
<glyph unicode="k" horiz-adv-x="1040" d="M954 0l-452 608l-289 -262v-346h-41v1495h41v-1094l725 658h55l-461 -422l472 -637h-50z" />
<glyph unicode="l" horiz-adv-x="487" d="M184 1495h41v-1337q0 -60 36.5 -94.5t98.5 -34.5q50 0 113 18l14 -33q-74 -24 -141 -24q-72 0 -117 46.5t-45 121.5v1337z" />
<glyph unicode="m" horiz-adv-x="1859" d="M1700 0h-41v592q0 228 -69.5 337t-215.5 109q-149 0 -261.5 -101.5t-156.5 -266.5v-670h-41v592q0 231 -68 338.5t-214 107.5q-148 0 -261 -100t-159 -266v-672h-41v1063h41v-275q69 138 177.5 214.5t234.5 76.5q133 0 220.5 -84t102.5 -225q158 309 426 309 q166 0 246 -119.5t80 -367.5v-592z" />
<glyph unicode="n" horiz-adv-x="1157" d="M997 0h-41v592q0 232 -65 339t-207 107q-155 0 -291 -105t-180 -261v-672h-41v1063h41v-275q66 129 196.5 210t272.5 81q163 0 239 -118t76 -369v-592z" />
<glyph unicode="o" horiz-adv-x="1200" d="M94 528q0 147 69 274t185.5 202t251.5 75t251.5 -75t185.5 -202t69 -274q0 -109 -40 -210.5t-108 -175.5t-161.5 -118t-196.5 -44q-138 0 -254.5 74.5t-184 201t-67.5 272.5zM598 20q125 0 232.5 69.5t171 187t63.5 253.5q0 135 -63 252t-170.5 186.5t-231.5 69.5 t-231.5 -70t-170.5 -188.5t-63 -255.5q0 -135 62.5 -251t169 -184.5t231.5 -68.5z" />
<glyph unicode="p" horiz-adv-x="1234" d="M213 244v-680h-41v1499h41v-225q68 107 182 174t234 67q144 0 263.5 -81.5t184 -207t64.5 -262.5q0 -146 -60.5 -270.5t-175 -201t-258.5 -76.5q-133 0 -246 74t-188 190zM1100 528q0 132 -62.5 249t-171.5 189t-237 72q-82 0 -177 -45t-164.5 -122t-74.5 -158v-383 q59 -133 178 -221.5t256 -88.5q133 0 238.5 75t160 190t54.5 243z" />
<glyph unicode="q" horiz-adv-x="1234" d="M94 528q0 107 40.5 208t108.5 176.5t163.5 121t199.5 45.5q123 0 237 -68.5t179 -172.5v225h41v-1499h-41v680q-183 -264 -434 -264q-144 0 -259 80t-175 204t-60 264zM1022 330v383q-9 82 -74.5 158.5t-159 121.5t-182.5 45q-100 0 -189.5 -44.5t-150 -116t-96 -163.5 t-35.5 -186q0 -134 58 -250t163 -187t232 -71q142 0 254 88t180 222z" />
<glyph unicode="r" horiz-adv-x="661" d="M627 1022q-151 -6 -261 -99t-153 -251v-672h-41v1063h41v-275q56 113 149 186t197 85q54 4 68 4v-41z" />
<glyph unicode="s" horiz-adv-x="964" d="M481 -20q-249 0 -405 172l30 26q83 -81 173 -119.5t202 -38.5q159 0 257 69.5t98 189.5q0 38 -10 67.5t-34.5 53t-51 40t-75 32.5t-89.5 27t-111 27q-45 11 -69 17t-59 16.5t-53.5 18t-43.5 19.5t-37 23.5t-27 28t-21.5 35.5t-11 42.5t-4.5 51.5q0 77 30 136t82.5 94 t119 53t143.5 18q125 0 217.5 -42.5t128.5 -110.5l-37 -17q-37 61 -124.5 95t-192.5 34q-92 0 -163.5 -25.5t-117 -84t-45.5 -144.5q0 -35 6.5 -61.5t24.5 -47t37 -34.5t57 -27.5t70.5 -23t91.5 -23.5q68 -16 104 -25t87.5 -24.5t78 -28.5t58 -34t46.5 -44.5t25.5 -55 t10.5 -70.5q0 -139 -108.5 -222t-287.5 -83z" />
<glyph unicode="t" horiz-adv-x="604" d="M586 49q-5 -5 -25.5 -17t-70 -27t-99.5 -15q-76 0 -130 46t-54 118v868h-154v41h154v371h41v-371h256v-41h-256v-868q4 -58 45 -90.5t98 -32.5q42 0 84.5 12.5t63 23.5t24.5 15z" />
<glyph unicode="u" d="M160 467v596h41v-596q0 -226 74.5 -336.5t226.5 -110.5q154 0 285 103.5t178 263.5v676h41v-981q0 -41 32 -41v-41q-22 0 -28 4q-20 7 -32.5 29t-12.5 49v188q-69 -133 -194.5 -211.5t-268.5 -78.5q-169 0 -255.5 123t-86.5 364z" />
<glyph unicode="v" horiz-adv-x="1064" d="M514 0l-463 1063h45l436 -1004l437 1004h45l-463 -1063h-37z" />
<glyph unicode="w" horiz-adv-x="1626" d="M1530 1063h45l-465 -1063h-37l-260 596l-260 -596h-37l-465 1063h45l439 -1004l256 588l-179 414h43l158 -361l158 361h43l-178 -414l256 -588z" />
<glyph unicode="x" horiz-adv-x="987" d="M94 1063l383 -479l17 -25l16 25l383 479h53l-426 -535l422 -528h-53l-379 475l-16 25l-17 -25l-379 -475h-53l422 528l-426 535h53z" />
<glyph unicode="y" horiz-adv-x="1097" d="M262 -416q80 0 96 21t179 395l-494 1063h45l469 -1012l444 1012h46l-633 -1444q-23 -53 -68 -65q-46 -11 -84 -11v41z" />
<glyph unicode="z" horiz-adv-x="999" d="M68 41l811 981h-801v41h852v-41l-809 -981h801v-41h-854v41z" />
<glyph unicode="{" horiz-adv-x="468" d="M242 1475v-623q0 -76 -43 -115q43 -37 43 -114v-646h112v-40h-106q-20 0 -33.5 15t-13.5 46v625q0 88 -62 96v41q20 0 33.5 11t19 28.5t7.5 30t2 22.5v602q0 34 16.5 48t30.5 14h106v-41h-112z" />
<glyph unicode="|" horiz-adv-x="430" d="M195 -266v1853h41v-1853h-41z" />
<glyph unicode="}" horiz-adv-x="468" d="M115 1475v41h106q8 0 17 -4t19.5 -19t10.5 -39v-602q0 -10 2 -22.5t7.5 -30t19 -28.5t33.5 -11v-41q-62 -8 -62 -96v-625q0 -31 -13.5 -46t-33.5 -15h-106v40h112v646q0 77 43 114q-43 39 -43 115v623h-112z" />
<glyph unicode="~" horiz-adv-x="946" d="M315 680q37 0 79.5 -19.5t74.5 -43t74 -43t78 -19.5q34 0 63.5 15.5t45.5 36.5t25 37.5t9 21.5l41 -2q-2 -6 -6 -16t-19 -36t-34 -46t-52.5 -36t-72.5 -16q-43 0 -90 19.5t-79.5 43t-70.5 43t-66 19.5q-37 0 -70 -31.5t-47 -59.5t-14 -34h-41q0 4 6 20.5t19.5 41.5 t32.5 48t49 39.5t65 16.5z" />
<glyph unicode="&#xa1;" horiz-adv-x="466" d="M254 1468v-172h-41v172h41zM254 1059v-1059h-41v1059h41z" />
<glyph unicode="&#xa2;" horiz-adv-x="1107" d="M565 -246v228q-134 11 -243.5 93t-168.5 202.5t-59 250.5q0 138 58.5 261t168 203t244.5 87v242h41v-242q283 -8 398 -237l-39 -15q-111 201 -359 211v-1018q69 0 147.5 27t143.5 80t82 117l41 -13q-26 -79 -96.5 -138t-153.5 -86t-164 -27v-226h-41zM565 23v1015 q-99 -5 -182 -52t-136 -120t-82.5 -160.5t-29.5 -177.5q0 -125 56 -236.5t155.5 -184.5t218.5 -84z" />
<glyph unicode="&#xa3;" horiz-adv-x="956" d="M846 53l12 -39q-110 -45 -217 -45q-59 0 -155 20.5t-158 20.5q-95 0 -193 -24l-20 34q165 176 221.5 272.5t56.5 201.5q0 109 -49 215h-246v41h226q-17 32 -52.5 90.5t-55.5 94t-37 88.5t-17 103q0 138 99 238t235 100q101 0 189.5 -58t141.5 -157l-34 -24 q-50 92 -130 145t-171 53q-117 0 -201 -86t-84 -207q0 -49 17 -101t38 -89t55.5 -95t53.5 -95h354v-41h-334q45 -105 45 -213q0 -109 -53.5 -211t-187.5 -248q79 14 145 14t160 -20.5t143 -20.5q86 0 203 43z" />
<glyph unicode="&#xa4;" horiz-adv-x="1091" d="M299 956q102 99 244 99q147 0 250 -103l143 142l31 -29l-146 -143q84 -109 84 -236q0 -131 -88 -237l150 -146l-31 -29l-148 146q-106 -98 -245 -98q-138 0 -240 92l-141 -140l-31 29l143 141q-90 104 -90 242q0 133 86 240l-139 139l31 29zM543 358q130 0 224.5 98 t94.5 232q0 136 -94 232t-225 96q-128 0 -222 -97.5t-94 -234.5q0 -135 93.5 -230.5t222.5 -95.5z" />
<glyph unicode="&#xa5;" horiz-adv-x="1333" d="M776 698h191v-41h-217l-64 -94v-49h281v-41h-281v-473h-41v473h-278v41h278v53l-59 90h-219v41h192l-502 756h47l562 -844l563 844h47z" />
<glyph unicode="&#xa6;" horiz-adv-x="438" d="M240 1587v-850h-41v850h41zM240 584v-850h-41v850h41z" />
<glyph unicode="&#xa7;" horiz-adv-x="985" d="M899 152q0 -77 -35 -142t-90.5 -105.5t-122 -62.5t-133.5 -22q-122 0 -213 44.5t-170 123.5l31 26q85 -78 169 -115.5t183 -37.5q83 0 159.5 34t128.5 102t52 155q0 71 -28 119.5t-79 72.5t-102.5 33.5t-118.5 11.5q-79 2 -145.5 21t-120 55t-84 95.5t-30.5 137.5 q0 54 18 107.5t47 85.5q-56 34 -88.5 100.5t-32.5 149.5q0 74 34.5 137t89.5 102.5t121 61.5t132 22q129 0 206.5 -37.5t131.5 -115.5l-37 -17q-19 38 -54 64.5t-78.5 40t-84 19t-84.5 5.5q-82 0 -158 -33t-127 -99t-51 -150q0 -269 340 -269q75 0 142.5 -17t124 -51.5 t89.5 -94t33 -136.5q0 -59 -20.5 -113.5t-55.5 -88.5q111 -61 111 -219zM748 389q35 29 55 79t20 105q0 71 -32 123.5t-85 80.5t-111 41t-120 13q-130 0 -221 39q-29 -28 -46.5 -75t-17.5 -97q0 -78 30 -131.5t75.5 -79t109 -41t121 -19.5t121 -13.5t101.5 -24.5z" />
<glyph unicode="&#xa8;" horiz-adv-x="483" d="M102 1337v158h41v-158h-41zM340 1337v158h41v-158h-41z" />
<glyph unicode="&#xa9;" horiz-adv-x="1687" d="M104 727q0 156 56.5 293t154 234.5t235 153.5t294.5 56t294 -56t235 -153.5t154 -234.5t56 -293q0 -157 -56 -294.5t-154 -235.5t-235 -154.5t-294 -56.5t-294.5 56.5t-235 154.5t-154 235.5t-56.5 294.5zM1540 721q0 200 -90 361t-248.5 251t-355.5 90 q-198 0 -358 -90.5t-250.5 -250t-90.5 -357.5q0 -197 90 -356.5t250 -250.5t359 -91q194 0 352 86.5t250 246t92 361.5zM410 727q0 85 26 166t76.5 151t136 113t193.5 43q120 0 215 -52t133 -151l-39 -14q-22 53 -61 90t-84.5 54.5t-84.5 24.5t-79 7q-78 0 -144 -26 t-110.5 -69t-76 -99t-46 -116.5t-14.5 -121.5q0 -79 24.5 -148.5t65.5 -119.5t93 -86t107.5 -54t108.5 -18q95 0 190.5 52t130.5 134l39 -10q-8 -29 -37.5 -65t-74 -70.5t-109 -58t-131.5 -23.5q-79 0 -157.5 32t-144 89.5t-106 148t-40.5 197.5z" />
<glyph unicode="&#xaa;" horiz-adv-x="870" d="M106 938q0 92 86 150.5t220 58.5q132 0 235 -39v72q0 100 -61.5 160.5t-165.5 60.5q-110 0 -238 -84l-26 41q143 94 268 94q133 0 210 -74t77 -204v-351q0 -32 28 -32v-60q-27 0 -37 2q-47 10 -47 60l-2 59q-51 -63 -131.5 -98t-173.5 -35q-101 0 -171.5 63.5 t-70.5 155.5zM625 881q22 28 22 55v125q-94 39 -227 39q-113 0 -182.5 -43.5t-69.5 -116.5q0 -71 55.5 -119.5t136.5 -48.5q84 0 156 29.5t109 79.5z" />
<glyph unicode="&#xab;" horiz-adv-x="1060" d="M86 549l485 346v-45l-446 -320l446 -321v-45l-485 348v37zM434 549l486 346v-45l-447 -320l447 -321v-45l-486 348v37z" />
<glyph unicode="&#xac;" horiz-adv-x="1148" d="M1004 692v-405h-41v364h-785v41h826z" />
<glyph unicode="&#xad;" horiz-adv-x="1107" d="M141 535v40h826v-40h-826z" />
<glyph unicode="&#xae;" horiz-adv-x="1687" d="M104 727q0 156 56.5 293t154 234.5t235 153.5t294.5 56t294 -56t235 -153.5t154 -234.5t56 -293q0 -157 -56 -294.5t-154 -235.5t-235 -154.5t-294 -56.5t-294.5 56.5t-235 154.5t-154 235.5t-56.5 294.5zM1540 727q0 147 -53 276t-144.5 221t-221 145.5t-277.5 53.5 q-147 0 -276.5 -53.5t-222 -145.5t-145.5 -221t-53 -276q0 -198 90 -358t249.5 -251t357.5 -91q196 0 354 86t250 246.5t92 367.5zM547 1194h385q113 0 189.5 -88t76.5 -199q0 -112 -68.5 -195.5t-173.5 -90.5l240 -373h-49l-238 373h-319v-373h-43v946zM942 662 q101 0 158 70.5t57 174.5q0 102 -63.5 173t-161.5 71h-342v-489h352z" />
<glyph unicode="&#xaf;" horiz-adv-x="778" d="M102 1405v41h574v-41h-574z" />
<glyph unicode="&#xb0;" horiz-adv-x="516" d="M258 1483q58 0 99.5 -41.5t41.5 -100.5t-41.5 -100t-99.5 -41t-99.5 41t-41.5 100t41.5 100.5t99.5 41.5zM158 1341q0 -44 28 -69q31 -31 72 -31t72 31q28 28 28 69t-28 72q-29 29 -72 29t-72 -29q-28 -28 -28 -72z" />
<glyph unicode="&#xb1;" horiz-adv-x="962" d="M788 748v-41h-286v-308h-41v308h-287v41h287v307h41v-307h286zM174 174v41h614v-41h-614z" />
<glyph unicode="&#xb2;" horiz-adv-x="755" d="M82 866q0 145 63.5 227t188.5 128q17 6 54 18.5t57.5 20.5t52 21.5t50 27.5t37.5 33.5t27.5 44t8.5 53.5q0 76 -60 129t-172 53q-170 0 -266 -123l-31 25q4 6 14.5 18.5t37 34t59 39.5t83.5 31.5t107 13.5q131 0 201 -64.5t70 -158.5q0 -27 -6 -50.5t-19 -42.5 t-26.5 -34.5t-36 -29t-39 -23.5t-44.5 -20.5t-43.5 -16t-44.5 -14.5t-40 -13q-62 -21 -106.5 -51t-68 -58.5t-37.5 -64t-17 -60.5t-3 -55h533v-39h-584z" />
<glyph unicode="&#xb3;" horiz-adv-x="778" d="M84 1053l33 14q5 -70 83 -121t189 -51t185.5 49.5t74.5 124.5q0 81 -84 129.5t-221 48.5h-45v37h45q134 0 206.5 41t72.5 117q0 79 -71 130.5t-179 51.5q-85 0 -151 -34t-93 -89l-31 25q31 61 106 98t169 37q126 0 209.5 -62.5t83.5 -154.5q0 -137 -183 -178 q93 -15 150 -70.5t57 -130.5q0 -90 -87 -149.5t-214 -59.5q-128 0 -213.5 55.5t-91.5 141.5z" />
<glyph unicode="&#xb4;" horiz-adv-x="405" d="M135 1321l-33 25l131 149h70z" />
<glyph unicode="&#xb5;" horiz-adv-x="1232" d="M186 1063h41v-596q0 -226 74.5 -336.5t226.5 -110.5q154 0 285 103.5t178 263.5v676h41v-981q0 -19 9 -30t24 -11v-41q-23 0 -29 4q-20 7 -32.5 29t-12.5 49v188q-69 -133 -194.5 -211.5t-268.5 -78.5q-224 0 -301 213v-627h-41v1497z" />
<glyph unicode="&#xb6;" horiz-adv-x="1157" d="M643 1454h412v-41h-144v-1577h-41v672h-186v-672h-41v672q-270 5 -423.5 129t-153.5 344t153 346.5t424 126.5zM643 549v864q-259 0 -398 -113.5t-139 -318.5q0 -109 42.5 -192t118.5 -133t169.5 -76t206.5 -31zM870 1413h-186v-864h186v864z" />
<glyph unicode="&#xb7;" horiz-adv-x="323" d="M141 512v170h41v-170h-41z" />
<glyph unicode="&#xb8;" horiz-adv-x="516" d="M307 -336q-123 0 -225 51l22 35q58 -25 100.5 -37t96.5 -12q164 0 164 115q0 57 -38 98.5t-120 85.5l41 16q80 -45 119 -90.5t39 -109.5q0 -76 -54 -114t-145 -38z" />
<glyph unicode="&#xb9;" horiz-adv-x="516" d="M471 903v-39h-371v39h170v705q-25 -30 -88 -63.5t-110 -33.5v39q39 0 88.5 27.5t77 52t32.5 31.5h41v-758h160z" />
<glyph unicode="&#xba;" horiz-adv-x="921" d="M100 1083q0 152 104.5 260.5t254.5 108.5q151 0 256.5 -108.5t105.5 -260.5q0 -148 -105 -256t-257 -108q-150 0 -254.5 108t-104.5 256zM459 758q130 0 223.5 96.5t93.5 230.5q0 135 -93 230.5t-224 95.5q-128 0 -221 -97t-93 -233q0 -133 92.5 -228t221.5 -95z" />
<glyph unicode="&#xbb;" horiz-adv-x="1060" d="M627 512l-486 -348v45l447 321l-447 320v45l486 -346v-37zM975 512l-486 -348v45l447 321l-447 320v45l486 -346v-37z" />
<glyph unicode="&#xbc;" horiz-adv-x="1482" d="M471 739v-39h-371v39h170v705q-25 -30 -88 -63t-110 -33v38q39 0 88.5 27.5t77 52t32.5 31.5h41v-758h160zM51 23l1143 1433l33 -24l-1143 -1434zM1264 0v225h-478v35l490 524h29v-520h112v-39h-112v-225h-41zM844 264h420v449z" />
<glyph unicode="&#xbd;" horiz-adv-x="1517" d="M471 739v-39h-371v39h170v705q-25 -30 -88 -63t-110 -33v38q39 0 88.5 27.5t77 52t32.5 31.5h41v-758h160zM51 23l1143 1433l33 -24l-1143 -1434zM844 0q0 145 63.5 226.5t188.5 127.5q17 6 54 18.5t57.5 20.5t52 21.5t49.5 27.5t37 33.5t27.5 44t8.5 53.5 q0 76 -59.5 129.5t-171.5 53.5q-170 0 -266 -123l-31 24q4 6 14.5 18.5t37 34t59 40t83.5 32t107 13.5q131 0 200.5 -64.5t69.5 -159.5q0 -30 -9 -56t-21 -45.5t-35 -37.5t-40.5 -29t-49.5 -24.5t-48 -19t-50.5 -16.5t-45.5 -15q-62 -21 -106.5 -51t-68 -58.5t-37 -64 t-16.5 -60.5t-3 -55h532v-39h-583z" />
<glyph unicode="&#xbe;" horiz-adv-x="1744" d="M84 889l33 14q5 -70 83 -121t189 -51t185.5 49.5t74.5 124.5q0 81 -84 129.5t-221 48.5h-45v37h45q134 0 206.5 41t72.5 117q0 79 -71 130.5t-179 51.5q-85 0 -151 -34t-93 -89l-31 25q31 61 106 98t169 37q126 0 209.5 -62.5t83.5 -154.5q0 -137 -183 -178 q93 -15 150 -70.5t57 -130.5q0 -90 -87 -149.5t-214 -59.5q-128 0 -213.5 55.5t-91.5 141.5zM313 23l1143 1433l33 -24l-1143 -1434zM1526 0v225h-477v35l489 524h29v-520h112v-39h-112v-225h-41zM1106 264h420v449z" />
<glyph unicode="&#xbf;" horiz-adv-x="944" d="M586 1036v-172h-41v172h41zM586 670q0 -95 -12.5 -162.5t-39 -109.5t-54 -65.5t-70.5 -45.5q-18 -9 -49.5 -24.5t-52 -25.5t-49.5 -27t-47.5 -33t-39.5 -40.5t-33 -51.5t-20 -64t-8 -80q0 -84 28.5 -150t77 -105.5t108.5 -60t126 -20.5q124 0 231.5 65t159.5 174l37 -16 q-55 -123 -174 -193.5t-252 -70.5q-102 0 -187.5 42t-140.5 131t-55 210q0 45 8.5 84.5t21 68t35 55.5t42 44.5t51 37t53.5 31t57 29.5t55 29q30 16 50 30.5t41 41t33 60.5t20 87.5t8 124.5h41z" />
<glyph unicode="&#xc0;" horiz-adv-x="1380" d="M551 1880h67l134 -149l-33 -25zM672 1454h37l632 -1454h-45l-227 520h-760l-227 -520h-45zM1051 561l-361 834l-364 -834h725z" />
<glyph unicode="&#xc1;" horiz-adv-x="1380" d="M702 1706l-32 25l131 149h69zM672 1454h37l632 -1454h-45l-227 520h-760l-227 -520h-45zM1051 561l-361 834l-364 -834h725z" />
<glyph unicode="&#xc2;" horiz-adv-x="1380" d="M483 1729l191 151h33l190 -151l-33 -25l-174 129l-174 -129zM672 1454h37l632 -1454h-45l-227 520h-760l-227 -520h-45zM1051 561l-361 834l-364 -834h725z" />
<glyph unicode="&#xc3;" horiz-adv-x="1380" d="M551 1821q-30 0 -53 -13.5t-33 -32t-14.5 -32.5t-4.5 -21h-40q0 7 2.5 19.5t11.5 34t24 39.5t44 31.5t67 13.5q53 0 128.5 -39t127.5 -39q32 0 56 9.5t35.5 22.5t19 28.5t9 24t1.5 13.5h41q0 -8 -2.5 -21t-13 -34.5t-27 -38.5t-49 -30t-74.5 -13q-51 0 -97.5 19.5 t-85.5 39t-73 19.5zM672 1454h37l632 -1454h-45l-227 520h-760l-227 -520h-45zM1051 561l-361 834l-364 -834h725z" />
<glyph unicode="&#xc4;" horiz-adv-x="1380" d="M551 1722v158h41v-158h-41zM788 1722v158h41v-158h-41zM672 1454h37l632 -1454h-45l-227 520h-760l-227 -520h-45zM1051 561l-361 834l-364 -834h725z" />
<glyph unicode="&#xc5;" horiz-adv-x="1380" d="M690 1933q65 0 109.5 -44.5t44.5 -108.5t-45 -109t-109 -45t-108.5 44.5t-44.5 109.5q0 64 44.5 108.5t108.5 44.5zM580 1780q0 -46 32 -78.5t78 -32.5q42 0 76.5 32t34.5 79q0 49 -32.5 79.5t-78.5 30.5t-78 -30.5t-32 -79.5zM672 1454h37l632 -1454h-45l-227 520h-760 l-227 -520h-45zM1051 561l-361 834l-364 -834h725z" />
<glyph unicode="&#xc6;" horiz-adv-x="1970" d="M899 1454h946v-41h-895v-649h785v-41h-785v-682h914v-41h-955v520h-575l-342 -520h-51zM909 561v828l-551 -828h551z" />
<glyph unicode="&#xc7;" horiz-adv-x="1427" d="M1350 326q-65 -142 -206.5 -230t-303.5 -104q59 -39 87.5 -80t28.5 -96q0 -76 -53.5 -114t-144.5 -38q-124 0 -226 51l23 35q58 -25 100.5 -37t96.5 -12q163 0 163 115q0 53 -32.5 92.5t-102.5 79.5h-6q-115 0 -221.5 42t-187.5 115.5t-142 168t-93 204t-32 219.5 q0 105 29 209t87.5 197t139 164t192 113t238.5 42q187 0 324.5 -86.5t206.5 -230.5l-39 -12q-41 77 -99 134.5t-124.5 90t-135 48t-141.5 15.5q-147 0 -270 -60.5t-201.5 -159t-122 -220.5t-43.5 -250q0 -137 50.5 -266t136 -224.5t205.5 -153.5t251 -58q156 0 302.5 78 t226.5 229z" />
<glyph unicode="&#xc8;" horiz-adv-x="1263" d="M565 1880h68l133 -149l-33 -25zM1157 41v-41h-954v1454h936v-41h-895v-649h784v-41h-784v-682h913z" />
<glyph unicode="&#xc9;" horiz-adv-x="1263" d="M717 1706l-33 25l131 149h70zM1157 41v-41h-954v1454h936v-41h-895v-649h784v-41h-784v-682h913z" />
<glyph unicode="&#xca;" horiz-adv-x="1263" d="M498 1729l190 151h33l190 -151l-32 -25l-174 129l-175 -129zM1157 41v-41h-954v1454h936v-41h-895v-649h784v-41h-784v-682h913z" />
<glyph unicode="&#xcb;" horiz-adv-x="1263" d="M565 1722v158h41v-158h-41zM803 1722v158h41v-158h-41zM1157 41v-41h-954v1454h936v-41h-895v-649h784v-41h-784v-682h913z" />
<glyph unicode="&#xcc;" horiz-adv-x="446" d="M84 1880h68l133 -149l-33 -25zM203 0v1454h41v-1454h-41z" />
<glyph unicode="&#xcd;" horiz-adv-x="446" d="M236 1706l-33 25l131 149h69zM203 0v1454h41v-1454h-41z" />
<glyph unicode="&#xce;" horiz-adv-x="446" d="M16 1729l191 151h33l190 -151l-33 -25l-174 129l-174 -129zM203 0v1454h41v-1454h-41z" />
<glyph unicode="&#xcf;" horiz-adv-x="446" d="M84 1722v158h41v-158h-41zM322 1722v158h40v-158h-40zM203 0v1454h41v-1454h-41z" />
<glyph unicode="&#xd0;" horiz-adv-x="1470" d="M684 1454q167 0 298.5 -56.5t214.5 -156t126 -230t43 -282.5q0 -331 -185 -530t-497 -199h-467v711h-145v41h145v702h467zM684 41q155 0 278 52.5t201.5 145.5t120 217.5t41.5 272.5q0 200 -73.5 353.5t-220 242t-347.5 88.5h-426v-661h393v-41h-393v-670h426z" />
<glyph unicode="&#xd1;" horiz-adv-x="1589" d="M666 1821q-30 0 -53 -13.5t-33 -32t-14.5 -32.5t-4.5 -21h-41q0 7 2.5 19.5t12 34t24.5 39.5t44 31.5t67 13.5q53 0 128.5 -39t127.5 -39q32 0 56 9.5t35.5 22.5t19 28.5t9 24t1.5 13.5h40q0 -8 -2.5 -21t-12.5 -34.5t-26.5 -38.5t-49 -30t-74.5 -13q-51 0 -97.5 19.5 t-85.5 39t-73 19.5zM244 1374v-1374h-41v1454h30l1113 -1395v1395h40v-1454h-47z" />
<glyph unicode="&#xd2;" horiz-adv-x="1550" d="M637 1880h68l133 -149l-33 -25zM98 727q0 192 88.5 361t245.5 272.5t344 103.5q145 0 274 -64.5t215.5 -168.5t136.5 -236t50 -268q0 -194 -88.5 -363t-245 -271.5t-342.5 -102.5q-146 1 -274.5 64t-215.5 165.5t-137.5 235.5t-50.5 272zM776 31q110 0 211 39.5 t177 107.5t132.5 156t85.5 189.5t29 203.5q0 180 -82.5 339.5t-230 258t-322.5 98.5q-138 0 -259 -60.5t-202.5 -158.5t-128.5 -223t-47 -254q0 -135 48.5 -261.5t131.5 -222.5t202.5 -154t254.5 -58z" />
<glyph unicode="&#xd3;" horiz-adv-x="1550" d="M788 1706l-32 25l131 149h69zM98 727q0 192 88.5 361t245.5 272.5t344 103.5q145 0 274 -64.5t215.5 -168.5t136.5 -236t50 -268q0 -194 -88.5 -363t-245 -271.5t-342.5 -102.5q-146 1 -274.5 64t-215.5 165.5t-137.5 235.5t-50.5 272zM776 31q110 0 211 39.5t177 107.5 t132.5 156t85.5 189.5t29 203.5q0 180 -82.5 339.5t-230 258t-322.5 98.5q-138 0 -259 -60.5t-202.5 -158.5t-128.5 -223t-47 -254q0 -135 48.5 -261.5t131.5 -222.5t202.5 -154t254.5 -58z" />
<glyph unicode="&#xd4;" horiz-adv-x="1550" d="M569 1729l191 151h33l190 -151l-33 -25l-174 129l-174 -129zM98 727q0 192 88.5 361t245.5 272.5t344 103.5q145 0 274 -64.5t215.5 -168.5t136.5 -236t50 -268q0 -194 -88.5 -363t-245 -271.5t-342.5 -102.5q-146 1 -274.5 64t-215.5 165.5t-137.5 235.5t-50.5 272z M776 31q110 0 211 39.5t177 107.5t132.5 156t85.5 189.5t29 203.5q0 180 -82.5 339.5t-230 258t-322.5 98.5q-138 0 -259 -60.5t-202.5 -158.5t-128.5 -223t-47 -254q0 -135 48.5 -261.5t131.5 -222.5t202.5 -154t254.5 -58z" />
<glyph unicode="&#xd5;" horiz-adv-x="1550" d="M637 1821q-30 0 -53 -13.5t-33 -32t-14.5 -32.5t-4.5 -21h-40q0 7 2.5 19.5t11.5 34t24 39.5t44 31.5t67 13.5q53 0 128.5 -39t127.5 -39q32 0 56 9.5t35.5 22.5t19 28.5t9 24t1.5 13.5h41q0 -8 -2.5 -21t-13 -34.5t-27 -38.5t-49 -30t-74.5 -13q-51 0 -97.5 19.5 t-85.5 39t-73 19.5zM98 727q0 192 88.5 361t245.5 272.5t344 103.5q145 0 274 -64.5t215.5 -168.5t136.5 -236t50 -268q0 -194 -88.5 -363t-245 -271.5t-342.5 -102.5q-146 1 -274.5 64t-215.5 165.5t-137.5 235.5t-50.5 272zM776 31q110 0 211 39.5t177 107.5t132.5 156 t85.5 189.5t29 203.5q0 180 -82.5 339.5t-230 258t-322.5 98.5q-138 0 -259 -60.5t-202.5 -158.5t-128.5 -223t-47 -254q0 -135 48.5 -261.5t131.5 -222.5t202.5 -154t254.5 -58z" />
<glyph unicode="&#xd6;" horiz-adv-x="1550" d="M637 1722v158h41v-158h-41zM874 1722v158h41v-158h-41zM98 727q0 192 88.5 361t245.5 272.5t344 103.5q145 0 274 -64.5t215.5 -168.5t136.5 -236t50 -268q0 -194 -88.5 -363t-245 -271.5t-342.5 -102.5q-146 1 -274.5 64t-215.5 165.5t-137.5 235.5t-50.5 272zM776 31 q110 0 211 39.5t177 107.5t132.5 156t85.5 189.5t29 203.5q0 180 -82.5 339.5t-230 258t-322.5 98.5q-138 0 -259 -60.5t-202.5 -158.5t-128.5 -223t-47 -254q0 -135 48.5 -261.5t131.5 -222.5t202.5 -154t254.5 -58z" />
<glyph unicode="&#xd7;" horiz-adv-x="901" d="M758 276l-31 -28l-276 276l-277 -276l-29 31l275 274l-277 278l31 29l277 -276l278 278l29 -31l-279 -278z" />
<glyph unicode="&#xd8;" horiz-adv-x="1550" d="M1180 1317q127 -107 199.5 -265t72.5 -325q0 -194 -88.5 -363t-245 -271.5t-342.5 -102.5q-203 0 -370 121l-72 -111h-51l88 137q-128 106 -200.5 263t-72.5 327q0 192 88.5 361t245.5 272.5t344 103.5q205 0 367 -121l71 111h54zM139 727q0 -162 67.5 -309t186.5 -246 l729 1137q-155 114 -346 114q-138 0 -259 -60.5t-202.5 -158.5t-128.5 -223t-47 -254zM776 31q110 0 211 39.5t177 107.5t132.5 156t85.5 189.5t29 203.5q0 161 -68 308.5t-186 246.5l-731 -1137q158 -114 350 -114z" />
<glyph unicode="&#xd9;" horiz-adv-x="1548" d="M637 1880h68l133 -149l-33 -25zM776 -10q-134 0 -238.5 42t-170.5 111.5t-109.5 167t-60.5 199.5t-17 217v727h41v-727q0 -111 16 -207.5t55.5 -188t100.5 -156.5t158.5 -104.5t222.5 -39.5q127 0 225.5 40.5t159.5 106t100.5 158t54.5 188t15 203.5v727h41v-727 q0 -120 -18.5 -225t-62.5 -200.5t-111 -163.5t-169.5 -108t-232.5 -40z" />
<glyph unicode="&#xda;" horiz-adv-x="1548" d="M788 1706l-32 25l131 149h69zM776 -10q-134 0 -238.5 42t-170.5 111.5t-109.5 167t-60.5 199.5t-17 217v727h41v-727q0 -111 16 -207.5t55.5 -188t100.5 -156.5t158.5 -104.5t222.5 -39.5q127 0 225.5 40.5t159.5 106t100.5 158t54.5 188t15 203.5v727h41v-727 q0 -120 -18.5 -225t-62.5 -200.5t-111 -163.5t-169.5 -108t-232.5 -40z" />
<glyph unicode="&#xdb;" horiz-adv-x="1548" d="M569 1729l191 151h33l190 -151l-33 -25l-174 129l-174 -129zM776 -10q-134 0 -238.5 42t-170.5 111.5t-109.5 167t-60.5 199.5t-17 217v727h41v-727q0 -111 16 -207.5t55.5 -188t100.5 -156.5t158.5 -104.5t222.5 -39.5q127 0 225.5 40.5t159.5 106t100.5 158t54.5 188 t15 203.5v727h41v-727q0 -120 -18.5 -225t-62.5 -200.5t-111 -163.5t-169.5 -108t-232.5 -40z" />
<glyph unicode="&#xdc;" horiz-adv-x="1548" d="M637 1722v158h41v-158h-41zM874 1722v158h41v-158h-41zM776 -10q-134 0 -238.5 42t-170.5 111.5t-109.5 167t-60.5 199.5t-17 217v727h41v-727q0 -111 16 -207.5t55.5 -188t100.5 -156.5t158.5 -104.5t222.5 -39.5q127 0 225.5 40.5t159.5 106t100.5 158t54.5 188 t15 203.5v727h41v-727q0 -120 -18.5 -225t-62.5 -200.5t-111 -163.5t-169.5 -108t-232.5 -40z" />
<glyph unicode="&#xdd;" horiz-adv-x="1312" d="M668 1706l-33 25l131 149h70zM94 1454l561 -844l564 844h47l-590 -891v-563h-41v567l-588 887h47z" />
<glyph unicode="&#xde;" horiz-adv-x="1226" d="M1163 707q0 -114 -48.5 -215t-140.5 -164.5t-206 -63.5h-524v-264h-41v1454h41v-307h510q115 0 210.5 -65t147 -165.5t51.5 -209.5zM1122 707q0 158 -108.5 278.5t-259.5 120.5h-510v-801h524q106 0 188.5 60t124 150.5t41.5 191.5z" />
<glyph unicode="&#xdf;" horiz-adv-x="1118" d="M471 27q246 5 379 105.5t133 281.5q0 175 -116 283t-304 108h-35v41h33q135 0 225.5 81.5t90.5 202.5q0 124 -95 207.5t-235 83.5q-152 0 -243 -103.5t-91 -275.5v-1042h-41v1042q0 188 104.5 304t272.5 116q157 0 263 -92.5t106 -228.5q0 -112 -71.5 -203t-174.5 -111 q169 -35 260.5 -142.5t91.5 -268.5q0 -198 -142.5 -308.5t-410.5 -119.5v39z" />
<glyph unicode="&#xe0;" horiz-adv-x="1073" d="M387 1495h68l133 -149l-33 -25zM80 305q0 134 122.5 218.5t315.5 84.5q197 0 356 -59v121q0 166 -95.5 267t-252.5 101q-158 0 -344 -131l-24 33q204 139 368 139q178 0 283.5 -110.5t105.5 -298.5v-588q0 -41 33 -41v-41q-22 0 -28 4q-20 7 -33 29.5t-13 48.5v98 q-73 -95 -192 -147.5t-258 -52.5q-145 0 -244.5 94t-99.5 231zM844 209q30 44 30 84v211q-163 63 -356 63q-179 0 -288 -72t-109 -190q0 -120 87.5 -202.5t215.5 -82.5q136 0 250 51.5t170 137.5z" />
<glyph unicode="&#xe1;" horiz-adv-x="1073" d="M539 1321l-33 25l131 149h70zM80 305q0 134 122.5 218.5t315.5 84.5q197 0 356 -59v121q0 166 -95.5 267t-252.5 101q-158 0 -344 -131l-24 33q204 139 368 139q178 0 283.5 -110.5t105.5 -298.5v-588q0 -41 33 -41v-41q-22 0 -28 4q-20 7 -33 29.5t-13 48.5v98 q-73 -95 -192 -147.5t-258 -52.5q-145 0 -244.5 94t-99.5 231zM844 209q30 44 30 84v211q-163 63 -356 63q-179 0 -288 -72t-109 -190q0 -120 87.5 -202.5t215.5 -82.5q136 0 250 51.5t170 137.5z" />
<glyph unicode="&#xe2;" horiz-adv-x="1073" d="M319 1343l191 152h33l190 -152l-33 -24l-174 129l-174 -129zM80 305q0 134 122.5 218.5t315.5 84.5q197 0 356 -59v121q0 166 -95.5 267t-252.5 101q-158 0 -344 -131l-24 33q204 139 368 139q178 0 283.5 -110.5t105.5 -298.5v-588q0 -41 33 -41v-41q-22 0 -28 4 q-20 7 -33 29.5t-13 48.5v98q-73 -95 -192 -147.5t-258 -52.5q-145 0 -244.5 94t-99.5 231zM844 209q30 44 30 84v211q-163 63 -356 63q-179 0 -288 -72t-109 -190q0 -120 87.5 -202.5t215.5 -82.5q136 0 250 51.5t170 137.5z" />
<glyph unicode="&#xe3;" horiz-adv-x="1073" d="M387 1436q-30 0 -52.5 -13.5t-32.5 -32t-14.5 -32.5t-4.5 -21h-41q0 7 2.5 19.5t11.5 34t24 39.5t44 31.5t67 13.5q53 0 128.5 -39t127.5 -39q32 0 56 9.5t35.5 22.5t19 28.5t9 24t1.5 13.5h41q0 -8 -2.5 -21t-13 -34.5t-27 -38.5t-49 -30t-74.5 -13q-51 0 -97.5 19.5 t-85.5 39t-73 19.5zM80 305q0 134 122.5 218.5t315.5 84.5q197 0 356 -59v121q0 166 -95.5 267t-252.5 101q-158 0 -344 -131l-24 33q204 139 368 139q178 0 283.5 -110.5t105.5 -298.5v-588q0 -41 33 -41v-41q-22 0 -28 4q-20 7 -33 29.5t-13 48.5v98q-73 -95 -192 -147.5 t-258 -52.5q-145 0 -244.5 94t-99.5 231zM844 209q30 44 30 84v211q-163 63 -356 63q-179 0 -288 -72t-109 -190q0 -120 87.5 -202.5t215.5 -82.5q136 0 250 51.5t170 137.5z" />
<glyph unicode="&#xe4;" horiz-adv-x="1073" d="M387 1337v158h41v-158h-41zM625 1337v158h41v-158h-41zM80 305q0 134 122.5 218.5t315.5 84.5q197 0 356 -59v121q0 166 -95.5 267t-252.5 101q-158 0 -344 -131l-24 33q204 139 368 139q178 0 283.5 -110.5t105.5 -298.5v-588q0 -41 33 -41v-41q-22 0 -28 4 q-20 7 -33 29.5t-13 48.5v98q-73 -95 -192 -147.5t-258 -52.5q-145 0 -244.5 94t-99.5 231zM844 209q30 44 30 84v211q-163 63 -356 63q-179 0 -288 -72t-109 -190q0 -120 87.5 -202.5t215.5 -82.5q136 0 250 51.5t170 137.5z" />
<glyph unicode="&#xe5;" horiz-adv-x="1073" d="M526 1548q65 0 109.5 -44.5t44.5 -108.5q0 -65 -45 -109.5t-109 -44.5t-108.5 44.5t-44.5 109.5t44.5 109t108.5 44zM416 1395q0 -46 32 -78.5t78 -32.5q42 0 76.5 32t34.5 79q0 49 -32.5 79.5t-78.5 30.5t-78 -30.5t-32 -79.5zM80 305q0 134 122.5 218.5t315.5 84.5 q197 0 356 -59v121q0 166 -95.5 267t-252.5 101q-158 0 -344 -131l-24 33q204 139 368 139q178 0 283.5 -110.5t105.5 -298.5v-588q0 -41 33 -41v-41q-22 0 -28 4q-20 7 -33 29.5t-13 48.5v98q-73 -95 -192 -147.5t-258 -52.5q-145 0 -244.5 94t-99.5 231zM844 209 q30 44 30 84v211q-163 63 -356 63q-179 0 -288 -72t-109 -190q0 -120 87.5 -202.5t215.5 -82.5q136 0 250 51.5t170 137.5z" />
<glyph unicode="&#xe6;" horiz-adv-x="1900" d="M80 305q0 134 122.5 218.5t315.5 84.5q149 0 297 -41q6 107 47 203q-26 124 -116 196t-220 72q-158 0 -344 -131l-24 33q204 139 368 139q136 0 231.5 -66.5t133.5 -187.5q67 116 180 185t246 69q139 0 256.5 -73t186 -199.5t69.5 -276.5v-22h-973q10 -135 75.5 -247 t170.5 -176.5t227 -64.5q123 0 230 63t151 161l39 -11q-43 -109 -163.5 -181t-258.5 -72q-130 0 -242 66.5t-182 180.5q-31 -63 -86 -112t-121 -77.5t-135 -43t-137 -14.5q-145 0 -244.5 94t-99.5 231zM1786 549q-13 213 -145.5 351t-321.5 138q-124 0 -227.5 -63t-166 -175 t-69.5 -251h930zM844 209q24 37 30 72q-56 112 -59 243q-139 43 -297 43q-179 0 -288 -72t-109 -190q0 -120 87.5 -202.5t215.5 -82.5q136 0 250 51.5t170 137.5z" />
<glyph unicode="&#xe7;" horiz-adv-x="1101" d="M1020 231q-30 -93 -125 -160.5t-215 -84.5q54 -37 80 -77t26 -93q0 -76 -53.5 -114t-144.5 -38q-124 0 -226 51l23 35q58 -25 100.5 -37t96.5 -12q163 0 163 115q0 51 -29.5 89t-92.5 75h-15q-138 0 -256.5 75t-188 203.5t-69.5 278.5t67 274.5t185 196t260 71.5 q134 0 240 -62.5t160 -174.5l-41 -15q-52 98 -150 154.5t-215 56.5q-195 0 -330 -145t-135 -356q0 -138 63.5 -257.5t171 -189.5t232.5 -70q124 0 238 68t139 156z" />
<glyph unicode="&#xe8;" d="M459 1495h67l133 -149l-32 -25zM606 -20q-138 0 -256 75.5t-187 204.5t-69 279q0 147 67 271.5t182.5 196.5t252.5 72q139 0 256.5 -73t186 -199.5t69.5 -276.5v-22h-973q10 -135 75.5 -247t170.5 -176.5t227 -64.5q123 0 230 63t151 161l39 -11q-43 -109 -163.5 -181 t-258.5 -72zM135 549h930q-13 213 -145.5 351t-321.5 138q-124 0 -227.5 -63t-166 -175t-69.5 -251z" />
<glyph unicode="&#xe9;" d="M610 1321l-32 25l131 149h69zM606 -20q-138 0 -256 75.5t-187 204.5t-69 279q0 147 67 271.5t182.5 196.5t252.5 72q139 0 256.5 -73t186 -199.5t69.5 -276.5v-22h-973q10 -135 75.5 -247t170.5 -176.5t227 -64.5q123 0 230 63t151 161l39 -11q-43 -109 -163.5 -181 t-258.5 -72zM135 549h930q-13 213 -145.5 351t-321.5 138q-124 0 -227.5 -63t-166 -175t-69.5 -251z" />
<glyph unicode="&#xea;" d="M391 1343l191 152h32l191 -152l-33 -24l-174 129l-174 -129zM606 -20q-138 0 -256 75.5t-187 204.5t-69 279q0 147 67 271.5t182.5 196.5t252.5 72q139 0 256.5 -73t186 -199.5t69.5 -276.5v-22h-973q10 -135 75.5 -247t170.5 -176.5t227 -64.5q123 0 230 63t151 161 l39 -11q-43 -109 -163.5 -181t-258.5 -72zM135 549h930q-13 213 -145.5 351t-321.5 138q-124 0 -227.5 -63t-166 -175t-69.5 -251z" />
<glyph unicode="&#xeb;" d="M459 1337v158h41v-158h-41zM696 1337v158h41v-158h-41zM606 -20q-138 0 -256 75.5t-187 204.5t-69 279q0 147 67 271.5t182.5 196.5t252.5 72q139 0 256.5 -73t186 -199.5t69.5 -276.5v-22h-973q10 -135 75.5 -247t170.5 -176.5t227 -64.5q123 0 230 63t151 161l39 -11 q-43 -109 -163.5 -181t-258.5 -72zM135 549h930q-13 213 -145.5 351t-321.5 138q-124 0 -227.5 -63t-166 -175t-69.5 -251z" />
<glyph unicode="&#xec;" horiz-adv-x="385" d="M53 1495h68l133 -149l-33 -25zM172 0v1063h41v-1063h-41z" />
<glyph unicode="&#xed;" horiz-adv-x="385" d="M205 1321l-33 25l131 149h70zM172 0v1063h41v-1063h-41z" />
<glyph unicode="&#xee;" horiz-adv-x="385" d="M-14 1343l190 152h33l190 -152l-32 -24l-174 129l-175 -129zM172 0v1063h41v-1063h-41z" />
<glyph unicode="&#xef;" horiz-adv-x="385" d="M53 1337v158h41v-158h-41zM291 1337v158h41v-158h-41zM172 0v1063h41v-1063h-41z" />
<glyph unicode="&#xf0;" horiz-adv-x="1214" d="M774 1307q86 -75 147.5 -155.5t97.5 -154.5t57 -161t27.5 -162t6.5 -170q0 -139 -67.5 -260t-184.5 -192.5t-254 -71.5q-138 0 -254.5 67.5t-184 181.5t-67.5 246q0 133 69 248t185.5 182.5t251.5 67.5q158 0 284 -82.5t181 -214.5q-8 80 -26 150.5t-53.5 149t-97 157.5 t-147.5 155l-253 -168l-21 29l248 162q-120 99 -268 184h59q126 -75 238 -166l196 131l21 -28zM602 20q125 0 233 66.5t171 178.5t63 241q0 173 -138 299.5t-327 126.5t-327 -137t-138 -324q0 -121 62.5 -225t169 -165t231.5 -61z" />
<glyph unicode="&#xf1;" horiz-adv-x="1157" d="M434 1436q-30 0 -52.5 -13.5t-32.5 -32t-14.5 -32.5t-4.5 -21h-41q0 7 2.5 19.5t11.5 34t24 39.5t44 31.5t67 13.5q53 0 128.5 -39t127.5 -39q32 0 56 9.5t35.5 22.5t19 28.5t9 24t1.5 13.5h41q0 -8 -2.5 -21t-13 -34.5t-27 -38.5t-49 -30t-74.5 -13q-51 0 -97.5 19.5 t-85.5 39t-73 19.5zM997 0h-41v592q0 232 -65 339t-207 107q-155 0 -291 -105t-180 -261v-672h-41v1063h41v-275q66 129 196.5 210t272.5 81q163 0 239 -118t76 -369v-592z" />
<glyph unicode="&#xf2;" horiz-adv-x="1200" d="M461 1495h67l134 -149l-33 -25zM94 528q0 147 69 274t185.5 202t251.5 75t251.5 -75t185.5 -202t69 -274q0 -109 -40 -210.5t-108 -175.5t-161.5 -118t-196.5 -44q-138 0 -254.5 74.5t-184 201t-67.5 272.5zM598 20q125 0 232.5 69.5t171 187t63.5 253.5q0 135 -63 252 t-170.5 186.5t-231.5 69.5t-231.5 -70t-170.5 -188.5t-63 -255.5q0 -135 62.5 -251t169 -184.5t231.5 -68.5z" />
<glyph unicode="&#xf3;" horiz-adv-x="1200" d="M612 1321l-32 25l131 149h69zM94 528q0 147 69 274t185.5 202t251.5 75t251.5 -75t185.5 -202t69 -274q0 -109 -40 -210.5t-108 -175.5t-161.5 -118t-196.5 -44q-138 0 -254.5 74.5t-184 201t-67.5 272.5zM598 20q125 0 232.5 69.5t171 187t63.5 253.5q0 135 -63 252 t-170.5 186.5t-231.5 69.5t-231.5 -70t-170.5 -188.5t-63 -255.5q0 -135 62.5 -251t169 -184.5t231.5 -68.5z" />
<glyph unicode="&#xf4;" horiz-adv-x="1200" d="M393 1343l191 152h32l191 -152l-33 -24l-174 129l-174 -129zM94 528q0 147 69 274t185.5 202t251.5 75t251.5 -75t185.5 -202t69 -274q0 -109 -40 -210.5t-108 -175.5t-161.5 -118t-196.5 -44q-138 0 -254.5 74.5t-184 201t-67.5 272.5zM598 20q125 0 232.5 69.5t171 187 t63.5 253.5q0 135 -63 252t-170.5 186.5t-231.5 69.5t-231.5 -70t-170.5 -188.5t-63 -255.5q0 -135 62.5 -251t169 -184.5t231.5 -68.5z" />
<glyph unicode="&#xf5;" horiz-adv-x="1200" d="M461 1436q-30 0 -53 -13.5t-33 -32t-14.5 -32.5t-4.5 -21h-41q0 7 2.5 19.5t12 34t24.5 39.5t44 31.5t67 13.5q53 0 128.5 -39t127.5 -39q32 0 56 9.5t35.5 22.5t19 28.5t9 24t1.5 13.5h41q0 -8 -2.5 -21t-13 -34.5t-27 -38.5t-49 -30t-74.5 -13q-51 0 -97.5 19.5 t-85.5 39t-73 19.5zM94 528q0 147 69 274t185.5 202t251.5 75t251.5 -75t185.5 -202t69 -274q0 -109 -40 -210.5t-108 -175.5t-161.5 -118t-196.5 -44q-138 0 -254.5 74.5t-184 201t-67.5 272.5zM598 20q125 0 232.5 69.5t171 187t63.5 253.5q0 135 -63 252t-170.5 186.5 t-231.5 69.5t-231.5 -70t-170.5 -188.5t-63 -255.5q0 -135 62.5 -251t169 -184.5t231.5 -68.5z" />
<glyph unicode="&#xf6;" horiz-adv-x="1200" d="M461 1337v158h41v-158h-41zM698 1337v158h41v-158h-41zM94 528q0 147 69 274t185.5 202t251.5 75t251.5 -75t185.5 -202t69 -274q0 -109 -40 -210.5t-108 -175.5t-161.5 -118t-196.5 -44q-138 0 -254.5 74.5t-184 201t-67.5 272.5zM598 20q125 0 232.5 69.5t171 187 t63.5 253.5q0 135 -63 252t-170.5 186.5t-231.5 69.5t-231.5 -70t-170.5 -188.5t-63 -255.5q0 -135 62.5 -251t169 -184.5t231.5 -68.5z" />
<glyph unicode="&#xf7;" horiz-adv-x="1118" d="M539 788v132h41v-132h-41zM147 535v40h826v-40h-826zM539 188v131h41v-131h-41z" />
<glyph unicode="&#xf8;" horiz-adv-x="1200" d="M899 971q95 -78 151 -195t56 -248q0 -109 -40 -210.5t-108 -175.5t-161.5 -118t-196.5 -44q-142 0 -260 79l-37 -59h-51l51 84q-97 78 -153 194.5t-56 249.5q0 147 69 274t185.5 202t251.5 75q137 0 262 -82l39 66h53zM135 524q0 -121 51 -227.5t138 -177.5l516 844 q-112 75 -240 75q-124 0 -231.5 -70t-170.5 -188.5t-63 -255.5zM598 20q125 0 232.5 69.5t171 187t63.5 253.5q0 120 -50.5 227.5t-137.5 178.5l-517 -842q110 -74 238 -74z" />
<glyph unicode="&#xf9;" d="M438 1495h68l133 -149l-33 -25zM160 467v596h41v-596q0 -226 74.5 -336.5t226.5 -110.5q154 0 285 103.5t178 263.5v676h41v-981q0 -41 32 -41v-41q-22 0 -28 4q-20 7 -32.5 29t-12.5 49v188q-69 -133 -194.5 -211.5t-268.5 -78.5q-169 0 -255.5 123t-86.5 364z" />
<glyph unicode="&#xfa;" d="M590 1321l-33 25l131 149h70zM160 467v596h41v-596q0 -226 74.5 -336.5t226.5 -110.5q154 0 285 103.5t178 263.5v676h41v-981q0 -41 32 -41v-41q-22 0 -28 4q-20 7 -32.5 29t-12.5 49v188q-69 -133 -194.5 -211.5t-268.5 -78.5q-169 0 -255.5 123t-86.5 364z" />
<glyph unicode="&#xfb;" d="M371 1343l190 152h33l190 -152l-32 -24l-174 129l-175 -129zM160 467v596h41v-596q0 -226 74.5 -336.5t226.5 -110.5q154 0 285 103.5t178 263.5v676h41v-981q0 -41 32 -41v-41q-22 0 -28 4q-20 7 -32.5 29t-12.5 49v188q-69 -133 -194.5 -211.5t-268.5 -78.5 q-169 0 -255.5 123t-86.5 364z" />
<glyph unicode="&#xfc;" d="M438 1337v158h41v-158h-41zM676 1337v158h41v-158h-41zM160 467v596h41v-596q0 -226 74.5 -336.5t226.5 -110.5q154 0 285 103.5t178 263.5v676h41v-981q0 -41 32 -41v-41q-22 0 -28 4q-20 7 -32.5 29t-12.5 49v188q-69 -133 -194.5 -211.5t-268.5 -78.5 q-169 0 -255.5 123t-86.5 364z" />
<glyph unicode="&#xfd;" horiz-adv-x="1097" d="M569 1321l-32 25l131 149h69zM262 -416q80 0 96 21t179 395l-494 1063h45l469 -1012l444 1012h46l-633 -1444q-23 -53 -68 -65q-46 -11 -84 -11v41z" />
<glyph unicode="&#xfe;" horiz-adv-x="1234" d="M629 -20q-123 0 -237 68.5t-179 172.5v-657h-41v1890h41v-639q187 264 434 264q112 0 207.5 -49t157 -128.5t95.5 -177t34 -196.5q-4 -144 -70.5 -269.5t-184 -202t-257.5 -76.5zM647 1038q-143 0 -255.5 -88t-178.5 -221v-383q0 -62 41.5 -123.5t104 -105t135.5 -70.5 t135 -27q100 0 189 44t150 115.5t96.5 163t35.5 185.5q0 132 -56.5 248t-161.5 189t-235 73z" />
<glyph unicode="&#xff;" horiz-adv-x="1097" d="M418 1337v158h41v-158h-41zM655 1337v158h41v-158h-41zM262 -416q80 0 96 21t179 395l-494 1063h45l469 -1012l444 1012h46l-633 -1444q-23 -53 -68 -65q-46 -11 -84 -11v41z" />
<glyph unicode="&#x100;" horiz-adv-x="1380" d="M403 1790v41h574v-41h-574zM672 1454h37l632 -1454h-45l-227 520h-760l-227 -520h-45zM1051 561l-361 834l-364 -834h725z" />
<glyph unicode="&#x101;" horiz-adv-x="1073" d="M240 1405v41h573v-41h-573zM80 305q0 134 122.5 218.5t315.5 84.5q197 0 356 -59v121q0 166 -95.5 267t-252.5 101q-158 0 -344 -131l-24 33q204 139 368 139q178 0 283.5 -110.5t105.5 -298.5v-588q0 -41 33 -41v-41q-22 0 -28 4q-20 7 -33 29.5t-13 48.5v98 q-73 -95 -192 -147.5t-258 -52.5q-145 0 -244.5 94t-99.5 231zM844 209q30 44 30 84v211q-163 63 -356 63q-179 0 -288 -72t-109 -190q0 -120 87.5 -202.5t215.5 -82.5q136 0 250 51.5t170 137.5z" />
<glyph unicode="&#x102;" horiz-adv-x="1380" d="M805 1880h37q0 -63 -46 -110.5t-106 -47.5t-105.5 47.5t-45.5 110.5h39q0 -46 34.5 -84.5t77.5 -38.5q41 0 75 36t40 87zM672 1454h37l632 -1454h-45l-227 520h-760l-227 -520h-45zM1051 561l-361 834l-364 -834h725z" />
<glyph unicode="&#x103;" horiz-adv-x="1073" d="M641 1495h37q0 -63 -46 -110.5t-106 -47.5t-105.5 47.5t-45.5 110.5h39q0 -46 34.5 -84.5t77.5 -38.5q41 0 75 36t40 87zM80 305q0 134 122.5 218.5t315.5 84.5q197 0 356 -59v121q0 166 -95.5 267t-252.5 101q-158 0 -344 -131l-24 33q204 139 368 139 q178 0 283.5 -110.5t105.5 -298.5v-588q0 -41 33 -41v-41q-22 0 -28 4q-20 7 -33 29.5t-13 48.5v98q-73 -95 -192 -147.5t-258 -52.5q-145 0 -244.5 94t-99.5 231zM844 209q30 44 30 84v211q-163 63 -356 63q-179 0 -288 -72t-109 -190q0 -120 87.5 -202.5t215.5 -82.5 q136 0 250 51.5t170 137.5z" />
<glyph unicode="&#x104;" horiz-adv-x="1380" d="M1186 -199q0 -38 32 -60.5t115 -41.5l-24 -35q-89 17 -127.5 48.5t-38.5 82.5q0 50 36.5 101t112.5 114l-223 510h-760l-227 -520h-45l635 1454h37l632 -1454q-83 -65 -119 -110.5t-36 -88.5zM326 561h725l-361 834z" />
<glyph unicode="&#x105;" horiz-adv-x="1073" d="M948 0q-83 -65 -119 -110.5t-36 -88.5q0 -38 32 -60.5t115 -41.5l-25 -35q-89 17 -127 48.5t-38 82.5q0 50 37.5 102t115.5 117q-29 25 -29 68v98q-73 -95 -192 -147.5t-258 -52.5q-145 0 -244.5 94t-99.5 231q0 134 122.5 218.5t315.5 84.5q197 0 356 -59v121 q0 166 -95.5 267t-252.5 101q-158 0 -344 -131l-24 33q204 139 368 139q178 0 283.5 -110.5t105.5 -298.5v-588q0 -41 33 -41v-41zM874 293v211q-163 63 -356 63q-179 0 -288 -72t-109 -190q0 -120 87.5 -202.5t215.5 -82.5q136 0 250 51.5t170 137.5q30 44 30 84z" />
<glyph unicode="&#x106;" horiz-adv-x="1427" d="M793 1706l-33 25l131 149h70zM784 1462q187 0 324.5 -86.5t206.5 -230.5l-39 -12q-41 77 -99 134.5t-124.5 90t-135 48t-141.5 15.5q-147 0 -270 -60.5t-201.5 -159t-122 -220.5t-43.5 -250q0 -137 50.5 -266t136 -224.5t205.5 -153.5t251 -58q156 0 302.5 78t226.5 229 l39 -10q-72 -157 -236.5 -247.5t-339.5 -90.5q-115 0 -221.5 42t-187.5 115.5t-142 168t-93 204t-32 219.5q0 105 29 209t87.5 197t139 164t192 113t238.5 42z" />
<glyph unicode="&#x107;" horiz-adv-x="1101" d="M612 1321l-32 25l131 149h69zM608 -20q-138 0 -256.5 75t-188 203.5t-69.5 278.5t67 274.5t185 196t260 71.5q134 0 240 -62.5t160 -174.5l-41 -15q-52 98 -150 154.5t-215 56.5q-195 0 -330 -145t-135 -356q0 -138 63.5 -257.5t171 -189.5t232.5 -70q124 0 238 68 t139 156l41 -13q-35 -107 -154 -179t-258 -72z" />
<glyph unicode="&#x108;" horiz-adv-x="1427" d="M573 1729l191 151h33l190 -151l-33 -25l-174 129l-174 -129zM784 1462q187 0 324.5 -86.5t206.5 -230.5l-39 -12q-41 77 -99 134.5t-124.5 90t-135 48t-141.5 15.5q-147 0 -270 -60.5t-201.5 -159t-122 -220.5t-43.5 -250q0 -137 50.5 -266t136 -224.5t205.5 -153.5 t251 -58q156 0 302.5 78t226.5 229l39 -10q-72 -157 -236.5 -247.5t-339.5 -90.5q-115 0 -221.5 42t-187.5 115.5t-142 168t-93 204t-32 219.5q0 105 29 209t87.5 197t139 164t192 113t238.5 42z" />
<glyph unicode="&#x109;" horiz-adv-x="1101" d="M393 1343l191 152h32l191 -152l-33 -24l-174 129l-174 -129zM608 -20q-138 0 -256.5 75t-188 203.5t-69.5 278.5t67 274.5t185 196t260 71.5q134 0 240 -62.5t160 -174.5l-41 -15q-52 98 -150 154.5t-215 56.5q-195 0 -330 -145t-135 -356q0 -138 63.5 -257.5t171 -189.5 t232.5 -70q124 0 238 68t139 156l41 -13q-35 -107 -154 -179t-258 -72z" />
<glyph unicode="&#x10a;" horiz-adv-x="1427" d="M760 1722v158h41v-158h-41zM784 1462q187 0 324.5 -86.5t206.5 -230.5l-39 -12q-41 77 -99 134.5t-124.5 90t-135 48t-141.5 15.5q-147 0 -270 -60.5t-201.5 -159t-122 -220.5t-43.5 -250q0 -137 50.5 -266t136 -224.5t205.5 -153.5t251 -58q156 0 302.5 78t226.5 229 l39 -10q-72 -157 -236.5 -247.5t-339.5 -90.5q-115 0 -221.5 42t-187.5 115.5t-142 168t-93 204t-32 219.5q0 105 29 209t87.5 197t139 164t192 113t238.5 42z" />
<glyph unicode="&#x10b;" horiz-adv-x="1101" d="M580 1337v158h41v-158h-41zM608 -20q-138 0 -256.5 75t-188 203.5t-69.5 278.5t67 274.5t185 196t260 71.5q134 0 240 -62.5t160 -174.5l-41 -15q-52 98 -150 154.5t-215 56.5q-195 0 -330 -145t-135 -356q0 -138 63.5 -257.5t171 -189.5t232.5 -70q124 0 238 68t139 156 l41 -13q-35 -107 -154 -179t-258 -72z" />
<glyph unicode="&#x10c;" horiz-adv-x="1427" d="M606 1880l174 -129l174 129l33 -25l-190 -151h-33l-191 151zM784 1462q187 0 324.5 -86.5t206.5 -230.5l-39 -12q-41 77 -99 134.5t-124.5 90t-135 48t-141.5 15.5q-147 0 -270 -60.5t-201.5 -159t-122 -220.5t-43.5 -250q0 -137 50.5 -266t136 -224.5t205.5 -153.5 t251 -58q156 0 302.5 78t226.5 229l39 -10q-72 -157 -236.5 -247.5t-339.5 -90.5q-115 0 -221.5 42t-187.5 115.5t-142 168t-93 204t-32 219.5q0 105 29 209t87.5 197t139 164t192 113t238.5 42z" />
<glyph unicode="&#x10d;" horiz-adv-x="1101" d="M426 1495l174 -129l174 129l33 -25l-191 -151h-32l-191 151zM608 -20q-138 0 -256.5 75t-188 203.5t-69.5 278.5t67 274.5t185 196t260 71.5q134 0 240 -62.5t160 -174.5l-41 -15q-52 98 -150 154.5t-215 56.5q-195 0 -330 -145t-135 -356q0 -138 63.5 -257.5t171 -189.5 t232.5 -70q124 0 238 68t139 156l41 -13q-35 -107 -154 -179t-258 -72z" />
<glyph unicode="&#x10e;" horiz-adv-x="1456" d="M549 1880l174 -129l174 129l33 -25l-191 -151h-32l-191 151zM203 0v1454h467q167 0 298.5 -56.5t214.5 -156t126 -230t43 -282.5q0 -331 -185 -530t-497 -199h-467zM670 1413h-426v-1372h426q155 0 278 52.5t201.5 145.5t120 217.5t41.5 272.5q0 200 -73.5 353.5 t-220 242t-347.5 88.5z" />
<glyph unicode="&#x10f;" horiz-adv-x="1236" d="M94 528q0 109 37.5 209.5t102 176t157.5 120.5t197 45q138 0 251 -74.5t183 -189.5v680h41v-1413q0 -19 9 -30t24 -11v-41q-19 0 -27 4q-22 9 -34.5 30.5t-12.5 47.5v139q-68 -107 -182 -174t-234 -67q-143 0 -262.5 80.5t-184.5 205.5t-65 262zM1186 1321l-33 25 l131 149h70zM1022 346v383q-30 83 -100.5 154.5t-159.5 113t-174 41.5q-100 0 -186.5 -44t-144 -116t-90 -163t-32.5 -187q0 -132 62.5 -248.5t171.5 -188t237 -71.5q62 0 133.5 27t133 70.5t103.5 104.5t46 124z" />
<glyph unicode="&#x110;" horiz-adv-x="1470" d="M684 1454q167 0 298.5 -56.5t214.5 -156t126 -230t43 -282.5q0 -331 -185 -530t-497 -199h-467v711h-145v41h145v702h467zM684 41q155 0 278 52.5t201.5 145.5t120 217.5t41.5 272.5q0 200 -73.5 353.5t-220 242t-347.5 88.5h-426v-661h393v-41h-393v-670h426z" />
<glyph unicode="&#x111;" horiz-adv-x="1236" d="M1219 1296h-156v-1214q0 -19 9 -30t24 -11v-41q-19 0 -27 4q-22 9 -34.5 30.5t-12.5 47.5v139q-68 -107 -182 -174t-234 -67q-143 0 -262.5 80.5t-184.5 205.5t-65 262q0 109 37.5 209.5t102 176t157.5 120.5t197 45q138 0 251 -74.5t183 -189.5v481h-254v41h254v158h41 v-158h156v-41zM1022 346v383q-30 83 -100.5 154.5t-159.5 113t-174 41.5q-100 0 -186.5 -44t-144 -116t-90 -163t-32.5 -187q0 -132 62.5 -248.5t171.5 -188t237 -71.5q62 0 133.5 27t133 70.5t103.5 104.5t46 124z" />
<glyph unicode="&#x112;" horiz-adv-x="1263" d="M418 1790v41h573v-41h-573zM1157 41v-41h-954v1454h936v-41h-895v-649h784v-41h-784v-682h913z" />
<glyph unicode="&#x113;" d="M311 1405v41h574v-41h-574zM606 -20q-138 0 -256 75.5t-187 204.5t-69 279q0 147 67 271.5t182.5 196.5t252.5 72q139 0 256.5 -73t186 -199.5t69.5 -276.5v-22h-973q10 -135 75.5 -247t170.5 -176.5t227 -64.5q123 0 230 63t151 161l39 -11q-43 -109 -163.5 -181 t-258.5 -72zM135 549h930q-13 213 -145.5 351t-321.5 138q-124 0 -227.5 -63t-166 -175t-69.5 -251z" />
<glyph unicode="&#x114;" horiz-adv-x="1263" d="M819 1880h37q0 -63 -45.5 -110.5t-105.5 -47.5t-106 47.5t-46 110.5h39q0 -46 35 -84.5t78 -38.5q41 0 74.5 36t39.5 87zM1157 41v-41h-954v1454h936v-41h-895v-649h784v-41h-784v-682h913z" />
<glyph unicode="&#x115;" d="M713 1495h37q0 -63 -46 -110.5t-106 -47.5t-106 47.5t-46 110.5h39q0 -46 35 -84.5t78 -38.5q41 0 75 36t40 87zM606 -20q-138 0 -256 75.5t-187 204.5t-69 279q0 147 67 271.5t182.5 196.5t252.5 72q139 0 256.5 -73t186 -199.5t69.5 -276.5v-22h-973q10 -135 75.5 -247 t170.5 -176.5t227 -64.5q123 0 230 63t151 161l39 -11q-43 -109 -163.5 -181t-258.5 -72zM135 549h930q-13 213 -145.5 351t-321.5 138q-124 0 -227.5 -63t-166 -175t-69.5 -251z" />
<glyph unicode="&#x116;" horiz-adv-x="1263" d="M684 1722v158h41v-158h-41zM1157 41v-41h-954v1454h936v-41h-895v-649h784v-41h-784v-682h913z" />
<glyph unicode="&#x117;" d="M578 1337v158h40v-158h-40zM606 -20q-138 0 -256 75.5t-187 204.5t-69 279q0 147 67 271.5t182.5 196.5t252.5 72q139 0 256.5 -73t186 -199.5t69.5 -276.5v-22h-973q10 -135 75.5 -247t170.5 -176.5t227 -64.5q123 0 230 63t151 161l39 -11q-43 -109 -163.5 -181 t-258.5 -72zM135 549h930q-13 213 -145.5 351t-321.5 138q-124 0 -227.5 -63t-166 -175t-69.5 -251z" />
<glyph unicode="&#x118;" horiz-adv-x="1263" d="M1157 0q-84 -65 -120 -111t-36 -88q0 -38 32.5 -60.5t115.5 -41.5l-25 -35q-89 17 -127.5 48.5t-38.5 82.5q0 49 34 96.5t104 108.5h-893v1454h936v-41h-895v-649h784v-41h-784v-682h913v-41z" />
<glyph unicode="&#x119;" d="M1108 530v-22h-973q10 -135 75.5 -247t170.5 -176.5t227 -64.5q123 0 230 63t151 161l39 -11q-33 -83 -112.5 -146t-182.5 -91q-82 -63 -116.5 -107.5t-34.5 -87.5q0 -38 32 -60.5t115 -41.5l-24 -35q-89 17 -127.5 48.5t-38.5 82.5q0 83 116 187q-16 -2 -49 -2 q-138 0 -256 75.5t-187 204.5t-69 279q0 147 67 271.5t182.5 196.5t252.5 72q139 0 256.5 -73t186 -199.5t69.5 -276.5zM135 549h930q-13 213 -145.5 351t-321.5 138q-124 0 -227.5 -63t-166 -175t-69.5 -251z" />
<glyph unicode="&#x11a;" horiz-adv-x="1263" d="M530 1880l175 -129l174 129l32 -25l-190 -151h-33l-190 151zM1157 41v-41h-954v1454h936v-41h-895v-649h784v-41h-784v-682h913z" />
<glyph unicode="&#x11b;" d="M424 1495l174 -129l174 129l33 -25l-191 -151h-32l-191 151zM606 -20q-138 0 -256 75.5t-187 204.5t-69 279q0 147 67 271.5t182.5 196.5t252.5 72q139 0 256.5 -73t186 -199.5t69.5 -276.5v-22h-973q10 -135 75.5 -247t170.5 -176.5t227 -64.5q123 0 230 63t151 161 l39 -11q-43 -109 -163.5 -181t-258.5 -72zM135 549h930q-13 213 -145.5 351t-321.5 138q-124 0 -227.5 -63t-166 -175t-69.5 -251z" />
<glyph unicode="&#x11c;" horiz-adv-x="1474" d="M758 1833l-174 -129l-33 25l190 151h33l191 -151l-33 -25zM967 692h383v-692h-41v250q-224 -260 -525 -260q-146 0 -276.5 65t-218.5 169.5t-139.5 236.5t-51.5 266q0 113 31.5 222t90.5 201.5t139 163t184 110.5t217 40q396 0 555 -317l-39 -12q-156 288 -516 288 q-112 0 -211.5 -39.5t-173 -107.5t-127.5 -156.5t-81.5 -189t-27.5 -203.5q0 -108 32.5 -212t92 -191t138.5 -153t178 -103t204 -37q291 0 525 274v346h-342v41z" />
<glyph unicode="&#x11d;" horiz-adv-x="1234" d="M410 1343l190 152h33l190 -152l-32 -24l-175 129l-174 -129zM94 528q0 106 37 206t100.5 176.5t157 122.5t199.5 46q248 0 434 -264v248h41v-1108q0 -102 -39 -182.5t-105 -129.5t-149 -74.5t-176 -25.5q-179 0 -287.5 65.5t-173.5 188.5l39 13q62 -115 173.5 -170.5 t248.5 -55.5q119 0 214.5 41t154.5 126.5t59 203.5v266q-68 -107 -182 -174t-234 -67q-143 0 -262.5 80.5t-184.5 205.5t-65 262zM1022 346v383q-51 133 -174 221t-260 88q-104 0 -191.5 -45.5t-143.5 -119t-87 -163.5t-31 -182q0 -132 62.5 -248.5t171.5 -188t237 -71.5 q97 0 192.5 49.5t156.5 125.5t67 151z" />
<glyph unicode="&#x11e;" horiz-adv-x="1474" d="M758 1722q-60 0 -106 47.5t-46 110.5h39q0 -46 35 -84.5t78 -38.5q41 0 74.5 36t39.5 87h37q0 -63 -45.5 -110.5t-105.5 -47.5zM967 692h383v-692h-41v250q-224 -260 -525 -260q-146 0 -276.5 65t-218.5 169.5t-139.5 236.5t-51.5 266q0 113 31.5 222t90.5 201.5t139 163 t184 110.5t217 40q396 0 555 -317l-39 -12q-156 288 -516 288q-112 0 -211.5 -39.5t-173 -107.5t-127.5 -156.5t-81.5 -189t-27.5 -203.5q0 -108 32.5 -212t92 -191t138.5 -153t178 -103t204 -37q291 0 525 274v346h-342v41z" />
<glyph unicode="&#x11f;" horiz-adv-x="1234" d="M731 1495h37q0 -63 -46 -110.5t-106 -47.5t-105.5 47.5t-45.5 110.5h39q0 -46 34.5 -84.5t77.5 -38.5q41 0 75 36t40 87zM94 528q0 106 37 206t100.5 176.5t157 122.5t199.5 46q248 0 434 -264v248h41v-1108q0 -102 -39 -182.5t-105 -129.5t-149 -74.5t-176 -25.5 q-179 0 -287.5 65.5t-173.5 188.5l39 13q62 -115 173.5 -170.5t248.5 -55.5q119 0 214.5 41t154.5 126.5t59 203.5v266q-68 -107 -182 -174t-234 -67q-143 0 -262.5 80.5t-184.5 205.5t-65 262zM1022 346v383q-51 133 -174 221t-260 88q-104 0 -191.5 -45.5t-143.5 -119 t-87 -163.5t-31 -182q0 -132 62.5 -248.5t171.5 -188t237 -71.5q97 0 192.5 49.5t156.5 125.5t67 151z" />
<glyph unicode="&#x120;" horiz-adv-x="1474" d="M778 1880v-158h-41v158h41zM967 692h383v-692h-41v250q-224 -260 -525 -260q-146 0 -276.5 65t-218.5 169.5t-139.5 236.5t-51.5 266q0 113 31.5 222t90.5 201.5t139 163t184 110.5t217 40q396 0 555 -317l-39 -12q-156 288 -516 288q-112 0 -211.5 -39.5t-173 -107.5 t-127.5 -156.5t-81.5 -189t-27.5 -203.5q0 -108 32.5 -212t92 -191t138.5 -153t178 -103t204 -37q291 0 525 274v346h-342v41z" />
<glyph unicode="&#x121;" horiz-adv-x="1234" d="M596 1337v158h41v-158h-41zM94 528q0 106 37 206t100.5 176.5t157 122.5t199.5 46q248 0 434 -264v248h41v-1108q0 -102 -39 -182.5t-105 -129.5t-149 -74.5t-176 -25.5q-179 0 -287.5 65.5t-173.5 188.5l39 13q62 -115 173.5 -170.5t248.5 -55.5q119 0 214.5 41 t154.5 126.5t59 203.5v266q-68 -107 -182 -174t-234 -67q-143 0 -262.5 80.5t-184.5 205.5t-65 262zM1022 346v383q-51 133 -174 221t-260 88q-104 0 -191.5 -45.5t-143.5 -119t-87 -163.5t-31 -182q0 -132 62.5 -248.5t171.5 -188t237 -71.5q97 0 192.5 49.5t156.5 125.5 t67 151z" />
<glyph unicode="&#x122;" horiz-adv-x="1474" d="M967 692h383v-692h-41v250q-224 -260 -525 -260q-146 0 -276.5 65t-218.5 169.5t-139.5 236.5t-51.5 266q0 113 31.5 222t90.5 201.5t139 163t184 110.5t217 40q396 0 555 -317l-39 -12q-156 288 -516 288q-112 0 -211.5 -39.5t-173 -107.5t-127.5 -156.5t-81.5 -189 t-27.5 -203.5q0 -108 32.5 -212t92 -191t138.5 -153t178 -103t204 -37q291 0 525 274v346h-342v41zM750 -223v121h53v-121l-27 -119h-28l20 119h-18z" />
<glyph unicode="&#x123;" horiz-adv-x="1234" d="M643 1495l-20 -119h18v-121h-53v121l26 119h29zM94 528q0 106 37 206t100.5 176.5t157 122.5t199.5 46q248 0 434 -264v248h41v-1108q0 -102 -39 -182.5t-105 -129.5t-149 -74.5t-176 -25.5q-179 0 -287.5 65.5t-173.5 188.5l39 13q62 -115 173.5 -170.5t248.5 -55.5 q119 0 214.5 41t154.5 126.5t59 203.5v266q-68 -107 -182 -174t-234 -67q-143 0 -262.5 80.5t-184.5 205.5t-65 262zM1022 346v383q-51 133 -174 221t-260 88q-104 0 -191.5 -45.5t-143.5 -119t-87 -163.5t-31 -182q0 -132 62.5 -248.5t171.5 -188t237 -71.5 q97 0 192.5 49.5t156.5 125.5t67 151z" />
<glyph unicode="&#x124;" horiz-adv-x="1497" d="M545 1729l190 151h33l190 -151l-32 -25l-174 129l-174 -129zM1294 1454v-1454h-41v723h-1009v-723h-41v1454h41v-690h1009v690h41z" />
<glyph unicode="&#x125;" horiz-adv-x="1157" d="M422 1735l190 151h33l191 -151l-33 -25l-174 129l-174 -129zM997 0h-41v592q0 446 -294 446q-149 0 -278.5 -105.5t-170.5 -260.5v-672h-41v1495h41v-707q66 132 188 211.5t258 79.5q166 0 252 -124t86 -363v-592z" />
<glyph unicode="&#x126;" horiz-adv-x="1517" d="M1407 1176v-41h-102v-1135h-41v723h-1010v-723h-41v1135h-102v41h102v278h41v-278h1010v278h41v-278h102zM1264 764v371h-1010v-371h1010z" />
<glyph unicode="&#x127;" horiz-adv-x="1157" d="M659 1079q166 0 252 -124t86 -363v-592h-41v592q0 446 -294 446q-149 0 -278.5 -105.5t-170.5 -260.5v-672h-41v1296h-152v41h152v158h41v-158h258v-41h-258v-508q66 132 188 211.5t258 79.5z" />
<glyph unicode="&#x128;" horiz-adv-x="446" d="M84 1821q-30 0 -52.5 -13.5t-32.5 -32t-14.5 -32.5t-4.5 -21h-41q0 7 2.5 19.5t11.5 34t24 39.5t44 31.5t67 13.5q53 0 128.5 -39t127.5 -39q32 0 56 9.5t35.5 22.5t19 28.5t9 24t1.5 13.5h41q0 -8 -2.5 -21t-13 -34.5t-27 -38.5t-49 -30t-74.5 -13q-51 0 -97.5 19.5 t-85.5 39t-73 19.5zM203 0v1454h41v-1454h-41z" />
<glyph unicode="&#x129;" horiz-adv-x="385" d="M53 1436q-30 0 -52.5 -13.5t-32.5 -32t-14.5 -32.5t-4.5 -21h-41q0 7 2.5 19.5t11.5 34t24 39.5t44 31.5t67 13.5q53 0 128.5 -39t127.5 -39q32 0 56 9.5t35.5 22.5t19 28.5t9 24t1.5 13.5h41q0 -8 -2.5 -21t-13 -34.5t-27 -38.5t-49 -30t-74.5 -13q-51 0 -97.5 19.5 t-85.5 39t-73 19.5zM172 0v1063h41v-1063h-41z" />
<glyph unicode="&#x12a;" horiz-adv-x="446" d="M-63 1790v41h573v-41h-573zM203 0v1454h41v-1454h-41z" />
<glyph unicode="&#x12b;" horiz-adv-x="385" d="M-94 1405v41h573v-41h-573zM172 0v1063h41v-1063h-41z" />
<glyph unicode="&#x12c;" horiz-adv-x="446" d="M338 1880h37q0 -63 -46 -110.5t-106 -47.5t-105.5 47.5t-45.5 110.5h39q0 -46 34.5 -84.5t77.5 -38.5q41 0 75 36t40 87zM203 0v1454h41v-1454h-41z" />
<glyph unicode="&#x12d;" horiz-adv-x="385" d="M307 1495h37q0 -63 -45.5 -110.5t-105.5 -47.5t-106 47.5t-46 110.5h39q0 -46 35 -84.5t78 -38.5q41 0 74.5 36t39.5 87zM172 0v1063h41v-1063h-41z" />
<glyph unicode="&#x12e;" horiz-adv-x="446" d="M244 0q-84 -65 -120 -111t-36 -88q0 -38 32.5 -60.5t115.5 -41.5l-25 -35q-89 17 -127.5 48.5t-38.5 82.5q0 52 39 104t119 117v1438h41v-1454z" />
<glyph unicode="&#x12f;" horiz-adv-x="385" d="M172 1495h41v-158h-41v158zM172 16v1047h41v-1063q-84 -65 -120 -111t-36 -88q0 -38 32.5 -60.5t115.5 -41.5l-25 -35q-89 17 -127.5 48.5t-38.5 82.5q0 52 39 104t119 117z" />
<glyph unicode="&#x130;" horiz-adv-x="446" d="M203 1722v158h41v-158h-41zM203 0v1454h41v-1454h-41z" />
<glyph unicode="&#x131;" horiz-adv-x="385" d="M172 0v1063h41v-1063h-41z" />
<glyph unicode="&#x134;" horiz-adv-x="968" d="M557 1729l191 151h32l191 -151l-33 -25l-174 129l-174 -129zM61 100q121 -82 293 -82q74 0 131 16.5t98 45t70 77t46.5 101.5t27.5 130t13 151t3 176v739h41v-739q0 -104 -3.5 -181t-14.5 -158t-30.5 -138t-51.5 -109t-77 -83.5t-108.5 -50t-144.5 -18.5q-182 0 -315 91z " />
<glyph unicode="&#x135;" horiz-adv-x="385" d="M-14 1343l190 152h33l190 -152l-32 -24l-174 129l-175 -129zM-264 -279l33 25q60 -53 170 -53q88 0 160.5 69t72.5 164v1137h41v-1137q0 -115 -85.5 -194.5t-186.5 -79.5q-136 0 -205 69z" />
<glyph unicode="&#x136;" horiz-adv-x="1271" d="M203 0v1454h41v-944l925 944h60l-621 -635l649 -819h-53l-626 791l-334 -338v-453h-41zM608 -342l21 119h-19v121h54v-121l-27 -119h-29z" />
<glyph unicode="&#x137;" horiz-adv-x="1040" d="M954 0l-452 608l-289 -262v-346h-41v1495h41v-1094l725 658h55l-461 -422l472 -637h-50zM508 -342l20 119h-18v121h53v-121l-26 -119h-29z" />
<glyph unicode="&#x138;" horiz-adv-x="1040" d="M954 0l-452 608l-289 -262v-346h-41v1063h41v-662l725 658h55l-461 -422l472 -637h-50z" />
<glyph unicode="&#x139;" horiz-adv-x="1185" d="M236 1712l-33 25l131 149h69zM203 0v1454h41v-1413h913v-41h-954z" />
<glyph unicode="&#x13a;" horiz-adv-x="487" d="M219 1712l-33 25l131 149h70zM184 1495h41v-1337q0 -60 36.5 -94.5t98.5 -34.5q50 0 113 18l14 -33q-74 -24 -141 -24q-72 0 -117 46.5t-45 121.5v1337z" />
<glyph unicode="&#x13b;" horiz-adv-x="1185" d="M203 0v1454h41v-1413h913v-41h-954zM643 -342l21 119h-19v121h53v-121l-26 -119h-29z" />
<glyph unicode="&#x13c;" horiz-adv-x="487" d="M184 1495h41v-1337q0 -60 36.5 -94.5t98.5 -34.5q50 0 113 18l14 -33q-74 -24 -141 -24q-72 0 -117 46.5t-45 121.5v1337zM297 -342l20 119h-18v121h53v-121l-26 -119h-29z" />
<glyph unicode="&#x13d;" horiz-adv-x="1185" d="M823 1335l-32 25l131 149h69zM203 0v1454h41v-1413h913v-41h-954z" />
<glyph unicode="&#x13e;" horiz-adv-x="487" d="M184 1495h41v-1337q0 -60 36.5 -94.5t98.5 -34.5q50 0 113 18l14 -33q-74 -24 -141 -24q-72 0 -117 46.5t-45 121.5v1337zM362 1321l-32 25l131 149h69z" />
<glyph unicode="&#x13f;" horiz-adv-x="1185" d="M203 0v1454h41v-1413h913v-41h-954zM750 737v170h41v-170h-41z" />
<glyph unicode="&#x140;" horiz-adv-x="522" d="M184 1495h41v-1337q0 -60 36.5 -94.5t98.5 -34.5q50 0 113 18l14 -33q-74 -24 -141 -24q-72 0 -117 46.5t-45 121.5v1337zM442 512v170h41v-170h-41z" />
<glyph unicode="&#x141;" horiz-adv-x="1200" d="M258 41h913v-41h-954v582l-129 -129l-29 30l158 158v813h41v-772l385 385l29 -31l-414 -413v-582z" />
<glyph unicode="&#x142;" horiz-adv-x="518" d="M502 47l14 -33q-74 -24 -141 -24q-72 0 -117 46.5t-45 121.5v614l-150 -149l-30 28l180 180v664h41v-623l188 189l31 -29l-219 -219v-655q0 -60 36.5 -94.5t98.5 -34.5q50 0 113 18z" />
<glyph unicode="&#x143;" horiz-adv-x="1589" d="M817 1706l-33 25l131 149h70zM244 1374v-1374h-41v1454h30l1113 -1395v1395h40v-1454h-47z" />
<glyph unicode="&#x144;" horiz-adv-x="1157" d="M586 1321l-33 25l131 149h70zM997 0h-41v592q0 232 -65 339t-207 107q-155 0 -291 -105t-180 -261v-672h-41v1063h41v-275q66 129 196.5 210t272.5 81q163 0 239 -118t76 -369v-592z" />
<glyph unicode="&#x145;" horiz-adv-x="1589" d="M244 1374v-1374h-41v1454h30l1113 -1395v1395h40v-1454h-47zM772 -342l21 119h-19v121h53v-121l-26 -119h-29z" />
<glyph unicode="&#x146;" horiz-adv-x="1157" d="M997 0h-41v592q0 232 -65 339t-207 107q-155 0 -291 -105t-180 -261v-672h-41v1063h41v-275q66 129 196.5 210t272.5 81q163 0 239 -118t76 -369v-592zM539 -342l20 119h-18v121h53v-121l-27 -119h-28z" />
<glyph unicode="&#x147;" horiz-adv-x="1589" d="M631 1880l174 -129l174 129l33 -25l-191 -151h-33l-190 151zM244 1374v-1374h-41v1454h30l1113 -1395v1395h40v-1454h-47z" />
<glyph unicode="&#x148;" horiz-adv-x="1157" d="M399 1495l174 -129l175 129l32 -25l-190 -151h-33l-190 151zM997 0h-41v592q0 232 -65 339t-207 107q-155 0 -291 -105t-180 -261v-672h-41v1063h41v-275q66 129 196.5 210t272.5 81q163 0 239 -118t76 -369v-592z" />
<glyph unicode="&#x14a;" horiz-adv-x="1589" d="M244 1374v-1374h-41v1454h30l1113 -1395v1393h40v-1526q0 -115 -85.5 -194.5t-186.5 -79.5q-136 0 -205 69l33 25q60 -53 170 -53q88 0 161 69t73 164v66z" />
<glyph unicode="&#x14b;" horiz-adv-x="1157" d="M520 -279l33 25q60 -53 170 -53q88 0 160.5 69t72.5 164v666q0 232 -65 339t-207 107q-155 0 -291 -105t-180 -261v-672h-41v1063h41v-275q66 129 196.5 210t272.5 81q163 0 239 -118t76 -369v-666q0 -115 -85.5 -194.5t-186.5 -79.5q-136 0 -205 69z" />
<glyph unicode="&#x14c;" horiz-adv-x="1550" d="M489 1790v41h574v-41h-574zM98 727q0 192 88.5 361t245.5 272.5t344 103.5q145 0 274 -64.5t215.5 -168.5t136.5 -236t50 -268q0 -194 -88.5 -363t-245 -271.5t-342.5 -102.5q-146 1 -274.5 64t-215.5 165.5t-137.5 235.5t-50.5 272zM776 31q110 0 211 39.5t177 107.5 t132.5 156t85.5 189.5t29 203.5q0 180 -82.5 339.5t-230 258t-322.5 98.5q-138 0 -259 -60.5t-202.5 -158.5t-128.5 -223t-47 -254q0 -135 48.5 -261.5t131.5 -222.5t202.5 -154t254.5 -58z" />
<glyph unicode="&#x14d;" horiz-adv-x="1200" d="M313 1405v41h574v-41h-574zM94 528q0 147 69 274t185.5 202t251.5 75t251.5 -75t185.5 -202t69 -274q0 -109 -40 -210.5t-108 -175.5t-161.5 -118t-196.5 -44q-138 0 -254.5 74.5t-184 201t-67.5 272.5zM598 20q125 0 232.5 69.5t171 187t63.5 253.5q0 135 -63 252 t-170.5 186.5t-231.5 69.5t-231.5 -70t-170.5 -188.5t-63 -255.5q0 -135 62.5 -251t169 -184.5t231.5 -68.5z" />
<glyph unicode="&#x14e;" horiz-adv-x="1550" d="M891 1880h37q0 -63 -46 -110.5t-106 -47.5t-105.5 47.5t-45.5 110.5h39q0 -46 34.5 -84.5t77.5 -38.5q41 0 75 36t40 87zM98 727q0 192 88.5 361t245.5 272.5t344 103.5q145 0 274 -64.5t215.5 -168.5t136.5 -236t50 -268q0 -194 -88.5 -363t-245 -271.5t-342.5 -102.5 q-146 1 -274.5 64t-215.5 165.5t-137.5 235.5t-50.5 272zM776 31q110 0 211 39.5t177 107.5t132.5 156t85.5 189.5t29 203.5q0 180 -82.5 339.5t-230 258t-322.5 98.5q-138 0 -259 -60.5t-202.5 -158.5t-128.5 -223t-47 -254q0 -135 48.5 -261.5t131.5 -222.5t202.5 -154 t254.5 -58z" />
<glyph unicode="&#x14f;" horiz-adv-x="1200" d="M715 1495h37q0 -63 -46 -110.5t-106 -47.5t-105.5 47.5t-45.5 110.5h38q0 -46 35 -84.5t78 -38.5q41 0 75 36t40 87zM94 528q0 147 69 274t185.5 202t251.5 75t251.5 -75t185.5 -202t69 -274q0 -109 -40 -210.5t-108 -175.5t-161.5 -118t-196.5 -44q-138 0 -254.5 74.5 t-184 201t-67.5 272.5zM598 20q125 0 232.5 69.5t171 187t63.5 253.5q0 135 -63 252t-170.5 186.5t-231.5 69.5t-231.5 -70t-170.5 -188.5t-63 -255.5q0 -135 62.5 -251t169 -184.5t231.5 -68.5z" />
<glyph unicode="&#x150;" horiz-adv-x="1550" d="M645 1706l-33 25l131 149h70zM850 1706l-33 25l131 149h70zM98 727q0 192 88.5 361t245.5 272.5t344 103.5q145 0 274 -64.5t215.5 -168.5t136.5 -236t50 -268q0 -194 -88.5 -363t-245 -271.5t-342.5 -102.5q-146 1 -274.5 64t-215.5 165.5t-137.5 235.5t-50.5 272z M776 31q110 0 211 39.5t177 107.5t132.5 156t85.5 189.5t29 203.5q0 180 -82.5 339.5t-230 258t-322.5 98.5q-138 0 -259 -60.5t-202.5 -158.5t-128.5 -223t-47 -254q0 -135 48.5 -261.5t131.5 -222.5t202.5 -154t254.5 -58z" />
<glyph unicode="&#x151;" horiz-adv-x="1200" d="M469 1321l-33 25l131 149h70zM674 1321l-33 25l131 149h70zM94 528q0 147 69 274t185.5 202t251.5 75t251.5 -75t185.5 -202t69 -274q0 -109 -40 -210.5t-108 -175.5t-161.5 -118t-196.5 -44q-138 0 -254.5 74.5t-184 201t-67.5 272.5zM598 20q125 0 232.5 69.5t171 187 t63.5 253.5q0 135 -63 252t-170.5 186.5t-231.5 69.5t-231.5 -70t-170.5 -188.5t-63 -255.5q0 -135 62.5 -251t169 -184.5t231.5 -68.5z" />
<glyph unicode="&#x152;" horiz-adv-x="2471" d="M2365 41v-41h-954v479q-73 -212 -244.5 -350.5t-386.5 -138.5q-147 0 -276 63t-217 166t-138.5 236t-50.5 272q0 192 88.5 361t245.5 272.5t344 103.5q113 0 216.5 -39t183.5 -106.5t140.5 -155.5t94.5 -190v481h936v-41h-895v-649h784v-41h-784v-682h913zM1411 729 q0 179 -82.5 338t-230 257.5t-322.5 98.5q-138 0 -259 -60.5t-202.5 -158.5t-128.5 -223t-47 -254q0 -135 48.5 -261.5t131.5 -222.5t202.5 -154t254.5 -58q138 0 258.5 60.5t202 159t128 223.5t46.5 255z" />
<glyph unicode="&#x153;" horiz-adv-x="2150" d="M94 526q0 150 68 277.5t185.5 201.5t256.5 74q169 0 301 -110t176 -289q43 184 174.5 291.5t313.5 107.5q212 0 348.5 -147.5t159.5 -401.5q0 -4 1 -11t1 -11h-973q15 -205 157.5 -346.5t335.5 -141.5q127 0 234 63t147 161l39 -11q-46 -110 -166.5 -181.5t-257.5 -71.5 q-172 0 -316.5 113t-193.5 286q-49 -180 -184 -289.5t-305 -109.5q-137 0 -252.5 73t-182.5 198.5t-67 274.5zM1065 528q0 138 -62.5 255.5t-169 186t-231.5 68.5q-126 0 -233.5 -69.5t-170.5 -188.5t-63 -258q0 -209 135.5 -355.5t327.5 -146.5q127 0 234.5 68t170 185 t62.5 255zM2036 549q-13 213 -145.5 351t-321.5 138q-124 0 -227.5 -63t-166 -175t-69.5 -251h930z" />
<glyph unicode="&#x154;" horiz-adv-x="1314" d="M618 1712l-32 25l131 149h69zM203 0v1454h592q115 0 210.5 -65t147 -165.5t51.5 -209.5q0 -173 -104.5 -302t-265.5 -141l368 -571h-49l-369 571h-540v-571h-41zM244 612h565q105 0 187.5 59t124.5 150t42 193q0 158 -108.5 278.5t-259.5 120.5h-551v-801z" />
<glyph unicode="&#x155;" horiz-adv-x="661" d="M373 1321l-33 25l131 149h70zM627 1022q-151 -6 -261 -99t-153 -251v-672h-41v1063h41v-275q56 113 149 186t197 85q54 4 68 4v-41z" />
<glyph unicode="&#x156;" horiz-adv-x="1314" d="M203 0v1454h592q115 0 210.5 -65t147 -165.5t51.5 -209.5q0 -173 -104.5 -302t-265.5 -141l368 -571h-49l-369 571h-540v-571h-41zM244 612h565q105 0 187.5 59t124.5 150t42 193q0 158 -108.5 278.5t-259.5 120.5h-551v-801zM612 -342l21 119h-19v121h54v-121l-27 -119 h-29z" />
<glyph unicode="&#x157;" horiz-adv-x="661" d="M627 1022q-151 -6 -261 -99t-153 -251v-672h-41v1063h41v-275q56 113 149 186t197 85q54 4 68 4v-41zM158 -342l20 119h-18v121h53v-121l-27 -119h-28z" />
<glyph unicode="&#x158;" horiz-adv-x="1314" d="M432 1886l174 -129l174 129l33 -24l-190 -152h-33l-191 152zM203 0v1454h592q115 0 210.5 -65t147 -165.5t51.5 -209.5q0 -173 -104.5 -302t-265.5 -141l368 -571h-49l-369 571h-540v-571h-41zM244 612h565q105 0 187.5 59t124.5 150t42 193q0 158 -108.5 278.5 t-259.5 120.5h-551v-801z" />
<glyph unicode="&#x159;" horiz-adv-x="661" d="M186 1495l174 -129l175 129l32 -25l-190 -151h-33l-190 151zM627 1022q-151 -6 -261 -99t-153 -251v-672h-41v1063h41v-275q56 113 149 186t197 85q54 4 68 4v-41z" />
<glyph unicode="&#x15a;" horiz-adv-x="1232" d="M653 1751l-32 25l131 149h69zM1042 1262q-83 92 -175 127.5t-226 35.5q-241 0 -356 -91.5t-115 -256.5q0 -45 9 -81t25 -64t45 -51.5t62.5 -41t85 -34t104.5 -29.5t128 -28q109 -22 181 -41.5t143.5 -51t112.5 -70t66 -96.5t25 -133q0 -175 -136 -270.5t-376 -95.5 q-174 0 -311 54.5t-254 170.5l31 27q109 -113 239 -165t297 -52q221 0 345 82.5t124 242.5q0 81 -27.5 138t-90.5 98.5t-148.5 69t-218.5 53.5q-108 20 -177.5 38t-137 46.5t-105 64.5t-60 90t-22.5 125q0 186 136.5 288.5t371.5 102.5q140 0 243.5 -41t188.5 -133z" />
<glyph unicode="&#x15b;" horiz-adv-x="964" d="M504 1321l-33 25l131 149h70zM481 -20q-249 0 -405 172l30 26q83 -81 173 -119.5t202 -38.5q159 0 257 69.5t98 189.5q0 38 -10 67.5t-34.5 53t-51 40t-75 32.5t-89.5 27t-111 27q-45 11 -69 17t-59 16.5t-53.5 18t-43.5 19.5t-37 23.5t-27 28t-21.5 35.5t-11 42.5 t-4.5 51.5q0 77 30 136t82.5 94t119 53t143.5 18q125 0 217.5 -42.5t128.5 -110.5l-37 -17q-37 61 -124.5 95t-192.5 34q-92 0 -163.5 -25.5t-117 -84t-45.5 -144.5q0 -35 6.5 -61.5t24.5 -47t37 -34.5t57 -27.5t70.5 -23t91.5 -23.5q68 -16 104 -25t87.5 -24.5t78 -28.5 t58 -34t46.5 -44.5t25.5 -55t10.5 -70.5q0 -139 -108.5 -222t-287.5 -83z" />
<glyph unicode="&#x15c;" horiz-adv-x="1232" d="M434 1774l191 151h32l191 -151l-33 -25l-174 129l-174 -129zM1042 1262q-83 92 -175 127.5t-226 35.5q-241 0 -356 -91.5t-115 -256.5q0 -45 9 -81t25 -64t45 -51.5t62.5 -41t85 -34t104.5 -29.5t128 -28q109 -22 181 -41.5t143.5 -51t112.5 -70t66 -96.5t25 -133 q0 -175 -136 -270.5t-376 -95.5q-174 0 -311 54.5t-254 170.5l31 27q109 -113 239 -165t297 -52q221 0 345 82.5t124 242.5q0 81 -27.5 138t-90.5 98.5t-148.5 69t-218.5 53.5q-108 20 -177.5 38t-137 46.5t-105 64.5t-60 90t-22.5 125q0 186 136.5 288.5t371.5 102.5 q140 0 243.5 -41t188.5 -133z" />
<glyph unicode="&#x15d;" horiz-adv-x="964" d="M285 1343l190 152h33l190 -152l-32 -24l-174 129l-175 -129zM481 -20q-249 0 -405 172l30 26q83 -81 173 -119.5t202 -38.5q159 0 257 69.5t98 189.5q0 38 -10 67.5t-34.5 53t-51 40t-75 32.5t-89.5 27t-111 27q-45 11 -69 17t-59 16.5t-53.5 18t-43.5 19.5t-37 23.5 t-27 28t-21.5 35.5t-11 42.5t-4.5 51.5q0 77 30 136t82.5 94t119 53t143.5 18q125 0 217.5 -42.5t128.5 -110.5l-37 -17q-37 61 -124.5 95t-192.5 34q-92 0 -163.5 -25.5t-117 -84t-45.5 -144.5q0 -35 6.5 -61.5t24.5 -47t37 -34.5t57 -27.5t70.5 -23t91.5 -23.5 q68 -16 104 -25t87.5 -24.5t78 -28.5t58 -34t46.5 -44.5t25.5 -55t10.5 -70.5q0 -139 -108.5 -222t-287.5 -83z" />
<glyph unicode="&#x15e;" horiz-adv-x="1232" d="M1157 356q0 -164 -120.5 -258.5t-336.5 -105.5q58 -39 86.5 -80.5t28.5 -95.5q0 -76 -54 -114t-145 -38q-123 0 -225 51l23 35q58 -26 100 -37.5t96 -11.5q164 0 164 115q0 54 -33.5 93.5t-105.5 80.5q-171 1 -305 56t-250 169l31 27q109 -113 239 -165t297 -52 q221 0 345 82.5t124 242.5q0 81 -27.5 138t-90.5 98.5t-148.5 69t-218.5 53.5q-108 20 -177.5 38t-137 46.5t-105 64.5t-60 90t-22.5 125q0 186 136.5 288.5t371.5 102.5q140 0 243.5 -41t188.5 -133l-27 -28q-83 92 -175 127.5t-226 35.5q-241 0 -356 -91.5t-115 -256.5 q0 -45 9 -81t25 -64t45 -51.5t62.5 -41t85 -34t104.5 -29.5t128 -28q109 -22 181 -41.5t143.5 -51t112.5 -70t66 -96.5t25 -133z" />
<glyph unicode="&#x15f;" horiz-adv-x="964" d="M877 285q0 -124 -86.5 -204t-235.5 -97q104 -71 104 -168q0 -76 -53.5 -114t-144.5 -38q-123 0 -225 51l22 35q58 -25 100.5 -37t96.5 -12q163 0 163 115q0 51 -29.5 89t-92.5 75h-15q-249 0 -405 172l30 26q83 -81 173 -119.5t202 -38.5q159 0 257 69.5t98 189.5 q0 38 -10 67.5t-34.5 53t-51 40t-75 32.5t-89.5 27t-111 27q-45 11 -69 17t-59 16.5t-53.5 18t-43.5 19.5t-37 23.5t-27 28t-21.5 35.5t-11 42.5t-4.5 51.5q0 77 30 136t82.5 94t119 53t143.5 18q125 0 217.5 -42.5t128.5 -110.5l-37 -17q-37 61 -124.5 95t-192.5 34 q-92 0 -163.5 -25.5t-117 -84t-45.5 -144.5q0 -35 6.5 -61.5t24.5 -47t37 -34.5t57 -27.5t70.5 -23t91.5 -23.5q68 -16 104 -25t87.5 -24.5t78 -28.5t58 -34t46.5 -44.5t25.5 -55t10.5 -70.5z" />
<glyph unicode="&#x160;" horiz-adv-x="1232" d="M467 1925l174 -129l174 129l33 -24l-191 -152h-32l-191 152zM1042 1262q-83 92 -175 127.5t-226 35.5q-241 0 -356 -91.5t-115 -256.5q0 -45 9 -81t25 -64t45 -51.5t62.5 -41t85 -34t104.5 -29.5t128 -28q109 -22 181 -41.5t143.5 -51t112.5 -70t66 -96.5t25 -133 q0 -175 -136 -270.5t-376 -95.5q-174 0 -311 54.5t-254 170.5l31 27q109 -113 239 -165t297 -52q221 0 345 82.5t124 242.5q0 81 -27.5 138t-90.5 98.5t-148.5 69t-218.5 53.5q-108 20 -177.5 38t-137 46.5t-105 64.5t-60 90t-22.5 125q0 186 136.5 288.5t371.5 102.5 q140 0 243.5 -41t188.5 -133z" />
<glyph unicode="&#x161;" horiz-adv-x="964" d="M317 1495l175 -129l174 129l32 -25l-190 -151h-33l-190 151zM481 -20q-249 0 -405 172l30 26q83 -81 173 -119.5t202 -38.5q159 0 257 69.5t98 189.5q0 38 -10 67.5t-34.5 53t-51 40t-75 32.5t-89.5 27t-111 27q-45 11 -69 17t-59 16.5t-53.5 18t-43.5 19.5t-37 23.5 t-27 28t-21.5 35.5t-11 42.5t-4.5 51.5q0 77 30 136t82.5 94t119 53t143.5 18q125 0 217.5 -42.5t128.5 -110.5l-37 -17q-37 61 -124.5 95t-192.5 34q-92 0 -163.5 -25.5t-117 -84t-45.5 -144.5q0 -35 6.5 -61.5t24.5 -47t37 -34.5t57 -27.5t70.5 -23t91.5 -23.5 q68 -16 104 -25t87.5 -24.5t78 -28.5t58 -34t46.5 -44.5t25.5 -55t10.5 -70.5q0 -139 -108.5 -222t-287.5 -83z" />
<glyph unicode="&#x162;" horiz-adv-x="1228" d="M1192 1413h-557v-1397q80 -45 119 -90.5t39 -109.5q0 -76 -54 -114t-145 -38q-123 0 -225 51l22 35q58 -25 100.5 -37t96.5 -12q164 0 164 115q0 57 -38 98.5t-120 85.5v1413h-557v41h1155v-41z" />
<glyph unicode="&#x163;" horiz-adv-x="604" d="M446 -6q121 -75 121 -178q0 -76 -53.5 -114t-144.5 -38q-124 0 -226 51l23 35q58 -26 100 -37.5t96 -11.5q164 0 164 115q0 54 -33.5 93.5t-105.5 80.5q-74 2 -127 48t-53 116v868h-154v41h154v371h41v-371h256v-41h-256v-868q4 -58 45 -90.5t98 -32.5q42 0 84.5 12.5 t63 23.5t24.5 15l23 -33q-3 -3 -18 -12t-50 -23t-72 -20z" />
<glyph unicode="&#x164;" horiz-adv-x="1228" d="M440 1880l174 -129l174 129l33 -25l-190 -151h-33l-190 151zM1192 1413h-557v-1413h-41v1413h-557v41h1155v-41z" />
<glyph unicode="&#x165;" horiz-adv-x="604" d="M444 1321l-32 25l131 149h69zM586 49q-5 -5 -25.5 -17t-70 -27t-99.5 -15q-76 0 -130 46t-54 118v868h-154v41h154v371h41v-371h256v-41h-256v-868q4 -58 45 -90.5t98 -32.5q42 0 84.5 12.5t63 23.5t24.5 15z" />
<glyph unicode="&#x166;" horiz-adv-x="1310" d="M1233 1413h-557v-743h475v-41h-475v-629h-41v629h-475v41h475v743h-557v41h1155v-41z" />
<glyph unicode="&#x167;" horiz-adv-x="608" d="M565 82l23 -33q-5 -5 -25.5 -17t-70 -27t-99.5 -15q-76 0 -130 46t-54 118v458h-154v41h154v369h-154v41h154v371h41v-371h256v-41h-256v-369h235v-41h-235v-458q4 -58 45 -90.5t98 -32.5q42 0 84.5 12.5t63 23.5t24.5 15z" />
<glyph unicode="&#x168;" horiz-adv-x="1548" d="M637 1821q-30 0 -53 -13.5t-33 -32t-14.5 -32.5t-4.5 -21h-40q0 7 2.5 19.5t11.5 34t24 39.5t44 31.5t67 13.5q53 0 128.5 -39t127.5 -39q32 0 56 9.5t35.5 22.5t19 28.5t9 24t1.5 13.5h41q0 -8 -2.5 -21t-13 -34.5t-27 -38.5t-49 -30t-74.5 -13q-51 0 -97.5 19.5 t-85.5 39t-73 19.5zM776 -10q-134 0 -238.5 42t-170.5 111.5t-109.5 167t-60.5 199.5t-17 217v727h41v-727q0 -111 16 -207.5t55.5 -188t100.5 -156.5t158.5 -104.5t222.5 -39.5q127 0 225.5 40.5t159.5 106t100.5 158t54.5 188t15 203.5v727h41v-727q0 -120 -18.5 -225 t-62.5 -200.5t-111 -163.5t-169.5 -108t-232.5 -40z" />
<glyph unicode="&#x169;" d="M438 1436q-30 0 -52.5 -13.5t-32.5 -32t-14.5 -32.5t-4.5 -21h-41q0 7 2.5 19.5t11.5 34t24 39.5t44 31.5t67 13.5q53 0 128.5 -39t127.5 -39q32 0 56 9.5t35.5 22.5t19 28.5t9 24t1.5 13.5h41q0 -8 -2.5 -21t-13 -34.5t-27 -38.5t-49 -30t-74.5 -13q-51 0 -97.5 19.5 t-85.5 39t-73 19.5zM160 467v596h41v-596q0 -226 74.5 -336.5t226.5 -110.5q154 0 285 103.5t178 263.5v676h41v-981q0 -41 32 -41v-41q-22 0 -28 4q-20 7 -32.5 29t-12.5 49v188q-69 -133 -194.5 -211.5t-268.5 -78.5q-169 0 -255.5 123t-86.5 364z" />
<glyph unicode="&#x16a;" horiz-adv-x="1548" d="M489 1790v41h574v-41h-574zM776 -10q-134 0 -238.5 42t-170.5 111.5t-109.5 167t-60.5 199.5t-17 217v727h41v-727q0 -111 16 -207.5t55.5 -188t100.5 -156.5t158.5 -104.5t222.5 -39.5q127 0 225.5 40.5t159.5 106t100.5 158t54.5 188t15 203.5v727h41v-727 q0 -120 -18.5 -225t-62.5 -200.5t-111 -163.5t-169.5 -108t-232.5 -40z" />
<glyph unicode="&#x16b;" d="M291 1405v41h573v-41h-573zM160 467v596h41v-596q0 -226 74.5 -336.5t226.5 -110.5q154 0 285 103.5t178 263.5v676h41v-981q0 -41 32 -41v-41q-22 0 -28 4q-20 7 -32.5 29t-12.5 49v188q-69 -133 -194.5 -211.5t-268.5 -78.5q-169 0 -255.5 123t-86.5 364z" />
<glyph unicode="&#x16c;" horiz-adv-x="1548" d="M891 1880h37q0 -63 -46 -110.5t-106 -47.5t-105.5 47.5t-45.5 110.5h39q0 -46 34.5 -84.5t77.5 -38.5q41 0 75 36t40 87zM776 -10q-134 0 -238.5 42t-170.5 111.5t-109.5 167t-60.5 199.5t-17 217v727h41v-727q0 -111 16 -207.5t55.5 -188t100.5 -156.5t158.5 -104.5 t222.5 -39.5q127 0 225.5 40.5t159.5 106t100.5 158t54.5 188t15 203.5v727h41v-727q0 -120 -18.5 -225t-62.5 -200.5t-111 -163.5t-169.5 -108t-232.5 -40z" />
<glyph unicode="&#x16d;" d="M692 1495h37q0 -63 -45.5 -110.5t-105.5 -47.5t-106 47.5t-46 110.5h39q0 -46 35 -84.5t78 -38.5q41 0 74.5 36t39.5 87zM160 467v596h41v-596q0 -226 74.5 -336.5t226.5 -110.5q154 0 285 103.5t178 263.5v676h41v-981q0 -41 32 -41v-41q-22 0 -28 4q-20 7 -32.5 29 t-12.5 49v188q-69 -133 -194.5 -211.5t-268.5 -78.5q-169 0 -255.5 123t-86.5 364z" />
<glyph unicode="&#x16e;" horiz-adv-x="1548" d="M776 1933q65 0 109.5 -44.5t44.5 -108.5t-45 -109t-109 -45t-108.5 44.5t-44.5 109.5q0 64 44.5 108.5t108.5 44.5zM666 1780q0 -46 32 -78.5t78 -32.5q42 0 76.5 32t34.5 79q0 49 -32.5 79.5t-78.5 30.5t-78 -30.5t-32 -79.5zM776 -10q-134 0 -238.5 42t-170.5 111.5 t-109.5 167t-60.5 199.5t-17 217v727h41v-727q0 -111 16 -207.5t55.5 -188t100.5 -156.5t158.5 -104.5t222.5 -39.5q127 0 225.5 40.5t159.5 106t100.5 158t54.5 188t15 203.5v727h41v-727q0 -120 -18.5 -225t-62.5 -200.5t-111 -163.5t-169.5 -108t-232.5 -40z" />
<glyph unicode="&#x16f;" d="M578 1548q64 0 108.5 -44t44.5 -109t-44.5 -109.5t-108.5 -44.5t-109 44.5t-45 109.5q0 64 44.5 108.5t109.5 44.5zM467 1395q0 -46 32.5 -78.5t78.5 -32.5q42 0 76 32t34 79q0 49 -32 79.5t-78 30.5t-78.5 -30.5t-32.5 -79.5zM160 467v596h41v-596q0 -226 74.5 -336.5 t226.5 -110.5q154 0 285 103.5t178 263.5v676h41v-981q0 -41 32 -41v-41q-22 0 -28 4q-20 7 -32.5 29t-12.5 49v188q-69 -133 -194.5 -211.5t-268.5 -78.5q-169 0 -255.5 123t-86.5 364z" />
<glyph unicode="&#x170;" horiz-adv-x="1548" d="M645 1706l-33 25l131 149h70zM850 1706l-33 25l131 149h70zM776 -10q-134 0 -238.5 42t-170.5 111.5t-109.5 167t-60.5 199.5t-17 217v727h41v-727q0 -111 16 -207.5t55.5 -188t100.5 -156.5t158.5 -104.5t222.5 -39.5q127 0 225.5 40.5t159.5 106t100.5 158t54.5 188 t15 203.5v727h41v-727q0 -120 -18.5 -225t-62.5 -200.5t-111 -163.5t-169.5 -108t-232.5 -40z" />
<glyph unicode="&#x171;" d="M446 1321l-32 25l131 149h69zM651 1321l-33 25l132 149h69zM160 467v596h41v-596q0 -226 74.5 -336.5t226.5 -110.5q154 0 285 103.5t178 263.5v676h41v-981q0 -41 32 -41v-41q-22 0 -28 4q-20 7 -32.5 29t-12.5 49v188q-69 -133 -194.5 -211.5t-268.5 -78.5 q-169 0 -255.5 123t-86.5 364z" />
<glyph unicode="&#x172;" horiz-adv-x="1548" d="M1329 1454h41v-727q0 -90 -11 -172t-33.5 -160t-61 -143.5t-90 -117.5t-124 -87.5t-159.5 -48.5q-82 -63 -118 -109t-36 -88q0 -38 32.5 -60.5t115.5 -41.5l-25 -35q-89 17 -127.5 48.5t-38.5 82.5q0 85 127 197q-14 -2 -45 -2q-134 0 -238.5 42t-170.5 111.5t-109.5 167 t-60.5 199.5t-17 217v727h41v-727q0 -111 16 -207.5t55.5 -188t100.5 -156.5t158.5 -104.5t222.5 -39.5q127 0 225.5 40.5t159.5 106t100.5 158t54.5 188t15 203.5v727z" />
<glyph unicode="&#x173;" d="M1038 0q-83 -65 -119 -110.5t-36 -88.5q0 -38 32 -60.5t115 -41.5l-24 -35q-89 17 -127.5 48.5t-38.5 82.5q0 50 37.5 102t115.5 117q-28 24 -28 68v188q-69 -133 -194.5 -211.5t-268.5 -78.5q-169 0 -255.5 123t-86.5 364v596h41v-596q0 -226 74.5 -336.5t226.5 -110.5 q154 0 285 103.5t178 263.5v676h41v-981q0 -41 32 -41v-41z" />
<glyph unicode="&#x174;" horiz-adv-x="2125" d="M854 1729l190 151h33l191 -151l-33 -25l-174 129l-174 -129zM780 1442h45l236 -545l237 545h45l-260 -594l349 -797l610 1403h45l-633 -1454h-45l-346 797l-346 -797h-45l-633 1454h45l610 -1403l346 797z" />
<glyph unicode="&#x175;" horiz-adv-x="1626" d="M606 1343l191 152h32l191 -152l-33 -24l-174 129l-174 -129zM1530 1063h45l-465 -1063h-37l-260 596l-260 -596h-37l-465 1063h45l439 -1004l256 588l-179 414h43l158 -361l158 361h43l-178 -414l256 -588z" />
<glyph unicode="&#x176;" horiz-adv-x="1312" d="M449 1729l190 151h33l190 -151l-33 -25l-174 129l-174 -129zM94 1454l561 -844l564 844h47l-590 -891v-563h-41v567l-588 887h47z" />
<glyph unicode="&#x177;" horiz-adv-x="1097" d="M350 1343l191 152h32l191 -152l-33 -24l-174 129l-174 -129zM262 -416q80 0 96 21t179 395l-494 1063h45l469 -1012l444 1012h46l-633 -1444q-23 -53 -68 -65q-46 -11 -84 -11v41z" />
<glyph unicode="&#x178;" horiz-adv-x="1312" d="M516 1722v158h41v-158h-41zM754 1722v158h41v-158h-41zM94 1454l561 -844l564 844h47l-590 -891v-563h-41v567l-588 887h47z" />
<glyph unicode="&#x179;" horiz-adv-x="1277" d="M688 1706l-33 25l131 149h70zM57 41l1110 1372h-1099v41h1151v-41l-1110 -1372h1101v-41h-1153v41z" />
<glyph unicode="&#x17a;" horiz-adv-x="999" d="M543 1321l-33 25l131 149h70zM68 41l811 981h-801v41h852v-41l-809 -981h801v-41h-854v41z" />
<glyph unicode="&#x17b;" horiz-adv-x="1277" d="M655 1722v158h41v-158h-41zM57 41l1110 1372h-1099v41h1151v-41l-1110 -1372h1101v-41h-1153v41z" />
<glyph unicode="&#x17c;" horiz-adv-x="999" d="M510 1337v158h41v-158h-41zM68 41l811 981h-801v41h852v-41l-809 -981h801v-41h-854v41z" />
<glyph unicode="&#x17d;" horiz-adv-x="1277" d="M502 1880l174 -129l174 129l33 -25l-191 -151h-33l-190 151zM57 41l1110 1372h-1099v41h1151v-41l-1110 -1372h1101v-41h-1153v41z" />
<glyph unicode="&#x17e;" horiz-adv-x="999" d="M356 1495l174 -129l175 129l32 -25l-190 -151h-33l-190 151zM68 41l811 981h-801v41h852v-41l-809 -981h801v-41h-854v41z" />
<glyph unicode="&#x18f;" horiz-adv-x="1513" d="M68 721v20h1302q-10 144 -64.5 270t-139 216t-198 142t-237.5 52q-166 0 -311.5 -87.5t-202.5 -229.5l-41 18q57 147 216 244.5t343 97.5q137 0 263 -60t217.5 -161.5t145.5 -241.5t54 -292q0 -149 -52.5 -283.5t-141.5 -232.5t-212 -155.5t-259 -57.5q-190 0 -347 99 t-246 269t-89 373zM1370 696h-1255q13 -193 98 -346.5t224 -239t308 -85.5q168 0 308 87t224 240.5t93 343.5z" />
<glyph unicode="&#x192;" horiz-adv-x="1040" d="M61 -279l33 25q60 -53 170 -53q88 0 161 69t73 164v971h-154v41h154v168q0 193 74 301.5t206 108.5q58 0 112.5 -19.5t82.5 -50.5l-33 -25q-25 25 -69 40.5t-91 15.5q-117 0 -179 -95.5t-62 -275.5v-168h317v-41h-317v-971q0 -115 -86 -194.5t-187 -79.5q-136 0 -205 69z " />
<glyph unicode="&#x1a0;" horiz-adv-x="1550" d="M993 1425q206 -78 332.5 -275.5t126.5 -422.5q0 -194 -88.5 -363t-245 -271.5t-342.5 -102.5q-146 1 -274.5 64t-215.5 165.5t-137.5 235.5t-50.5 272q0 192 88.5 361t245.5 272.5t344 103.5q60 0 119 -12v2q55 0 100.5 12.5t65.5 34.5q30 38 33 125h45q-4 -47 -6.5 -66 t-11.5 -41.5t-27 -43.5q-26 -33 -101 -50zM776 31q110 0 211 39.5t177 107.5t132.5 156t85.5 189.5t29 203.5q0 180 -82.5 339.5t-230 258t-322.5 98.5q-138 0 -259 -60.5t-202.5 -158.5t-128.5 -223t-47 -254q0 -135 48.5 -261.5t131.5 -222.5t202.5 -154t254.5 -58z" />
<glyph unicode="&#x1a1;" horiz-adv-x="1200" d="M805 1030q134 -66 217.5 -202.5t83.5 -299.5q0 -109 -40 -210.5t-108 -175.5t-161.5 -118t-196.5 -44q-138 0 -254.5 74.5t-184 201t-67.5 272.5q0 147 69 274t185.5 202t251.5 75q59 0 121 -16q53 0 99 12.5t65 34.5q30 38 33 125h45q-4 -47 -6.5 -66t-11.5 -42t-27 -44 q-29 -36 -113 -53zM598 20q125 0 232.5 69.5t171 187t63.5 253.5q0 135 -63 252t-170.5 186.5t-231.5 69.5t-231.5 -70t-170.5 -188.5t-63 -255.5q0 -135 62.5 -251t169 -184.5t231.5 -68.5z" />
<glyph unicode="&#x1af;" horiz-adv-x="1548" d="M1536 1626h45q-4 -47 -6.5 -66t-11.5 -41.5t-27 -43.5q-21 -24 -67 -40.5t-99 -19.5v-688q0 -120 -18.5 -225t-62.5 -200.5t-111 -163.5t-169.5 -108t-232.5 -40q-134 0 -238.5 42t-170.5 111.5t-109.5 167t-60.5 199.5t-17 217v727h41v-727q0 -111 16 -207.5t55.5 -188 t100.5 -156.5t158.5 -104.5t222.5 -39.5q127 0 225.5 40.5t159.5 106t100.5 158t54.5 188t15 203.5v727h8q55 0 100.5 12.5t65.5 34.5q30 38 33 125z" />
<glyph unicode="&#x1b0;" d="M1167 1235h45q-4 -47 -6.5 -66t-11.5 -42t-27 -44q-46 -49 -161 -59v-942q0 -41 32 -41v-41q-22 0 -28 4q-20 7 -32.5 29t-12.5 49v188q-69 -133 -194.5 -211.5t-268.5 -78.5q-169 0 -255.5 123t-86.5 364v596h41v-596q0 -226 74.5 -336.5t226.5 -110.5q154 0 285 103.5 t178 263.5v676h4q55 0 100.5 12.5t65.5 34.5q29 36 32 125z" />
<glyph unicode="&#x1e6;" horiz-adv-x="1474" d="M774 1704h-33l-190 151l33 25l174 -129l174 129l33 -25zM967 692h383v-692h-41v250q-224 -260 -525 -260q-146 0 -276.5 65t-218.5 169.5t-139.5 236.5t-51.5 266q0 113 31.5 222t90.5 201.5t139 163t184 110.5t217 40q396 0 555 -317l-39 -12q-156 288 -516 288 q-112 0 -211.5 -39.5t-173 -107.5t-127.5 -156.5t-81.5 -189t-27.5 -203.5q0 -108 32.5 -212t92 -191t138.5 -153t178 -103t204 -37q291 0 525 274v346h-342v41z" />
<glyph unicode="&#x1e7;" horiz-adv-x="1234" d="M442 1495l174 -129l175 129l32 -25l-190 -151h-33l-190 151zM94 528q0 106 37 206t100.5 176.5t157 122.5t199.5 46q248 0 434 -264v248h41v-1108q0 -102 -39 -182.5t-105 -129.5t-149 -74.5t-176 -25.5q-179 0 -287.5 65.5t-173.5 188.5l39 13q62 -115 173.5 -170.5 t248.5 -55.5q119 0 214.5 41t154.5 126.5t59 203.5v266q-68 -107 -182 -174t-234 -67q-143 0 -262.5 80.5t-184.5 205.5t-65 262zM1022 346v383q-51 133 -174 221t-260 88q-104 0 -191.5 -45.5t-143.5 -119t-87 -163.5t-31 -182q0 -132 62.5 -248.5t171.5 -188t237 -71.5 q97 0 192.5 49.5t156.5 125.5t67 151z" />
<glyph unicode="&#x1ea;" horiz-adv-x="1550" d="M872 -2q-81 -66 -116 -110.5t-35 -86.5q0 -38 32 -60.5t115 -41.5l-24 -35q-89 17 -127.5 48.5t-38.5 82.5q0 87 127 195h-29q-146 1 -274.5 64t-215.5 165.5t-137.5 235.5t-50.5 272q0 192 88.5 361t245.5 272.5t344 103.5q145 0 274 -64.5t215.5 -168.5t136.5 -236 t50 -268q0 -176 -74.5 -334t-208 -264t-297.5 -131zM139 727q0 -135 48.5 -261.5t131.5 -222.5t202.5 -154t254.5 -58q110 0 211 39.5t177 107.5t132.5 156t85.5 189.5t29 203.5q0 180 -82.5 339.5t-230 258t-322.5 98.5q-138 0 -259 -60.5t-202.5 -158.5t-128.5 -223 t-47 -254z" />
<glyph unicode="&#x1eb;" horiz-adv-x="1200" d="M700 -10q-77 -60 -110 -104t-33 -85q0 -38 32.5 -60.5t115.5 -41.5l-25 -35q-89 17 -127.5 48.5t-38.5 82.5q0 82 115 185h-29q-138 0 -254.5 74.5t-184 201t-67.5 272.5q0 147 69 274t185.5 202t251.5 75t251.5 -75t185.5 -202t69 -274q0 -194 -116 -346t-290 -192z M598 20q125 0 232.5 69.5t171 187t63.5 253.5q0 135 -63 252t-170.5 186.5t-231.5 69.5t-231.5 -70t-170.5 -188.5t-63 -255.5q0 -135 62.5 -251t169 -184.5t231.5 -68.5z" />
<glyph unicode="&#x1fa;" horiz-adv-x="1380" d="M709 1454l632 -1454h-45l-227 520h-760l-227 -520h-45l635 1454q-59 6 -97 49t-38 103q0 64 44.5 108.5t108.5 44.5h4l127 146h70l-150 -154q46 -15 74.5 -54.5t28.5 -90.5q0 -60 -38 -103t-97 -49zM580 1606q0 -46 32 -78.5t78 -32.5q42 0 76.5 32t34.5 79 q0 49 -32.5 79.5t-78.5 30.5t-78 -30.5t-32 -79.5zM326 561h725l-361 834z" />
<glyph unicode="&#x1fb;" horiz-adv-x="1073" d="M555 1706l-33 25l131 149h70zM526 1548q65 0 109.5 -44.5t44.5 -108.5q0 -65 -45 -109.5t-109 -44.5t-108.5 44.5t-44.5 109.5t44.5 109t108.5 44zM416 1395q0 -46 32 -78.5t78 -32.5q42 0 76.5 32t34.5 79q0 49 -32.5 79.5t-78.5 30.5t-78 -30.5t-32 -79.5zM80 305 q0 134 122.5 218.5t315.5 84.5q197 0 356 -59v121q0 166 -95.5 267t-252.5 101q-158 0 -344 -131l-24 33q204 139 368 139q178 0 283.5 -110.5t105.5 -298.5v-588q0 -41 33 -41v-41q-22 0 -28 4q-20 7 -33 29.5t-13 48.5v98q-73 -95 -192 -147.5t-258 -52.5 q-145 0 -244.5 94t-99.5 231zM844 209q30 44 30 84v211q-163 63 -356 63q-179 0 -288 -72t-109 -190q0 -120 87.5 -202.5t215.5 -82.5q136 0 250 51.5t170 137.5z" />
<glyph unicode="&#x1fc;" horiz-adv-x="1970" d="M1126 1706l-32 25l131 149h69zM899 1454h946v-41h-895v-649h785v-41h-785v-682h914v-41h-955v520h-575l-342 -520h-51zM909 561v828l-551 -828h551z" />
<glyph unicode="&#x1fd;" horiz-adv-x="1900" d="M905 1321l-33 25l132 149h69zM80 305q0 134 122.5 218.5t315.5 84.5q149 0 297 -41q6 107 47 203q-26 124 -116 196t-220 72q-158 0 -344 -131l-24 33q204 139 368 139q136 0 231.5 -66.5t133.5 -187.5q67 116 180 185t246 69q139 0 256.5 -73t186 -199.5t69.5 -276.5 v-22h-973q10 -135 75.5 -247t170.5 -176.5t227 -64.5q123 0 230 63t151 161l39 -11q-43 -109 -163.5 -181t-258.5 -72q-130 0 -242 66.5t-182 180.5q-31 -63 -86 -112t-121 -77.5t-135 -43t-137 -14.5q-145 0 -244.5 94t-99.5 231zM1786 549q-13 213 -145.5 351t-321.5 138 q-124 0 -227.5 -63t-166 -175t-69.5 -251h930zM844 209q24 37 30 72q-56 112 -59 243q-139 43 -297 43q-179 0 -288 -72t-109 -190q0 -120 87.5 -202.5t215.5 -82.5q136 0 250 51.5t170 137.5z" />
<glyph unicode="&#x1fe;" horiz-adv-x="1550" d="M956 1880l-168 -174l-32 25l131 149h69zM1180 1317q127 -107 199.5 -265t72.5 -325q0 -194 -88.5 -363t-245 -271.5t-342.5 -102.5q-203 0 -370 121l-72 -111h-51l88 137q-128 106 -200.5 263t-72.5 327q0 192 88.5 361t245.5 272.5t344 103.5q205 0 367 -121l71 111h54z M139 727q0 -162 67.5 -309t186.5 -246l729 1137q-155 114 -346 114q-138 0 -259 -60.5t-202.5 -158.5t-128.5 -223t-47 -254zM776 31q110 0 211 39.5t177 107.5t132.5 156t85.5 189.5t29 203.5q0 161 -68 308.5t-186 246.5l-731 -1137q158 -114 350 -114z" />
<glyph unicode="&#x1ff;" horiz-adv-x="1200" d="M662 1495l-168 -174l-33 25l131 149h70zM899 971q95 -78 151 -195t56 -248q0 -109 -40 -210.5t-108 -175.5t-161.5 -118t-196.5 -44q-142 0 -260 79l-37 -59h-51l51 84q-97 78 -153 194.5t-56 249.5q0 147 69 274t185.5 202t251.5 75q137 0 262 -82l39 66h53zM135 524 q0 -121 51 -227.5t138 -177.5l516 844q-112 75 -240 75q-124 0 -231.5 -70t-170.5 -188.5t-63 -255.5zM598 20q125 0 232.5 69.5t171 187t63.5 253.5q0 120 -50.5 227.5t-137.5 178.5l-517 -842q110 -74 238 -74z" />
<glyph unicode="&#x200;" horiz-adv-x="1380" d="M424 1880h70l131 -149l-33 -25zM629 1880h69l131 -149l-32 -25zM672 1454h37l632 -1454h-45l-227 520h-760l-227 -520h-45zM1051 561l-361 834l-364 -834h725z" />
<glyph unicode="&#x201;" horiz-adv-x="1073" d="M260 1495h70l131 -149l-33 -25zM465 1495h70l131 -149l-33 -25zM80 305q0 134 122.5 218.5t315.5 84.5q197 0 356 -59v121q0 166 -95.5 267t-252.5 101q-158 0 -344 -131l-24 33q204 139 368 139q178 0 283.5 -110.5t105.5 -298.5v-588q0 -41 33 -41v-41q-22 0 -28 4 q-20 7 -33 29.5t-13 48.5v98q-73 -95 -192 -147.5t-258 -52.5q-145 0 -244.5 94t-99.5 231zM844 209q30 44 30 84v211q-163 63 -356 63q-179 0 -288 -72t-109 -190q0 -120 87.5 -202.5t215.5 -82.5q136 0 250 51.5t170 137.5z" />
<glyph unicode="&#x202;" horiz-adv-x="1380" d="M578 1722h-39q0 63 45.5 110.5t105.5 47.5t106 -47.5t46 -110.5h-37q-6 51 -40 87t-75 36q-43 0 -77.5 -38.5t-34.5 -84.5zM672 1454h37l632 -1454h-45l-227 520h-760l-227 -520h-45zM1051 561l-361 834l-364 -834h725z" />
<glyph unicode="&#x203;" horiz-adv-x="1073" d="M414 1337h-39q0 63 45.5 110.5t105.5 47.5t106 -47.5t46 -110.5h-37q-6 51 -40 87t-75 36q-43 0 -77.5 -38.5t-34.5 -84.5zM80 305q0 134 122.5 218.5t315.5 84.5q197 0 356 -59v121q0 166 -95.5 267t-252.5 101q-158 0 -344 -131l-24 33q204 139 368 139 q178 0 283.5 -110.5t105.5 -298.5v-588q0 -41 33 -41v-41q-22 0 -28 4q-20 7 -33 29.5t-13 48.5v98q-73 -95 -192 -147.5t-258 -52.5q-145 0 -244.5 94t-99.5 231zM844 209q30 44 30 84v211q-163 63 -356 63q-179 0 -288 -72t-109 -190q0 -120 87.5 -202.5t215.5 -82.5 q136 0 250 51.5t170 137.5z" />
<glyph unicode="&#x204;" horiz-adv-x="1263" d="M438 1880h70l131 -149l-33 -25zM643 1880h70l131 -149l-33 -25zM1157 41v-41h-954v1454h936v-41h-895v-649h784v-41h-784v-682h913z" />
<glyph unicode="&#x205;" d="M332 1495h69l131 -149l-32 -25zM537 1495h69l131 -149l-32 -25zM606 -20q-138 0 -256 75.5t-187 204.5t-69 279q0 147 67 271.5t182.5 196.5t252.5 72q139 0 256.5 -73t186 -199.5t69.5 -276.5v-22h-973q10 -135 75.5 -247t170.5 -176.5t227 -64.5q123 0 230 63t151 161 l39 -11q-43 -109 -163.5 -181t-258.5 -72zM135 549h930q-13 213 -145.5 351t-321.5 138q-124 0 -227.5 -63t-166 -175t-69.5 -251z" />
<glyph unicode="&#x206;" horiz-adv-x="1263" d="M592 1722h-39q0 63 46 110.5t106 47.5t105.5 -47.5t45.5 -110.5h-37q-6 51 -39.5 87t-74.5 36q-43 0 -78 -38.5t-35 -84.5zM1157 41v-41h-954v1454h936v-41h-895v-649h784v-41h-784v-682h913z" />
<glyph unicode="&#x207;" d="M485 1337h-39q0 63 46 110.5t106 47.5t106 -47.5t46 -110.5h-37q-6 51 -40 87t-75 36q-43 0 -78 -38.5t-35 -84.5zM606 -20q-138 0 -256 75.5t-187 204.5t-69 279q0 147 67 271.5t182.5 196.5t252.5 72q139 0 256.5 -73t186 -199.5t69.5 -276.5v-22h-973 q10 -135 75.5 -247t170.5 -176.5t227 -64.5q123 0 230 63t151 161l39 -11q-43 -109 -163.5 -181t-258.5 -72zM135 549h930q-13 213 -145.5 351t-321.5 138q-124 0 -227.5 -63t-166 -175t-69.5 -251z" />
<glyph unicode="&#x208;" horiz-adv-x="446" d="M-43 1880h70l131 -149l-33 -25zM162 1880h69l131 -149l-32 -25zM203 0v1454h41v-1454h-41z" />
<glyph unicode="&#x209;" horiz-adv-x="385" d="M-74 1495h70l131 -149l-33 -25zM131 1495h70l131 -149l-33 -25zM172 0v1063h41v-1063h-41z" />
<glyph unicode="&#x20a;" horiz-adv-x="446" d="M111 1722h-39q0 63 45.5 110.5t105.5 47.5t106 -47.5t46 -110.5h-37q-6 51 -40 87t-75 36q-43 0 -77.5 -38.5t-34.5 -84.5zM203 0v1454h41v-1454h-41z" />
<glyph unicode="&#x20b;" horiz-adv-x="385" d="M80 1337h-39q0 63 46 110.5t106 47.5t105.5 -47.5t45.5 -110.5h-37q-6 51 -39.5 87t-74.5 36q-43 0 -78 -38.5t-35 -84.5zM172 0v1063h41v-1063h-41z" />
<glyph unicode="&#x20c;" horiz-adv-x="1550" d="M510 1880h70l131 -149l-33 -25zM715 1880h69l131 -149l-32 -25zM98 727q0 192 88.5 361t245.5 272.5t344 103.5q145 0 274 -64.5t215.5 -168.5t136.5 -236t50 -268q0 -194 -88.5 -363t-245 -271.5t-342.5 -102.5q-146 1 -274.5 64t-215.5 165.5t-137.5 235.5t-50.5 272z M776 31q110 0 211 39.5t177 107.5t132.5 156t85.5 189.5t29 203.5q0 180 -82.5 339.5t-230 258t-322.5 98.5q-138 0 -259 -60.5t-202.5 -158.5t-128.5 -223t-47 -254q0 -135 48.5 -261.5t131.5 -222.5t202.5 -154t254.5 -58z" />
<glyph unicode="&#x20d;" horiz-adv-x="1200" d="M334 1495h69l132 -149l-33 -25zM539 1495h69l131 -149l-32 -25zM94 528q0 147 69 274t185.5 202t251.5 75t251.5 -75t185.5 -202t69 -274q0 -109 -40 -210.5t-108 -175.5t-161.5 -118t-196.5 -44q-138 0 -254.5 74.5t-184 201t-67.5 272.5zM598 20q125 0 232.5 69.5 t171 187t63.5 253.5q0 135 -63 252t-170.5 186.5t-231.5 69.5t-231.5 -70t-170.5 -188.5t-63 -255.5q0 -135 62.5 -251t169 -184.5t231.5 -68.5z" />
<glyph unicode="&#x20e;" horiz-adv-x="1550" d="M664 1722h-39q0 63 45.5 110.5t105.5 47.5t106 -47.5t46 -110.5h-37q-6 51 -40 87t-75 36q-43 0 -77.5 -38.5t-34.5 -84.5zM98 727q0 192 88.5 361t245.5 272.5t344 103.5q145 0 274 -64.5t215.5 -168.5t136.5 -236t50 -268q0 -194 -88.5 -363t-245 -271.5t-342.5 -102.5 q-146 1 -274.5 64t-215.5 165.5t-137.5 235.5t-50.5 272zM776 31q110 0 211 39.5t177 107.5t132.5 156t85.5 189.5t29 203.5q0 180 -82.5 339.5t-230 258t-322.5 98.5q-138 0 -259 -60.5t-202.5 -158.5t-128.5 -223t-47 -254q0 -135 48.5 -261.5t131.5 -222.5t202.5 -154 t254.5 -58z" />
<glyph unicode="&#x20f;" horiz-adv-x="1200" d="M487 1337h-38q0 63 45.5 110.5t105.5 47.5t106 -47.5t46 -110.5h-37q-6 51 -40 87t-75 36q-43 0 -78 -38.5t-35 -84.5zM94 528q0 147 69 274t185.5 202t251.5 75t251.5 -75t185.5 -202t69 -274q0 -109 -40 -210.5t-108 -175.5t-161.5 -118t-196.5 -44q-138 0 -254.5 74.5 t-184 201t-67.5 272.5zM598 20q125 0 232.5 69.5t171 187t63.5 253.5q0 135 -63 252t-170.5 186.5t-231.5 69.5t-231.5 -70t-170.5 -188.5t-63 -255.5q0 -135 62.5 -251t169 -184.5t231.5 -68.5z" />
<glyph unicode="&#x210;" horiz-adv-x="1314" d="M340 1886h70l131 -149l-33 -25zM545 1886h69l131 -149l-32 -25zM203 0v1454h592q115 0 210.5 -65t147 -165.5t51.5 -209.5q0 -173 -104.5 -302t-265.5 -141l368 -571h-49l-369 571h-540v-571h-41zM244 612h565q105 0 187.5 59t124.5 150t42 193q0 158 -108.5 278.5 t-259.5 120.5h-551v-801z" />
<glyph unicode="&#x211;" horiz-adv-x="661" d="M94 1495h70l131 -149l-33 -25zM299 1495h70l131 -149l-33 -25zM627 1022q-151 -6 -261 -99t-153 -251v-672h-41v1063h41v-275q56 113 149 186t197 85q54 4 68 4v-41z" />
<glyph unicode="&#x212;" horiz-adv-x="1314" d="M494 1729h-39q0 63 45.5 110t105.5 47t106 -47t46 -110h-37q-6 51 -40 86.5t-75 35.5q-43 0 -77.5 -38t-34.5 -84zM203 0v1454h592q115 0 210.5 -65t147 -165.5t51.5 -209.5q0 -173 -104.5 -302t-265.5 -141l368 -571h-49l-369 571h-540v-571h-41zM244 612h565 q105 0 187.5 59t124.5 150t42 193q0 158 -108.5 278.5t-259.5 120.5h-551v-801z" />
<glyph unicode="&#x213;" horiz-adv-x="661" d="M248 1337h-39q0 63 45.5 110.5t105.5 47.5t106 -47.5t46 -110.5h-37q-6 51 -40 87t-75 36q-43 0 -77.5 -38.5t-34.5 -84.5zM627 1022q-151 -6 -261 -99t-153 -251v-672h-41v1063h41v-275q56 113 149 186t197 85q54 4 68 4v-41z" />
<glyph unicode="&#x214;" horiz-adv-x="1548" d="M510 1880h70l131 -149l-33 -25zM715 1880h69l131 -149l-32 -25zM776 -10q-134 0 -238.5 42t-170.5 111.5t-109.5 167t-60.5 199.5t-17 217v727h41v-727q0 -111 16 -207.5t55.5 -188t100.5 -156.5t158.5 -104.5t222.5 -39.5q127 0 225.5 40.5t159.5 106t100.5 158 t54.5 188t15 203.5v727h41v-727q0 -120 -18.5 -225t-62.5 -200.5t-111 -163.5t-169.5 -108t-232.5 -40z" />
<glyph unicode="&#x215;" d="M311 1495h70l131 -149l-33 -25zM516 1495h70l131 -149l-33 -25zM160 467v596h41v-596q0 -226 74.5 -336.5t226.5 -110.5q154 0 285 103.5t178 263.5v676h41v-981q0 -41 32 -41v-41q-22 0 -28 4q-20 7 -32.5 29t-12.5 49v188q-69 -133 -194.5 -211.5t-268.5 -78.5 q-169 0 -255.5 123t-86.5 364z" />
<glyph unicode="&#x216;" horiz-adv-x="1548" d="M664 1722h-39q0 63 45.5 110.5t105.5 47.5t106 -47.5t46 -110.5h-37q-6 51 -40 87t-75 36q-43 0 -77.5 -38.5t-34.5 -84.5zM776 -10q-134 0 -238.5 42t-170.5 111.5t-109.5 167t-60.5 199.5t-17 217v727h41v-727q0 -111 16 -207.5t55.5 -188t100.5 -156.5t158.5 -104.5 t222.5 -39.5q127 0 225.5 40.5t159.5 106t100.5 158t54.5 188t15 203.5v727h41v-727q0 -120 -18.5 -225t-62.5 -200.5t-111 -163.5t-169.5 -108t-232.5 -40z" />
<glyph unicode="&#x217;" d="M465 1337h-39q0 63 46 110.5t106 47.5t105.5 -47.5t45.5 -110.5h-37q-6 51 -39.5 87t-74.5 36q-43 0 -78 -38.5t-35 -84.5zM160 467v596h41v-596q0 -226 74.5 -336.5t226.5 -110.5q154 0 285 103.5t178 263.5v676h41v-981q0 -41 32 -41v-41q-22 0 -28 4q-20 7 -32.5 29 t-12.5 49v188q-69 -133 -194.5 -211.5t-268.5 -78.5q-169 0 -255.5 123t-86.5 364z" />
<glyph unicode="&#x218;" horiz-adv-x="1232" d="M1042 1262q-83 92 -175 127.5t-226 35.5q-241 0 -356 -91.5t-115 -256.5q0 -45 9 -81t25 -64t45 -51.5t62.5 -41t85 -34t104.5 -29.5t128 -28q109 -22 181 -41.5t143.5 -51t112.5 -70t66 -96.5t25 -133q0 -175 -136 -270.5t-376 -95.5q-174 0 -311 54.5t-254 170.5l31 27 q109 -113 239 -165t297 -52q221 0 345 82.5t124 242.5q0 81 -27.5 138t-90.5 98.5t-148.5 69t-218.5 53.5q-108 20 -177.5 38t-137 46.5t-105 64.5t-60 90t-22.5 125q0 186 136.5 288.5t371.5 102.5q140 0 243.5 -41t188.5 -133zM602 -342l21 119h-19v121h53v-121l-26 -119 h-29z" />
<glyph unicode="&#x219;" horiz-adv-x="964" d="M481 -20q-249 0 -405 172l30 26q83 -81 173 -119.5t202 -38.5q159 0 257 69.5t98 189.5q0 38 -10 67.5t-34.5 53t-51 40t-75 32.5t-89.5 27t-111 27q-45 11 -69 17t-59 16.5t-53.5 18t-43.5 19.5t-37 23.5t-27 28t-21.5 35.5t-11 42.5t-4.5 51.5q0 77 30 136t82.5 94 t119 53t143.5 18q125 0 217.5 -42.5t128.5 -110.5l-37 -17q-37 61 -124.5 95t-192.5 34q-92 0 -163.5 -25.5t-117 -84t-45.5 -144.5q0 -35 6.5 -61.5t24.5 -47t37 -34.5t57 -27.5t70.5 -23t91.5 -23.5q68 -16 104 -25t87.5 -24.5t78 -28.5t58 -34t46.5 -44.5t25.5 -55 t10.5 -70.5q0 -139 -108.5 -222t-287.5 -83zM446 -342l21 119h-18v121h53v-121l-27 -119h-29z" />
<glyph unicode="&#x21a;" horiz-adv-x="1228" d="M1192 1413h-557v-1413h-41v1413h-557v41h1155v-41zM580 -342l20 119h-18v121h53v-121l-27 -119h-28z" />
<glyph unicode="&#x21b;" horiz-adv-x="604" d="M586 49q-5 -5 -25.5 -17t-70 -27t-99.5 -15q-76 0 -130 46t-54 118v868h-154v41h154v371h41v-371h256v-41h-256v-868q4 -58 45 -90.5t98 -32.5q42 0 84.5 12.5t63 23.5t24.5 15zM354 -342l21 119h-19v121h54v-121l-27 -119h-29z" />
<glyph unicode="&#x22a;" horiz-adv-x="1550" d="M489 2202v41h574v-41h-574zM637 1722v158h41v-158h-41zM874 1722v158h41v-158h-41zM98 727q0 192 88.5 361t245.5 272.5t344 103.5q145 0 274 -64.5t215.5 -168.5t136.5 -236t50 -268q0 -194 -88.5 -363t-245 -271.5t-342.5 -102.5q-146 1 -274.5 64t-215.5 165.5 t-137.5 235.5t-50.5 272zM776 31q110 0 211 39.5t177 107.5t132.5 156t85.5 189.5t29 203.5q0 180 -82.5 339.5t-230 258t-322.5 98.5q-138 0 -259 -60.5t-202.5 -158.5t-128.5 -223t-47 -254q0 -135 48.5 -261.5t131.5 -222.5t202.5 -154t254.5 -58z" />
<glyph unicode="&#x22b;" horiz-adv-x="1200" d="M313 1817v41h574v-41h-574zM461 1337v158h41v-158h-41zM698 1337v158h41v-158h-41zM94 528q0 147 69 274t185.5 202t251.5 75t251.5 -75t185.5 -202t69 -274q0 -109 -40 -210.5t-108 -175.5t-161.5 -118t-196.5 -44q-138 0 -254.5 74.5t-184 201t-67.5 272.5zM598 20 q125 0 232.5 69.5t171 187t63.5 253.5q0 135 -63 252t-170.5 186.5t-231.5 69.5t-231.5 -70t-170.5 -188.5t-63 -255.5q0 -135 62.5 -251t169 -184.5t231.5 -68.5z" />
<glyph unicode="&#x22c;" horiz-adv-x="1550" d="M489 2222v41h574v-41h-574zM637 1821q-30 0 -53 -13.5t-33 -32t-14.5 -32.5t-4.5 -21h-40q0 7 2.5 19.5t11.5 34t24 39.5t44 31.5t67 13.5q53 0 128.5 -39t127.5 -39q32 0 56 9.5t35.5 22.5t19 28.5t9 24t1.5 13.5h41q0 -8 -2.5 -21t-13 -34.5t-27 -38.5t-49 -30 t-74.5 -13q-51 0 -97.5 19.5t-85.5 39t-73 19.5zM98 727q0 192 88.5 361t245.5 272.5t344 103.5q145 0 274 -64.5t215.5 -168.5t136.5 -236t50 -268q0 -194 -88.5 -363t-245 -271.5t-342.5 -102.5q-146 1 -274.5 64t-215.5 165.5t-137.5 235.5t-50.5 272zM776 31 q110 0 211 39.5t177 107.5t132.5 156t85.5 189.5t29 203.5q0 180 -82.5 339.5t-230 258t-322.5 98.5q-138 0 -259 -60.5t-202.5 -158.5t-128.5 -223t-47 -254q0 -135 48.5 -261.5t131.5 -222.5t202.5 -154t254.5 -58z" />
<glyph unicode="&#x22d;" horiz-adv-x="1200" d="M313 1837v41h574v-41h-574zM461 1436q-30 0 -53 -13.5t-33 -32t-14.5 -32.5t-4.5 -21h-41q0 7 2.5 19.5t12 34t24.5 39.5t44 31.5t67 13.5q53 0 128.5 -39t127.5 -39q32 0 56 9.5t35.5 22.5t19 28.5t9 24t1.5 13.5h41q0 -8 -2.5 -21t-13 -34.5t-27 -38.5t-49 -30 t-74.5 -13q-51 0 -97.5 19.5t-85.5 39t-73 19.5zM94 528q0 147 69 274t185.5 202t251.5 75t251.5 -75t185.5 -202t69 -274q0 -109 -40 -210.5t-108 -175.5t-161.5 -118t-196.5 -44q-138 0 -254.5 74.5t-184 201t-67.5 272.5zM598 20q125 0 232.5 69.5t171 187t63.5 253.5 q0 135 -63 252t-170.5 186.5t-231.5 69.5t-231.5 -70t-170.5 -188.5t-63 -255.5q0 -135 62.5 -251t169 -184.5t231.5 -68.5z" />
<glyph unicode="&#x230;" horiz-adv-x="1550" d="M489 2222v41h574v-41h-574zM756 1722v158h41v-158h-41zM98 727q0 192 88.5 361t245.5 272.5t344 103.5q145 0 274 -64.5t215.5 -168.5t136.5 -236t50 -268q0 -194 -88.5 -363t-245 -271.5t-342.5 -102.5q-146 1 -274.5 64t-215.5 165.5t-137.5 235.5t-50.5 272zM776 31 q110 0 211 39.5t177 107.5t132.5 156t85.5 189.5t29 203.5q0 180 -82.5 339.5t-230 258t-322.5 98.5q-138 0 -259 -60.5t-202.5 -158.5t-128.5 -223t-47 -254q0 -135 48.5 -261.5t131.5 -222.5t202.5 -154t254.5 -58z" />
<glyph unicode="&#x231;" horiz-adv-x="1200" d="M313 1837v41h574v-41h-574zM580 1337v158h41v-158h-41zM94 528q0 147 69 274t185.5 202t251.5 75t251.5 -75t185.5 -202t69 -274q0 -109 -40 -210.5t-108 -175.5t-161.5 -118t-196.5 -44q-138 0 -254.5 74.5t-184 201t-67.5 272.5zM598 20q125 0 232.5 69.5t171 187 t63.5 253.5q0 135 -63 252t-170.5 186.5t-231.5 69.5t-231.5 -70t-170.5 -188.5t-63 -255.5q0 -135 62.5 -251t169 -184.5t231.5 -68.5z" />
<glyph unicode="&#x232;" horiz-adv-x="1312" d="M369 1790v41h573v-41h-573zM94 1454l561 -844l564 844h47l-590 -891v-563h-41v567l-588 887h47z" />
<glyph unicode="&#x233;" horiz-adv-x="1097" d="M270 1405v41h574v-41h-574zM262 -416q80 0 96 21t179 395l-494 1063h45l469 -1012l444 1012h46l-633 -1444q-23 -53 -68 -65q-46 -11 -84 -11v41z" />
<glyph unicode="&#x237;" horiz-adv-x="385" d="M-264 -279l33 25q60 -53 170 -53q88 0 160.5 69t72.5 164v1137h41v-1137q0 -115 -85.5 -194.5t-186.5 -79.5q-136 0 -205 69z" />
<glyph unicode="&#x259;" d="M584 -20q-139 0 -256.5 73t-186 199t-69.5 276v23h972q-15 206 -151 346.5t-322 140.5q-123 0 -230 -62.5t-151 -160.5l-38 10q43 109 163 181.5t258 72.5t256 -75.5t187 -204.5t69 -279q0 -147 -66.5 -271.5t-182 -196.5t-252.5 -72zM582 20q189 0 320 139.5t142 350.5 h-929q13 -213 145.5 -351.5t321.5 -138.5z" />
<glyph unicode="&#x2b9;" horiz-adv-x="339" d="M150 1165v289h40l-18 -289h-22z" />
<glyph unicode="&#x2ba;" horiz-adv-x="679" d="M150 1165v289h40l-18 -289h-22zM489 1165v289h41l-18 -289h-23z" />
<glyph unicode="&#x2bb;" horiz-adv-x="245" d="M137 1495l-20 -119h18v-121h-53v121l27 119h28z" />
<glyph unicode="&#x2bc;" horiz-adv-x="405" d="M135 1321l-33 25l131 149h70z" />
<glyph unicode="&#x2be;" horiz-adv-x="333" d="M90 1241v43q42 0 76.5 32t34.5 79q0 49 -32.5 79.5t-78.5 30.5v43q65 0 109.5 -44.5t44.5 -108.5q0 -65 -45 -109.5t-109 -44.5z" />
<glyph unicode="&#x2bf;" horiz-adv-x="333" d="M244 1241q-64 0 -109 44.5t-45 109.5q0 64 44.5 108.5t109.5 44.5v-43q-46 0 -78.5 -30.5t-32.5 -79.5q0 -46 32.5 -78.5t78.5 -32.5v-43z" />
<glyph unicode="&#x2c6;" horiz-adv-x="618" d="M102 1343l191 152h33l190 -152l-33 -24l-174 129l-174 -129z" />
<glyph unicode="&#x2c7;" horiz-adv-x="618" d="M135 1495l174 -129l174 129l33 -25l-190 -151h-33l-191 151z" />
<glyph unicode="&#x2c8;" horiz-adv-x="438" d="M240 1587v-850h-41v850h41z" />
<glyph unicode="&#x2c9;" horiz-adv-x="778" d="M102 1405v41h574v-41h-574z" />
<glyph unicode="&#x2ca;" horiz-adv-x="339" d="M150 1165v289h40l-18 -289h-22z" />
<glyph unicode="&#x2cb;" horiz-adv-x="339" d="M168 1165l-18 289h40v-289h-22z" />
<glyph unicode="&#x2cc;" horiz-adv-x="438" d="M240 584v-850h-41v850h41z" />
<glyph unicode="&#x2d8;" horiz-adv-x="507" d="M369 1495h37q0 -63 -46 -110.5t-106 -47.5t-106 47.5t-46 110.5h39q0 -46 35 -84.5t78 -38.5q41 0 75 36t40 87z" />
<glyph unicode="&#x2d9;" horiz-adv-x="245" d="M102 1337v158h41v-158h-41z" />
<glyph unicode="&#x2da;" horiz-adv-x="487" d="M244 1548q64 0 108.5 -44t44.5 -109t-44.5 -109.5t-108.5 -44.5t-109 44.5t-45 109.5q0 64 44.5 108.5t109.5 44.5zM133 1395q0 -46 32.5 -78.5t78.5 -32.5q42 0 76 32t34 79q0 49 -32 79.5t-78 30.5t-78.5 -30.5t-32.5 -79.5z" />
<glyph unicode="&#x2db;" horiz-adv-x="415" d="M106 -205q0 54 41.5 108.5t126.5 121.5h11l20 -25q-83 -65 -119 -110.5t-36 -88.5q0 -38 32 -60.5t115 -41.5l-25 -35q-89 17 -127.5 48.5t-38.5 82.5z" />
<glyph unicode="&#x2dc;" horiz-adv-x="784" d="M254 1436q-30 0 -52.5 -13.5t-32.5 -32t-14.5 -32.5t-4.5 -21h-41q0 7 2.5 19.5t11.5 34t24 39.5t44 31.5t67 13.5q53 0 128.5 -39t127.5 -39q32 0 56 9.5t35.5 22.5t19 28.5t9 24t1.5 13.5h41q0 -8 -2.5 -21t-13 -34.5t-27 -38.5t-49 -30t-74.5 -13q-51 0 -97.5 19.5 t-85.5 39t-73 19.5z" />
<glyph unicode="&#x2dd;" horiz-adv-x="610" d="M135 1321l-33 25l131 149h70zM340 1321l-33 25l131 149h70z" />
<glyph unicode="&#x300;" horiz-adv-x="0" d="M-303 1495h67l134 -149l-33 -25z" />
<glyph unicode="&#x301;" horiz-adv-x="0" d="M-270 1321l-33 25l131 149h70z" />
<glyph unicode="&#x302;" horiz-adv-x="0" d="M-516 1343l190 152h33l191 -152l-33 -24l-174 129l-174 -129z" />
<glyph unicode="&#x303;" horiz-adv-x="0" d="M-627 1436q-30 0 -52.5 -13.5t-32.5 -32t-14.5 -32.5t-4.5 -21h-41q0 7 2.5 19.5t11.5 34t24 39.5t44 31.5t67 13.5q53 0 128.5 -39t127.5 -39q32 0 56 9.5t35.5 22.5t19 28.5t9 24t1.5 13.5h41q0 -8 -2.5 -21t-13 -34.5t-27 -38.5t-49 -30t-74.5 -13q-51 0 -97.5 19.5 t-85.5 39t-73 19.5z" />
<glyph unicode="&#x304;" horiz-adv-x="0" d="M-676 1405v41h574v-41h-574z" />
<glyph unicode="&#x306;" horiz-adv-x="0" d="M-139 1495h37q0 -63 -46 -110.5t-106 -47.5t-106 47.5t-46 110.5h39q0 -46 35 -84.5t78 -38.5q41 0 75 36t40 87z" />
<glyph unicode="&#x307;" horiz-adv-x="0" d="M-143 1337v158h41v-158h-41z" />
<glyph unicode="&#x308;" horiz-adv-x="0" d="M-381 1337v158h41v-158h-41zM-143 1337v158h41v-158h-41z" />
<glyph unicode="&#x309;" horiz-adv-x="0" d="M-717 1397l-24 26q37 33 63.5 47.5t63.5 14.5q51 0 83.5 -31.5t32.5 -85.5q0 -11 -1.5 -21t-6.5 -20.5t-9 -17.5t-13.5 -19t-14.5 -17.5t-18 -20.5t-19 -21l-24 22q37 42 53 67t16 48q0 35 -20.5 57.5t-62.5 22.5q-26 0 -45.5 -11t-53.5 -40z" />
<glyph unicode="&#x30a;" horiz-adv-x="0" d="M-244 1548q65 0 109.5 -44.5t44.5 -108.5q0 -65 -45 -109.5t-109 -44.5t-108.5 44.5t-44.5 109.5t44.5 109t108.5 44zM-354 1395q0 -46 32 -78.5t78 -32.5q42 0 76.5 32t34.5 79q0 49 -32.5 79.5t-78.5 30.5t-78 -30.5t-32 -79.5z" />
<glyph unicode="&#x30b;" horiz-adv-x="0" d="M-475 1321l-33 25l131 149h70zM-270 1321l-33 25l131 149h70z" />
<glyph unicode="&#x30c;" horiz-adv-x="0" d="M-483 1495l174 -129l174 129l33 -25l-191 -151h-33l-190 151z" />
<glyph unicode="&#x30f;" horiz-adv-x="0" d="M-508 1495h70l131 -149l-33 -25zM-303 1495h70l131 -149l-33 -25z" />
<glyph unicode="&#x311;" horiz-adv-x="0" d="M-367 1337h-39q0 63 46 110.5t106 47.5t106 -47.5t46 -110.5h-37q-6 51 -40 87t-75 36q-43 0 -78 -38.5t-35 -84.5z" />
<glyph unicode="&#x312;" horiz-adv-x="0" d="M-109 1495l-20 -119h18v-121h-53v121l27 119h28z" />
<glyph unicode="&#x31b;" horiz-adv-x="0" d="M-346 1100v41q55 0 100.5 12.5t65.5 34.5q30 38 33 125h45q-4 -47 -6.5 -66t-11.5 -42t-27 -44q-24 -27 -80 -44t-119 -17z" />
<glyph unicode="&#x323;" horiz-adv-x="0" d="M-143 -260v158h41v-158h-41z" />
<glyph unicode="&#x324;" horiz-adv-x="0" d="M-381 -260v158h41v-158h-41zM-143 -260v158h41v-158h-41z" />
<glyph unicode="&#x326;" horiz-adv-x="0" d="M-137 -342l20 119h-18v121h53v-121l-27 -119h-28z" />
<glyph unicode="&#x327;" horiz-adv-x="0" d="M-303 -336q-123 0 -225 51l22 35q58 -25 100.5 -37t96.5 -12q164 0 164 115q0 57 -38 98.5t-120 85.5l41 16q80 -45 119 -90.5t39 -109.5q0 -76 -54 -114t-145 -38z" />
<glyph unicode="&#x328;" horiz-adv-x="0" d="M-309 -205q0 54 41.5 108.5t126.5 121.5h10l20 -25q-83 -65 -119 -110.5t-36 -88.5q0 -38 32 -60.5t115 -41.5l-24 -35q-89 17 -127.5 48.5t-38.5 82.5z" />
<glyph unicode="&#x32e;" horiz-adv-x="0" d="M-139 -86h37q0 -63 -46 -110.5t-106 -47.5t-106 47.5t-46 110.5h39q0 -46 35 -84.5t78 -38.5q41 0 75 36t40 87z" />
<glyph unicode="&#x331;" horiz-adv-x="0" d="M-676 -195v41h574v-41h-574z" />
<glyph unicode="&#x335;" horiz-adv-x="0" d="M-532 612v41h430v-41h-430z" />
<glyph unicode="&#x3c0;" horiz-adv-x="1107" d="M256 1022v-1022h-41v1022h-164v41h975v-41h-225v-864q0 -60 36.5 -94.5t98.5 -34.5q50 0 113 18l14 -33q-74 -24 -141 -24q-72 0 -117 46.5t-45 121.5v864h-504z" />
<glyph unicode="&#x400;" horiz-adv-x="1263" d="M565 1880h68l133 -149l-33 -25zM1157 41v-41h-954v1454h936v-41h-895v-649h784v-41h-784v-682h913z" />
<glyph unicode="&#x401;" horiz-adv-x="1263" d="M565 1722v158h41v-158h-41zM803 1722v158h41v-158h-41zM1157 41v-41h-954v1454h936v-41h-895v-649h784v-41h-784v-682h913z" />
<glyph unicode="&#x402;" horiz-adv-x="1449" d="M920 -12q-65 0 -136 12v39q71 -12 134 -12q180 0 274 99.5t94 295.5q0 203 -114.5 312.5t-294.5 109.5q-199 0 -406 -127v-717h-41v1413h-393v41h1003v-41h-569v-653q207 125 408 125q197 0 322.5 -122.5t125.5 -340.5q0 -220 -107.5 -327t-299.5 -107z" />
<glyph unicode="&#x403;" horiz-adv-x="1019" d="M645 1712l-33 25l131 149h70zM203 0v1454h776v-41h-735v-1413h-41z" />
<glyph unicode="&#x404;" horiz-adv-x="1439" d="M772 -12q-129 0 -252 57.5t-216 155t-149.5 238.5t-56.5 298q0 105 28.5 209t87 197t139 164t191.5 113t238 42q187 0 324.5 -86.5t206.5 -230.5l-39 -12q-41 78 -97.5 134.5t-122.5 89.5t-135 48.5t-145 15.5q-117 0 -221 -40.5t-178 -107.5t-128.5 -152.5t-81.5 -177 t-28 -179.5h789v-41h-789q1 -136 52.5 -263.5t136.5 -222t204.5 -151.5t249.5 -57q100 0 198.5 32.5t188.5 104t142 170.5l39 -10q-72 -157 -236.5 -247.5t-339.5 -90.5z" />
<glyph unicode="&#x405;" horiz-adv-x="1232" d="M1042 1262q-83 92 -175 127.5t-226 35.5q-241 0 -356 -91.5t-115 -256.5q0 -45 9 -81t25 -64t45 -51.5t62.5 -41t85 -34t104.5 -29.5t128 -28q109 -22 181 -41.5t143.5 -51t112.5 -70t66 -96.5t25 -133q0 -175 -136 -270.5t-376 -95.5q-174 0 -311 54.5t-254 170.5l31 27 q109 -113 239 -165t297 -52q221 0 345 82.5t124 242.5q0 81 -27.5 138t-90.5 98.5t-148.5 69t-218.5 53.5q-108 20 -177.5 38t-137 46.5t-105 64.5t-60 90t-22.5 125q0 186 136.5 288.5t371.5 102.5q140 0 243.5 -41t188.5 -133z" />
<glyph unicode="&#x406;" horiz-adv-x="446" d="M203 0v1454h41v-1454h-41z" />
<glyph unicode="&#x407;" horiz-adv-x="446" d="M84 1722v158h41v-158h-41zM322 1722v158h40v-158h-40zM203 0v1454h41v-1454h-41z" />
<glyph unicode="&#x408;" horiz-adv-x="968" d="M61 100q121 -82 293 -82q74 0 131 16.5t98 45t70 77t46.5 101.5t27.5 130t13 151t3 176v739h41v-739q0 -104 -3.5 -181t-14.5 -158t-30.5 -138t-51.5 -109t-77 -83.5t-108.5 -50t-144.5 -18.5q-182 0 -315 91z" />
<glyph unicode="&#x409;" horiz-adv-x="2043" d="M92 0v41q114 0 185.5 102t110 343.5t38.5 637.5v330h737v-598h318q224 0 337 -116.5t113 -311.5q0 -86 -27.5 -162t-81 -136t-140 -95t-195.5 -35h-365v1413h-655v-383q0 -185 -11.5 -335.5t-30.5 -256t-48 -185t-60 -127t-70.5 -76.5t-75.5 -39.5t-79 -10.5zM1163 41 h324q105 0 185 32.5t126.5 88.5t69 123t22.5 143q0 81 -19.5 146.5t-63.5 121.5t-127 87.5t-199 31.5h-318v-774z" />
<glyph unicode="&#x40a;" horiz-adv-x="2031" d="M203 0v1454h41v-659h866v659h41v-659h317q224 0 337.5 -105.5t113.5 -281.5q0 -82 -27.5 -154.5t-81 -130t-140 -90.5t-195.5 -33h-365v754h-866v-754h-41zM1151 41h324q105 0 185 31t126.5 84t69 116.5t22.5 135.5q0 56 -11.5 104.5t-40.5 94t-74.5 77.5t-117.5 51 t-166 19h-317v-713z" />
<glyph unicode="&#x40b;" horiz-adv-x="1452" d="M430 0v1413h-393v41h1003v-41h-569v-629q199 88 416 88q225 0 328.5 -99.5t103.5 -317.5v-455h-41v451q0 201 -92.5 290.5t-298.5 89.5q-114 0 -231.5 -27t-184.5 -67v-737h-41z" />
<glyph unicode="&#x40c;" horiz-adv-x="1216" d="M625 1712l-33 25l131 149h70zM203 0v1454h41v-690h284l547 690h51l-561 -706l590 -748h-53l-570 723h-288v-723h-41z" />
<glyph unicode="&#x40d;" horiz-adv-x="1529" d="M627 1886h67l133 -149l-32 -25zM203 0v1454h41v-1401l1044 1401h39v-1454h-41v1380l-1032 -1380h-51z" />
<glyph unicode="&#x40e;" horiz-adv-x="1232" d="M629 1663q-113 0 -167 35.5t-54 89.5h34q0 -38 45.5 -65t141.5 -27q94 0 133 23.5t53 68.5h33q0 -54 -54 -89.5t-165 -35.5zM373 0v41h92q32 0 51 23.5t51 89.5l86 178l-653 1122h47l627 -1077l514 1077h45l-631 -1323q-37 -76 -62 -103.5t-73 -27.5h-94z" />
<glyph unicode="&#x40f;" horiz-adv-x="1406" d="M682 -279v279h-479v1454h41v-1413h919v1413h41v-1454h-481v-279h-41z" />
<glyph unicode="&#x410;" horiz-adv-x="1380" d="M672 1454h37l632 -1454h-45l-227 520h-760l-227 -520h-45zM1051 561l-361 834l-364 -834h725z" />
<glyph unicode="&#x411;" horiz-adv-x="1312" d="M203 0v1454h919v-41h-878v-618h544q224 0 337.5 -105.5t113.5 -281.5q0 -82 -27.5 -154.5t-81 -130t-140 -90.5t-195.5 -33h-592zM244 41h551q105 0 185 31t126.5 84t69 116.5t22.5 135.5q0 56 -11.5 104.5t-40.5 94t-74.5 77.5t-117.5 51t-166 19h-544v-713z" />
<glyph unicode="&#x412;" horiz-adv-x="1341" d="M877 0h-674v1454h643q98 0 176 -55.5t117 -139t39 -176.5q0 -110 -57 -202.5t-152 -135.5q123 -36 196.5 -138.5t73.5 -229.5q0 -152 -107 -264.5t-255 -112.5zM244 1413v-659h590q86 0 156.5 48.5t108.5 123.5t38 157q0 134 -82.5 232t-208.5 98h-602zM891 713h-647 v-672h633q87 0 162 49t117 126t42 161q0 134 -89 235t-218 101z" />
<glyph unicode="&#x413;" horiz-adv-x="1019" d="M203 0v1454h776v-41h-735v-1413h-41z" />
<glyph unicode="&#x414;" horiz-adv-x="1495" d="M92 -279v320h49q85 1 138 88t87.5 313.5t45.5 620.5l10 391h797v-1413h163v-320h-41v279h-1208v-279h-41zM250 41h928v1372h-717l-8 -350q-12 -478 -61 -717t-142 -305z" />
<glyph unicode="&#x415;" horiz-adv-x="1263" d="M1157 41v-41h-954v1454h936v-41h-895v-649h784v-41h-784v-682h913z" />
<glyph unicode="&#x416;" horiz-adv-x="1884" d="M61 0l570 748l-541 706h51l529 -690h252v690h41v-690h251l529 690h51l-541 -706l570 -748h-54l-550 723h-256v-723h-41v723h-256l-553 -723h-52z" />
<glyph unicode="&#x417;" horiz-adv-x="1021" d="M483 -20q-127 0 -230.5 58.5t-160.5 162.5l37 20q53 -96 145 -148.5t209 -52.5q178 0 287 98.5t109 262.5q0 157 -99.5 257.5t-261.5 100.5h-115v41h117q123 0 209 95.5t86 230.5q0 141 -94.5 234.5t-235.5 93.5q-101 0 -181 -50t-126 -141l-37 17q51 102 141.5 158.5 t202.5 56.5q158 0 264.5 -105.5t106.5 -263.5q0 -116 -59.5 -209t-155.5 -133q128 -35 203.5 -139t75.5 -244q0 -181 -121 -291t-316 -110z" />
<glyph unicode="&#x418;" horiz-adv-x="1529" d="M203 0v1454h41v-1401l1044 1401h39v-1454h-41v1380l-1032 -1380h-51z" />
<glyph unicode="&#x419;" horiz-adv-x="1529" d="M766 1663q-113 0 -167 35.5t-54 89.5h35q0 -38 45 -65t141 -27q94 0 133 23.5t53 68.5h33q0 -54 -54 -89.5t-165 -35.5zM203 0v1454h41v-1401l1044 1401h39v-1454h-41v1380l-1032 -1380h-51z" />
<glyph unicode="&#x41a;" horiz-adv-x="1216" d="M203 0v1454h41v-690h284l547 690h51l-561 -706l590 -748h-53l-570 723h-288v-723h-41z" />
<glyph unicode="&#x41b;" horiz-adv-x="1474" d="M1231 0v1413h-717l-8 -350q-7 -246 -28 -427t-54.5 -302.5t-83 -195.5t-109.5 -105t-139 -31v41q87 0 149.5 47.5t111.5 161.5t76 314.5t36 496.5l10 391h797v-1454h-41z" />
<glyph unicode="&#x41c;" horiz-adv-x="1810" d="M1567 0v1364l-645 -1077h-33l-645 1077v-1364h-41v1454h33l669 -1118l670 1118h33v-1454h-41z" />
<glyph unicode="&#x41d;" horiz-adv-x="1497" d="M1294 1454v-1454h-41v723h-1009v-723h-41v1454h41v-690h1009v690h41z" />
<glyph unicode="&#x41e;" horiz-adv-x="1550" d="M98 727q0 192 88.5 361t245.5 272.5t344 103.5q145 0 274 -64.5t215.5 -168.5t136.5 -236t50 -268q0 -194 -88.5 -363t-245 -271.5t-342.5 -102.5q-146 1 -274.5 64t-215.5 165.5t-137.5 235.5t-50.5 272zM776 31q110 0 211 39.5t177 107.5t132.5 156t85.5 189.5 t29 203.5q0 180 -82.5 339.5t-230 258t-322.5 98.5q-138 0 -259 -60.5t-202.5 -158.5t-128.5 -223t-47 -254q0 -135 48.5 -261.5t131.5 -222.5t202.5 -154t254.5 -58z" />
<glyph unicode="&#x41f;" horiz-adv-x="1441" d="M203 0v1454h1036v-1454h-41v1413h-954v-1413h-41z" />
<glyph unicode="&#x420;" horiz-adv-x="1267" d="M203 0v1454h592q115 0 210.5 -65t147 -165.5t51.5 -209.5q0 -114 -48.5 -215t-140.5 -164.5t-206 -63.5h-565v-571h-41zM244 612h565q106 0 188.5 60t124 150.5t41.5 191.5q0 158 -108.5 278.5t-259.5 120.5h-551v-801z" />
<glyph unicode="&#x421;" horiz-adv-x="1427" d="M784 1462q187 0 324.5 -86.5t206.5 -230.5l-39 -12q-41 77 -99 134.5t-124.5 90t-135 48t-141.5 15.5q-147 0 -270 -60.5t-201.5 -159t-122 -220.5t-43.5 -250q0 -137 50.5 -266t136 -224.5t205.5 -153.5t251 -58q156 0 302.5 78t226.5 229l39 -10 q-72 -157 -236.5 -247.5t-339.5 -90.5q-115 0 -221.5 42t-187.5 115.5t-142 168t-93 204t-32 219.5q0 105 29 209t87.5 197t139 164t192 113t238.5 42z" />
<glyph unicode="&#x422;" horiz-adv-x="1228" d="M1192 1413h-557v-1413h-41v1413h-557v41h1155v-41z" />
<glyph unicode="&#x423;" horiz-adv-x="1232" d="M373 0v41h92q32 0 51 23.5t51 89.5l86 178l-653 1122h47l627 -1077l514 1077h45l-631 -1323q-37 -76 -62 -103.5t-73 -27.5h-94z" />
<glyph unicode="&#x424;" horiz-adv-x="1630" d="M795 0v137q-145 3 -273 51t-222 130t-148.5 200t-53.5 254q1 115 37.5 215.5t101 176t151.5 130.5t191 84t216 31v107h41v-107q143 -3 271 -51t221.5 -130t148.5 -200.5t55 -255.5q0 -142 -57.5 -261.5t-154 -199.5t-221.5 -125.5t-263 -48.5v-137h-41zM795 178v1190 q-181 -4 -329.5 -77t-237.5 -209t-89 -310q0 -133 54 -245t145 -186.5t209 -117t248 -45.5zM836 178q181 4 329.5 78t237 209.5t88.5 306.5q0 133 -53.5 245.5t-144.5 187t-209 117.5t-248 46v-1190z" />
<glyph unicode="&#x425;" horiz-adv-x="1271" d="M76 1454l561 -704l561 704h51l-587 -737l571 -717h-51l-545 684l-545 -684h-53l571 717l-587 737h53z" />
<glyph unicode="&#x426;" horiz-adv-x="1480" d="M1327 -276v276h-1124v1454h41v-1413h919v1413h41v-1413h164v-317h-41z" />
<glyph unicode="&#x427;" horiz-adv-x="1296" d="M1053 0v670q-205 -88 -432 -88q-239 0 -348 99.5t-109 317.5v455h41v-450q0 -201 96.5 -291t314.5 -90q132 0 248.5 26t188.5 68v737h41v-1454h-41z" />
<glyph unicode="&#x428;" horiz-adv-x="1839" d="M203 0v1454h41v-1413h655v1413h41v-1413h655v1413h41v-1454h-1433z" />
<glyph unicode="&#x429;" horiz-adv-x="1912" d="M1759 -276v276h-1556v1454h41v-1413h655v1413h41v-1413h655v1413h41v-1413h164v-317h-41z" />
<glyph unicode="&#x42a;" horiz-adv-x="1486" d="M463 0v1413h-432v41h473v-598h420q224 0 337 -116.5t113 -311.5q0 -86 -27.5 -162t-81 -136t-140 -95t-195.5 -35h-467zM504 41h426q105 0 185 32.5t126.5 88.5t69 123t22.5 143q0 81 -19.5 146.5t-63.5 121.5t-127 87.5t-199 31.5h-420v-774z" />
<glyph unicode="&#x42b;" horiz-adv-x="1636" d="M203 0v1454h41v-598h420q224 0 337 -116.5t113 -311.5q0 -86 -27.5 -162t-81 -136t-140 -95t-195.5 -35h-467zM1393 0v1452h41v-1452h-41zM244 41h426q105 0 185 32.5t126.5 88.5t69 123t22.5 143q0 81 -19.5 146.5t-63.5 121.5t-127 87.5t-199 31.5h-420v-774z" />
<glyph unicode="&#x42c;" horiz-adv-x="1226" d="M203 0v1454h41v-598h420q224 0 337 -116.5t113 -311.5q0 -86 -27.5 -162t-81 -136t-140 -95t-195.5 -35h-467zM244 41h426q105 0 185 32.5t126.5 88.5t69 123t22.5 143q0 81 -19.5 146.5t-63.5 121.5t-127 87.5t-199 31.5h-420v-774z" />
<glyph unicode="&#x42d;" horiz-adv-x="1462" d="M688 -12q-175 0 -339 90.5t-236 247.5l39 10q80 -151 226 -229t302 -78q173 0 321 96t234 256t88 342h-788v41h786q-5 124 -51 240.5t-124.5 210t-198.5 150t-261 56.5q-73 0 -141.5 -15.5t-135 -48t-124.5 -90t-99 -134.5l-39 12q69 144 206.5 230.5t324.5 86.5 q127 0 238.5 -42t192 -113t139 -164t87.5 -197t29 -209q0 -110 -32 -219.5t-93 -204t-142 -168t-187.5 -115.5t-221.5 -42z" />
<glyph unicode="&#x42e;" horiz-adv-x="1961" d="M1208 -10q-183 1 -327 91.5t-225 253t-85 372.5h-327v-707h-41v1454h41v-706h327q3 160 53.5 295t136 227t201 143t246.5 51q191 0 341.5 -95.5t232.5 -263.5t82 -378q0 -166 -50.5 -305.5t-139 -233.5t-208.5 -146t-258 -52zM1208 31q181 0 321.5 89.5t217 248 t76.5 358.5q0 156 -47.5 287t-129.5 220.5t-195 139t-243 49.5q-175 0 -311 -89t-210.5 -247.5t-74.5 -359.5q0 -314 167.5 -505t428.5 -191z" />
<glyph unicode="&#x42f;" horiz-adv-x="1228" d="M133 0l412 641q-168 27 -262.5 140.5t-94.5 273.5q0 82 32.5 154t92 126.5t149 86.5t197.5 32h367v-1454h-41v633h-340q-37 0 -55 2l-408 -635h-49zM645 674h340v739h-326q-194 0 -312 -100.5t-118 -257.5q0 -164 108 -272.5t308 -108.5z" />
<glyph unicode="&#x430;" horiz-adv-x="1073" d="M80 305q0 134 122.5 218.5t315.5 84.5q197 0 356 -59v121q0 166 -95.5 267t-252.5 101q-158 0 -344 -131l-24 33q204 139 368 139q178 0 283.5 -110.5t105.5 -298.5v-588q0 -41 33 -41v-41q-22 0 -28 4q-20 7 -33 29.5t-13 48.5v98q-73 -95 -192 -147.5t-258 -52.5 q-145 0 -244.5 94t-99.5 231zM844 209q30 44 30 84v211q-163 63 -356 63q-179 0 -288 -72t-109 -190q0 -120 87.5 -202.5t215.5 -82.5q136 0 250 51.5t170 137.5z" />
<glyph unicode="&#x431;" horiz-adv-x="1220" d="M631 -20q-242 0 -369 152t-127 415q0 160 21 282t57.5 206.5t97.5 148t128.5 104t162.5 76.5l440 170l17 -39l-416 -158q-155 -58 -247.5 -130.5t-146.5 -192.5t-67 -303q52 137 171 211.5t278 74.5q240 0 367.5 -138.5t127.5 -371.5q0 -238 -129 -372.5t-366 -134.5z M631 20q218 0 336 125.5t118 341.5q0 214 -117 341.5t-337 127.5q-130 0 -231 -52t-161.5 -160t-60.5 -257q0 -206 118 -336.5t335 -130.5z" />
<glyph unicode="&#x432;" horiz-adv-x="1048" d="M172 0v1063h485q109 0 178.5 -80.5t69.5 -183.5q0 -82 -42.5 -152t-112.5 -102q91 -26 145.5 -100.5t54.5 -168.5q0 -113 -81 -194.5t-193 -81.5h-504zM213 555h430q93 0 156 74.5t63 167.5t-59.5 160t-149.5 67h-440v-469zM213 39h463q96 0 164.5 73.5t68.5 166.5 q0 94 -65 165.5t-158 71.5h-473v-477z" />
<glyph unicode="&#x433;" horiz-adv-x="802" d="M172 0v1063h582v-39h-541v-1024h-41z" />
<glyph unicode="&#x434;" horiz-adv-x="1130" d="M51 -240v281h15q53 0 92.5 34.5t72.5 116.5t52.5 233t25.5 370l8 268h613v-1022h139v-281h-41v240h-936v-240h-41zM178 41h711v981h-533l-6 -227q-9 -339 -51.5 -517t-120.5 -237z" />
<glyph unicode="&#x435;" d="M606 -20q-138 0 -256 75.5t-187 204.5t-69 279q0 147 67 271.5t182.5 196.5t252.5 72q139 0 256.5 -73t186 -199.5t69.5 -276.5v-22h-973q10 -135 75.5 -247t170.5 -176.5t227 -64.5q123 0 230 63t151 161l39 -11q-43 -109 -163.5 -181t-258.5 -72zM135 549h930 q-13 213 -145.5 351t-321.5 138q-124 0 -227.5 -63t-166 -175t-69.5 -251z" />
<glyph unicode="&#x436;" horiz-adv-x="1533" d="M92 0l418 545l-369 518h52l354 -500h201v500h40v-500h201l352 500h52l-369 -518l418 -545h-51l-402 524h-201v-524h-40v524h-199l-406 -524h-51z" />
<glyph unicode="&#x437;" horiz-adv-x="890" d="M422 -10q-129 0 -227 54t-144 151l37 16q41 -86 128 -133t206 -47q149 0 239.5 71.5t90.5 192.5q0 108 -72 177.5t-191 70.5h-106v41h119q74 0 130 67t56 160q0 104 -69.5 164.5t-196.5 60.5q-205 0 -281 -168l-37 17q41 93 123 142.5t195 49.5q139 0 223 -72.5 t84 -193.5q0 -80 -37.5 -145.5t-97.5 -98.5q93 -29 146 -101.5t53 -170.5q0 -138 -102.5 -221.5t-268.5 -83.5z" />
<glyph unicode="&#x438;" horiz-adv-x="1189" d="M172 0v1061h41v-1004l768 1006h37v-1063h-41v989l-758 -989h-47z" />
<glyph unicode="&#x439;" horiz-adv-x="1189" d="M596 1272q-113 0 -167 35.5t-54 89.5h35q0 -38 45 -65t141 -27q94 0 133 23.5t53 68.5h33q0 -54 -54 -89.5t-165 -35.5zM172 0v1061h41v-1004l768 1006h37v-1063h-41v989l-758 -989h-47z" />
<glyph unicode="&#x43a;" horiz-adv-x="964" d="M172 0v1063h41v-500h158l407 500h53l-425 -518l487 -545h-55l-467 524h-158v-524h-41z" />
<glyph unicode="&#x43b;" horiz-adv-x="1122" d="M51 0v41q48 0 86 20.5t72.5 72.5t58.5 136t40.5 216.5t21.5 308.5l8 268h612v-1063h-41v1024h-532l-6 -229q-6 -228 -29.5 -384.5t-65.5 -245.5t-96.5 -127t-128.5 -38z" />
<glyph unicode="&#x43c;" horiz-adv-x="1392" d="M172 0v1063h37l487 -817l490 817h35v-1063h-41v977l-467 -787h-31l-469 785v-975h-41z" />
<glyph unicode="&#x43d;" horiz-adv-x="1163" d="M172 0v1063h41v-500h737v500h41v-1063h-41v524h-737v-524h-41z" />
<glyph unicode="&#x43e;" horiz-adv-x="1200" d="M94 528q0 147 69 274t185.5 202t251.5 75t251.5 -75t185.5 -202t69 -274q0 -109 -40 -210.5t-108 -175.5t-161.5 -118t-196.5 -44q-138 0 -254.5 74.5t-184 201t-67.5 272.5zM598 20q125 0 232.5 69.5t171 187t63.5 253.5q0 135 -63 252t-170.5 186.5t-231.5 69.5 t-231.5 -70t-170.5 -188.5t-63 -255.5q0 -135 62.5 -251t169 -184.5t231.5 -68.5z" />
<glyph unicode="&#x43f;" horiz-adv-x="1130" d="M172 0v1063h786v-1063h-40v1024h-705v-1024h-41z" />
<glyph unicode="&#x440;" horiz-adv-x="1234" d="M213 244v-680h-41v1499h41v-225q68 107 182 174t234 67q144 0 263.5 -81.5t184 -207t64.5 -262.5q0 -146 -60.5 -270.5t-175 -201t-258.5 -76.5q-133 0 -246 74t-188 190zM1100 528q0 132 -62.5 249t-171.5 189t-237 72q-82 0 -177 -45t-164.5 -122t-74.5 -158v-383 q59 -133 178 -221.5t256 -88.5q133 0 238.5 75t160 190t54.5 243z" />
<glyph unicode="&#x441;" horiz-adv-x="1101" d="M608 -20q-138 0 -256.5 75t-188 203.5t-69.5 278.5t67 274.5t185 196t260 71.5q134 0 240 -62.5t160 -174.5l-41 -15q-52 98 -150 154.5t-215 56.5q-195 0 -330 -145t-135 -356q0 -138 63.5 -257.5t171 -189.5t232.5 -70q124 0 238 68t139 156l41 -13q-35 -107 -154 -179 t-258 -72z" />
<glyph unicode="&#x442;" horiz-adv-x="948" d="M455 0v1024h-412v39h862v-39h-409v-1024h-41z" />
<glyph unicode="&#x443;" horiz-adv-x="1097" d="M262 -416q80 0 96 21t179 395l-494 1063h45l469 -1012l444 1012h46l-633 -1444q-23 -53 -68 -65q-46 -11 -84 -11v41z" />
<glyph unicode="&#x444;" horiz-adv-x="1355" d="M657 -436v436h-57q-147 0 -263.5 72t-179.5 192.5t-63 263.5q0 144 64 265t181 193.5t261 72.5h57v436h41v-436h58q144 0 261 -72.5t181 -193.5t64 -265q0 -143 -63 -263.5t-179.5 -192.5t-263.5 -72h-58v-436h-41zM600 41h57v977h-57q-133 0 -240 -67.5t-166 -180.5 t-59 -246q0 -202 131 -342.5t334 -140.5zM698 41h58q203 0 334 140.5t131 342.5q0 133 -59 246t-166 180.5t-240 67.5h-58v-977z" />
<glyph unicode="&#x445;" horiz-adv-x="987" d="M94 1063l383 -479l17 -25l16 25l383 479h53l-426 -535l422 -528h-53l-379 475l-16 25l-17 -25l-379 -475h-53l422 528l-426 535h53z" />
<glyph unicode="&#x446;" horiz-adv-x="1146" d="M1044 -240v240h-872v1063h41v-1024h690v1024h41v-1024h141v-279h-41z" />
<glyph unicode="&#x447;" horiz-adv-x="1003" d="M791 0v489q-137 -67 -310 -67q-182 0 -265 90t-83 283v268h41v-264q0 -178 71 -258t228 -80q89 0 178 21.5t140 52.5v528h40v-1063h-40z" />
<glyph unicode="&#x448;" horiz-adv-x="1544" d="M172 0v1063h41v-1024h539v1024h41v-1024h538v1024h41v-1063h-1200z" />
<glyph unicode="&#x449;" horiz-adv-x="1574" d="M1473 -240v240h-1301v1063h41v-1024h539v1024h41v-1024h538v1024h41v-1024h141v-279h-40z" />
<glyph unicode="&#x44a;" horiz-adv-x="1165" d="M399 0v1024h-358v39h399v-406h299q164 0 249 -87.5t85 -233.5q0 -144 -86.5 -240t-243.5 -96h-344zM440 39h303q99 0 166 43.5t95 108.5t28 145q0 59 -14.5 107t-46.5 88.5t-91 63.5t-141 23h-299v-579z" />
<glyph unicode="&#x44b;" horiz-adv-x="1277" d="M172 0v1063h41v-406h299q164 0 249 -87.5t85 -233.5q0 -144 -86.5 -240t-243.5 -96h-344zM1065 0v1061h41v-1061h-41zM213 39h303q99 0 166 43.5t95 108.5t28 145q0 59 -14.5 107t-46.5 88.5t-91 63.5t-141 23h-299v-579z" />
<glyph unicode="&#x44c;" horiz-adv-x="937" d="M172 0v1063h41v-406h299q164 0 249 -87.5t85 -233.5q0 -144 -86.5 -240t-243.5 -96h-344zM213 39h303q99 0 166 43.5t95 108.5t28 145q0 59 -14.5 107t-46.5 88.5t-91 63.5t-141 23h-299v-579z" />
<glyph unicode="&#x44d;" horiz-adv-x="1122" d="M522 -18q-133 0 -255 66.5t-175 182.5l37 15q39 -75 105 -127.5t137.5 -75.5t144.5 -23q127 0 235 70.5t170.5 186t65.5 247.5h-584v39h582q-5 90 -38 174t-90.5 151.5t-145 108.5t-191.5 41q-252 0 -366 -211l-37 15q53 109 154.5 173t242.5 64q118 0 217.5 -47.5 t163 -125t98.5 -173t35 -194.5q0 -102 -38 -202.5t-103 -179t-161 -127t-204 -48.5z" />
<glyph unicode="&#x44e;" horiz-adv-x="1517" d="M934 -20q-207 0 -338.5 148.5t-136.5 383.5h-246v-512h-41v1063h41v-512h246q6 238 140.5 383t334.5 145q143 0 255 -71.5t173 -197t61 -282.5q0 -247 -139 -397.5t-350 -150.5zM934 20q200 0 324 142.5t124 365.5q0 229 -127 369.5t-321 140.5q-193 0 -313.5 -142.5 t-120.5 -367.5q0 -229 121.5 -368.5t312.5 -139.5z" />
<glyph unicode="&#x44f;" horiz-adv-x="1011" d="M92 0l352 449q-123 6 -195.5 89t-72.5 224q0 126 90.5 213.5t239.5 87.5h334v-1063h-41v446h-305l-351 -446h-51zM471 485h328v539h-293q-129 0 -209 -74t-80 -188q0 -120 65.5 -198.5t188.5 -78.5z" />
<glyph unicode="&#x450;" d="M459 1495h67l133 -149l-32 -25zM606 -20q-138 0 -256 75.5t-187 204.5t-69 279q0 147 67 271.5t182.5 196.5t252.5 72q139 0 256.5 -73t186 -199.5t69.5 -276.5v-22h-973q10 -135 75.5 -247t170.5 -176.5t227 -64.5q123 0 230 63t151 161l39 -11q-43 -109 -163.5 -181 t-258.5 -72zM135 549h930q-13 213 -145.5 351t-321.5 138q-124 0 -227.5 -63t-166 -175t-69.5 -251z" />
<glyph unicode="&#x451;" d="M459 1337v158h41v-158h-41zM696 1337v158h41v-158h-41zM606 -20q-138 0 -256 75.5t-187 204.5t-69 279q0 147 67 271.5t182.5 196.5t252.5 72q139 0 256.5 -73t186 -199.5t69.5 -276.5v-22h-973q10 -135 75.5 -247t170.5 -176.5t227 -64.5q123 0 230 63t151 161l39 -11 q-43 -109 -163.5 -181t-258.5 -72zM135 549h930q-13 213 -145.5 351t-321.5 138q-124 0 -227.5 -63t-166 -175t-69.5 -251z" />
<glyph unicode="&#x452;" horiz-adv-x="1161" d="M653 -348q-135 0 -204 69l32 25q60 -53 170 -53q92 0 158.5 42.5t106 125t59 191t22.5 253.5q6 305 -76.5 447.5t-271.5 142.5q-151 0 -256.5 -77.5t-159.5 -215.5v-602h-40v1174h-152v40h152v281h40v-281h504v-40h-504v-478q143 240 418 240q205 0 296 -139.5t91 -429.5 q0 -141 -12 -250.5t-39.5 -198.5t-72 -146.5t-110 -88.5t-151.5 -31z" />
<glyph unicode="&#x453;" horiz-adv-x="802" d="M496 1321l-33 25l131 149h70zM172 0v1063h582v-39h-541v-1024h-41z" />
<glyph unicode="&#x454;" horiz-adv-x="1122" d="M606 -18q-88 0 -169 31.5t-142.5 86t-107 125t-69.5 151.5t-24 163q0 99 35 194.5t98.5 173t163 125t217.5 47.5q140 0 239.5 -63.5t158.5 -173.5l-37 -15q-119 211 -361 211q-105 0 -193.5 -41t-147.5 -108.5t-93 -151.5t-39 -174h584v-39h-584q3 -133 65 -248t170 -184 t236 -69q115 0 222 56.5t165 166.5l37 -15q-58 -118 -175.5 -183.5t-248.5 -65.5z" />
<glyph unicode="&#x455;" horiz-adv-x="964" d="M481 -20q-249 0 -405 172l30 26q83 -81 173 -119.5t202 -38.5q159 0 257 69.5t98 189.5q0 38 -10 67.5t-34.5 53t-51 40t-75 32.5t-89.5 27t-111 27q-45 11 -69 17t-59 16.5t-53.5 18t-43.5 19.5t-37 23.5t-27 28t-21.5 35.5t-11 42.5t-4.5 51.5q0 77 30 136t82.5 94 t119 53t143.5 18q125 0 217.5 -42.5t128.5 -110.5l-37 -17q-37 61 -124.5 95t-192.5 34q-92 0 -163.5 -25.5t-117 -84t-45.5 -144.5q0 -35 6.5 -61.5t24.5 -47t37 -34.5t57 -27.5t70.5 -23t91.5 -23.5q68 -16 104 -25t87.5 -24.5t78 -28.5t58 -34t46.5 -44.5t25.5 -55 t10.5 -70.5q0 -139 -108.5 -222t-287.5 -83z" />
<glyph unicode="&#x456;" horiz-adv-x="385" d="M172 1337v158h41v-158h-41zM172 0v1063h41v-1063h-41z" />
<glyph unicode="&#x457;" horiz-adv-x="385" d="M53 1337v158h41v-158h-41zM291 1337v158h41v-158h-41zM172 0v1063h41v-1063h-41z" />
<glyph unicode="&#x458;" horiz-adv-x="401" d="M188 1337v158h41v-158h-41zM-248 -279l33 25q60 -53 170 -53q88 0 160.5 69t72.5 164v1137h41v-1137q0 -115 -85.5 -194.5t-186.5 -79.5q-136 0 -205 69z" />
<glyph unicode="&#x459;" horiz-adv-x="1585" d="M51 0v41q48 0 86 20.5t72.5 72.5t58.5 136t40.5 216.5t21.5 308.5l8 268h571v-467h250q163 0 248.5 -79.5t85.5 -211.5q0 -131 -86.5 -218t-243.5 -87h-295v1024h-491l-6 -229q-5 -228 -28.5 -384.5t-66 -245.5t-97 -127t-128.5 -38zM909 39h254q145 0 217 77t72 189 q0 52 -14.5 95t-46.5 79.5t-91 57t-141 20.5h-250v-518z" />
<glyph unicode="&#x45a;" horiz-adv-x="1611" d="M172 0v1063h41v-467h633v467h41v-467h299q163 0 248.5 -79.5t85.5 -211.5q0 -131 -86.5 -218t-243.5 -87h-344v557h-633v-557h-41zM887 39h303q145 0 217 77t72 189q0 52 -14.5 95t-46.5 79.5t-91 57t-141 20.5h-299v-518z" />
<glyph unicode="&#x45b;" horiz-adv-x="1181" d="M193 0v1174h-152v40h152v281h40v-281h504v-40h-504v-480q135 242 426 242q188 0 273.5 -106t85.5 -320v-510h-41v510q0 197 -72.5 291t-242.5 94q-157 0 -266.5 -75.5t-162.5 -217.5v-602h-40z" />
<glyph unicode="&#x45c;" horiz-adv-x="964" d="M467 1321l-33 25l131 149h70zM172 0v1063h41v-500h158l407 500h53l-425 -518l487 -545h-55l-467 524h-158v-524h-41z" />
<glyph unicode="&#x45d;" horiz-adv-x="1189" d="M457 1495h67l133 -149l-32 -25zM172 0v1061h41v-1004l768 1006h37v-1063h-41v989l-758 -989h-47z" />
<glyph unicode="&#x45e;" horiz-adv-x="1097" d="M549 1272q-113 0 -167 35.5t-54 89.5h34q0 -38 45.5 -65t141.5 -27q94 0 133 23.5t53 68.5h33q0 -54 -54 -89.5t-165 -35.5zM262 -416q80 0 96 21t179 395l-494 1063h45l469 -1012l444 1012h46l-633 -1444q-23 -53 -68 -65q-46 -11 -84 -11v41z" />
<glyph unicode="&#x45f;" horiz-adv-x="1116" d="M537 -240v240h-365v1063h41v-1024h690v1024h41v-1063h-366v-240h-41z" />
<glyph unicode="&#x462;" horiz-adv-x="1290" d="M727 856q225 0 338 -116.5t113 -311.5q0 -86 -28 -162t-81 -136t-140 -95t-196 -35h-467v1141h-266v41h266v272h41v-272h471v-41h-471v-285h420zM733 41q105 0 185 32.5t126.5 88.5t69.5 123t23 143q0 81 -19.5 146.5t-64 121.5t-127.5 87.5t-199 31.5h-420v-774h426z " />
<glyph unicode="&#x463;" horiz-adv-x="1032" d="M266 0v1077h-266v41h266v377h41v-377h430v-41h-430v-420h299q164 0 249 -87.5t85 -233.5q0 -144 -86.5 -240t-243.5 -96h-344zM307 39h303q99 0 166 43.5t95 108.5t28 145q0 59 -14.5 107t-46.5 88.5t-91 63.5t-141 23h-299v-579z" />
<glyph unicode="&#x46a;" horiz-adv-x="1884" d="M61 0l570 748l-541 706h1704l-541 -706l570 -748h-51l-551 723h-258v-723h-41v723h-256l-553 -723h-52zM670 764h544l498 649h-1540z" />
<glyph unicode="&#x46b;" horiz-adv-x="1452" d="M92 0l418 545l-369 518h1170l-369 -518l418 -545h-51l-402 524h-159v-524h-41v524h-158l-404 -524h-53zM547 563h360l322 459h-1008z" />
<glyph unicode="&#x472;" horiz-adv-x="1550" d="M776 1464q145 0 274 -64.5t215.5 -168.5t136.5 -236t50 -268q0 -194 -88.5 -363t-245 -271.5t-342.5 -102.5q-146 1 -274.5 64t-215.5 165.5t-137.5 235.5t-50.5 272q0 192 88.5 361t245.5 272.5t344 103.5zM776 1423q-133 0 -250.5 -56.5t-199 -149t-131 -210.5 t-56.5 -243h1272q-9 173 -93.5 324t-228.5 243t-313 92zM776 31q137 0 257.5 60.5t201.5 158t128 221.5t48 252h-1272q1 -180 82.5 -338t229 -256t325.5 -98z" />
<glyph unicode="&#x473;" horiz-adv-x="1200" d="M600 1079q135 0 251.5 -75t185.5 -202t69 -274q0 -109 -40 -210.5t-108 -175.5t-161.5 -118t-196.5 -44q-138 0 -254.5 74.5t-184 201t-67.5 272.5q0 147 69 274t185.5 202t251.5 75zM600 1038q-118 0 -221.5 -63.5t-168 -173t-73.5 -238.5h928q-8 128 -72.5 237.5 t-169 173.5t-223.5 64zM598 20q124 0 231 68.5t170.5 184.5t65.5 251h-930q0 -135 62.5 -251t169 -184.5t231.5 -68.5z" />
<glyph unicode="&#x474;" horiz-adv-x="1495" d="M672 0l-633 1454h45l610 -1403l531 1219q45 103 89.5 143.5t127.5 40.5h53v-41h-53q-68 0 -104 -36t-76 -128l-545 -1249h-45z" />
<glyph unicode="&#x475;" horiz-adv-x="1058" d="M473 0l-422 1063h45l396 -1004l317 824q37 97 83 138.5t128 41.5h39v-39h-39q-69 0 -105.5 -35t-68.5 -125l-336 -864h-37z" />
<glyph unicode="&#x490;" horiz-adv-x="1019" d="M203 0v1454h735v277h41v-318h-735v-1413h-41z" />
<glyph unicode="&#x491;" horiz-adv-x="802" d="M172 0v1063h541v240h41v-279h-541v-1024h-41z" />
<glyph unicode="&#x492;" horiz-adv-x="1083" d="M1042 1413h-735v-661h471v-41h-471v-711h-41v711h-266v41h266v702h776v-41z" />
<glyph unicode="&#x493;" horiz-adv-x="794" d="M745 1024h-540v-473h348v-41h-348v-510h-41v510h-184v41h184v512h581v-39z" />
<glyph unicode="&#x494;" horiz-adv-x="1232" d="M651 803q217 0 333 -135.5t116 -388.5q0 -251 -108 -373.5t-300 -122.5q-64 0 -135 12v39q71 -12 133 -12q180 0 274.5 115t94.5 342q0 239 -105.5 361t-304.5 122q-196 0 -405 -107v-655h-41v1454h776v-41h-735v-715q208 105 407 105z" />
<glyph unicode="&#x495;" horiz-adv-x="1017" d="M508 731q205 0 296 -119.5t91 -367.5v-25q-3 -284 -91 -425.5t-294 -141.5q-120 0 -182 49l32 25q53 -33 148 -33q180 0 260.5 126t85.5 363v37q0 244 -83 357.5t-265 113.5q-91 0 -158.5 -26.5t-134.5 -83.5v-580h-41v1063h582v-39h-541v-389q67 49 135.5 72.5 t159.5 23.5z" />
<glyph unicode="&#x496;" horiz-adv-x="1916" d="M1792 41h125v-317h-41v276h-107l-550 723h-256v-723h-41v723h-256l-553 -723h-52l570 748l-541 706h51l529 -690h252v690h41v-690h251l529 690h51l-541 -706z" />
<glyph unicode="&#x497;" horiz-adv-x="1515" d="M1411 39h105v-279h-41v240h-84l-402 524h-201v-524h-40v524h-199l-406 -524h-51l418 545l-369 518h52l354 -500h201v500h40v-500h201l352 500h52l-369 -518z" />
<glyph unicode="&#x498;" horiz-adv-x="1021" d="M920 381q0 -154 -88.5 -257.5t-239.5 -133.5q57 -37 85 -78t28 -96q0 -76 -54 -114t-145 -38q-123 0 -225 51l22 35q58 -25 100.5 -37t96.5 -12q164 0 164 115q0 52 -30.5 90.5t-94.5 75.5q-18 -2 -56 -2q-127 0 -230.5 58.5t-160.5 162.5l37 20q53 -96 145 -148.5 t209 -52.5q178 0 287 98.5t109 262.5q0 157 -99.5 257.5t-261.5 100.5h-115v41h117q123 0 209 95.5t86 230.5q0 141 -94.5 234.5t-235.5 93.5q-101 0 -181 -50t-126 -141l-37 17q51 102 141.5 158.5t202.5 56.5q158 0 264.5 -105.5t106.5 -263.5q0 -116 -59.5 -209 t-155.5 -133q128 -35 203.5 -139t75.5 -244z" />
<glyph unicode="&#x499;" horiz-adv-x="890" d="M793 295q0 -121 -81 -201.5t-216 -99.5q120 -74 120 -178q0 -76 -53.5 -114t-144.5 -38q-123 0 -225 51l22 35q58 -25 100.5 -37t96.5 -12q163 0 163 115q0 54 -33.5 93.5t-105.5 80.5h-14q-129 0 -227 54t-144 151l37 16q41 -86 128 -133t206 -47q149 0 239.5 71.5 t90.5 192.5q0 108 -72 177.5t-191 70.5h-106v41h119q74 0 130 67t56 160q0 104 -69.5 164.5t-196.5 60.5q-205 0 -281 -168l-37 17q41 93 123 142.5t195 49.5q139 0 223 -72.5t84 -193.5q0 -80 -37.5 -145.5t-97.5 -98.5q93 -29 146 -101.5t53 -170.5z" />
<glyph unicode="&#x49a;" horiz-adv-x="1249" d="M1122 41h127v-317h-41v276h-106l-570 723h-288v-723h-41v1454h41v-690h284l547 690h51l-561 -706z" />
<glyph unicode="&#x49b;" horiz-adv-x="962" d="M858 39h105v-279h-41v240h-84l-467 524h-158v-524h-41v1063h41v-500h158l407 500h53l-425 -518z" />
<glyph unicode="&#x49c;" horiz-adv-x="1169" d="M606 748l549 -748h-53l-529 723h-65v-317h-41v317h-223v-723h-41v1454h41v-690h223v293h41v-293h61l506 690h51z" />
<glyph unicode="&#x49d;" horiz-adv-x="1026" d="M508 545l446 -545h-51l-430 524h-45v-248h-41v248h-174v-524h-41v1063h41v-500h174v221h41v-221h45l367 500h53z" />
<glyph unicode="&#x4a0;" horiz-adv-x="1398" d="M795 748l589 -748h-53l-569 723h-289v-723h-41v1413h-432v41h473v-690h285l547 690h51z" />
<glyph unicode="&#x4a1;" horiz-adv-x="1116" d="M592 545l487 -545h-55l-467 524h-158v-524h-41v1024h-358v39h399v-500h158l408 500h53z" />
<glyph unicode="&#x4a2;" horiz-adv-x="1574" d="M1294 41h168v-317h-41v276h-168v723h-1009v-723h-41v1454h41v-690h1009v690h41v-1413z" />
<glyph unicode="&#x4a3;" horiz-adv-x="1193" d="M991 39h142v-279h-41v240h-142v524h-737v-524h-41v1063h41v-500h737v500h41v-1024z" />
<glyph unicode="&#x4a4;" horiz-adv-x="2070" d="M2030 1454v-41h-736v-1413h-41v723h-1009v-723h-41v1454h41v-690h1009v690h777z" />
<glyph unicode="&#x4a5;" horiz-adv-x="1581" d="M1532 1063v-39h-541v-1024h-41v524h-737v-524h-41v1063h41v-500h737v500h582z" />
<glyph unicode="&#x4aa;" horiz-adv-x="1427" d="M1350 326q-47 -103 -139.5 -180t-200.5 -116t-219 -42v-275h-41v275q-139 6 -262.5 73.5t-207.5 172t-133 236.5t-49 267q0 105 29 209t87.5 197t139 164t192 113t238.5 42q187 0 324.5 -86.5t206.5 -230.5l-39 -12q-41 77 -99 134.5t-124.5 90t-135 48t-141.5 15.5 q-147 0 -270 -60.5t-201.5 -159t-122 -220.5t-43.5 -250q0 -137 50.5 -266t136 -224.5t205.5 -153.5t251 -58q156 0 302.5 78t226.5 229z" />
<glyph unicode="&#x4ab;" horiz-adv-x="1101" d="M1020 231q-34 -102 -146 -173.5t-245 -77.5v-220h-41v220q-204 9 -349 172t-145 385q0 150 67 274.5t185 196t260 71.5q134 0 240 -62.5t160 -174.5l-41 -15q-52 98 -150 154.5t-215 56.5q-195 0 -330 -145t-135 -356q0 -138 63.5 -257.5t171 -189.5t232.5 -70 q124 0 238 68t139 156z" />
<glyph unicode="&#x4ae;" horiz-adv-x="1312" d="M94 1454l561 -844l564 844h47l-590 -891v-563h-41v567l-588 887h47z" />
<glyph unicode="&#x4af;" horiz-adv-x="1064" d="M512 -436v440l-461 1059h45l436 -1004l437 1004h45l-461 -1059v-440h-41z" />
<glyph unicode="&#x4b0;" horiz-adv-x="1300" d="M629 0v473h-279v41h279v53l-588 887h47l561 -844l563 844h48l-590 -891v-49h280v-41h-280v-473h-41z" />
<glyph unicode="&#x4b1;" horiz-adv-x="1148" d="M553 -436v395h-238v41h238v4l-461 1059h45l436 -1004l437 1004h45l-461 -1059v-4h240v-41h-240v-395h-41z" />
<glyph unicode="&#x4b6;" horiz-adv-x="1374" d="M1094 41h168v-317h-41v276h-168v670q-205 -88 -432 -88q-239 0 -348 99.5t-109 317.5v455h41v-450q0 -201 96.5 -291t314.5 -90q132 0 248.5 26t188.5 68v737h41v-1413z" />
<glyph unicode="&#x4b7;" horiz-adv-x="1024" d="M831 39h132v-279h-41v240h-142v39h11v450q-137 -67 -310 -67q-182 0 -265 90t-83 283v268h41v-264q0 -178 71 -258t228 -80q89 0 178 21.5t140 52.5v528h40v-1024z" />
<glyph unicode="&#x4b8;" horiz-adv-x="1296" d="M1053 1454h41v-1454h-41v670q-202 -88 -428 -88v-293h-41v293q-219 7 -319.5 107t-100.5 310v455h41v-450q0 -194 90 -284.5t289 -96.5v317h41v-317q130 1 244.5 27t183.5 67v737z" />
<glyph unicode="&#x4b9;" horiz-adv-x="1003" d="M788 1063h43v-1063h-43v489q-131 -64 -292 -67v-207h-41v207q-168 6 -245 96.5t-77 276.5v268h41v-264q0 -173 66.5 -253t214.5 -85v262h41v-262q85 3 165 23.5t127 50.5v528z" />
<glyph unicode="&#x4ba;" horiz-adv-x="1296" d="M244 1454v-670q205 88 432 88q239 0 348 -99.5t109 -317.5v-455h-41v451q0 201 -97 290.5t-315 89.5q-132 0 -248 -26t-188 -68v-737h-41v1454h41z" />
<glyph unicode="&#x4bb;" horiz-adv-x="1157" d="M997 0h-41v592q0 446 -294 446q-149 0 -278.5 -105.5t-170.5 -260.5v-672h-41v1495h41v-707q66 132 188 211.5t258 79.5q166 0 252 -124t86 -363v-592z" />
<glyph unicode="&#x4c0;" horiz-adv-x="446" d="M203 0v1454h41v-1454h-41z" />
<glyph unicode="&#x4c1;" horiz-adv-x="1884" d="M942 1663q-113 0 -167 35.5t-54 89.5h35q0 -38 45 -65t141 -27q94 0 133 23.5t53 68.5h33q0 -54 -54 -89.5t-165 -35.5zM61 0l570 748l-541 706h51l529 -690h252v690h41v-690h251l529 690h51l-541 -706l570 -748h-54l-550 723h-256v-723h-41v723h-256l-553 -723h-52z" />
<glyph unicode="&#x4c2;" horiz-adv-x="1533" d="M768 1272q-113 0 -167 35.5t-54 89.5h35q0 -38 45 -65t141 -27q94 0 133 23.5t53 68.5h33q0 -54 -54 -89.5t-165 -35.5zM92 0l418 545l-369 518h52l354 -500h201v500h40v-500h201l352 500h52l-369 -518l418 -545h-51l-402 524h-201v-524h-40v524h-199l-406 -524h-51z" />
<glyph unicode="&#x4cb;" horiz-adv-x="1296" d="M1053 1454h41v-1454h-181v-276h-41v317h181v629q-205 -88 -432 -88q-239 0 -348 99.5t-109 317.5v455h41v-450q0 -201 96.5 -291t314.5 -90q132 0 248.5 26t188.5 68v737z" />
<glyph unicode="&#x4cc;" horiz-adv-x="1003" d="M649 -240v279h139v450q-137 -67 -307 -67q-182 0 -265 90t-83 283v268h41v-264q0 -178 71 -258t228 -80q89 0 176.5 21t138.5 53v528h43v-1063h-141v-240h-41z" />
<glyph unicode="&#x4cf;" horiz-adv-x="385" d="M172 0v1063h41v-1063h-41z" />
<glyph unicode="&#x4d0;" horiz-adv-x="1380" d="M690 1663q-113 0 -167 35.5t-54 89.5h35q0 -38 45 -65t141 -27q94 0 133.5 23.5t53.5 68.5h32q0 -54 -54 -89.5t-165 -35.5zM672 1454h37l632 -1454h-45l-227 520h-760l-227 -520h-45zM1051 561l-361 834l-364 -834h725z" />
<glyph unicode="&#x4d1;" horiz-adv-x="1073" d="M537 1272q-113 0 -167.5 35.5t-54.5 89.5h35q0 -38 45.5 -65t141.5 -27q94 0 133 23.5t53 68.5h33q0 -54 -54 -89.5t-165 -35.5zM80 305q0 134 122.5 218.5t315.5 84.5q197 0 356 -59v121q0 166 -95.5 267t-252.5 101q-158 0 -344 -131l-24 33q204 139 368 139 q178 0 283.5 -110.5t105.5 -298.5v-588q0 -41 33 -41v-41q-22 0 -28 4q-20 7 -33 29.5t-13 48.5v98q-73 -95 -192 -147.5t-258 -52.5q-145 0 -244.5 94t-99.5 231zM844 209q30 44 30 84v211q-163 63 -356 63q-179 0 -288 -72t-109 -190q0 -120 87.5 -202.5t215.5 -82.5 q136 0 250 51.5t170 137.5z" />
<glyph unicode="&#x4d2;" horiz-adv-x="1380" d="M551 1729v157h41v-157h-41zM788 1729v157h41v-157h-41zM672 1454h37l632 -1454h-45l-227 520h-760l-227 -520h-45zM1051 561l-361 834l-364 -834h725z" />
<glyph unicode="&#x4d3;" horiz-adv-x="1073" d="M397 1337v158h41v-158h-41zM635 1337v158h41v-158h-41zM80 305q0 134 122.5 218.5t315.5 84.5q197 0 356 -59v121q0 166 -95.5 267t-252.5 101q-158 0 -344 -131l-24 33q204 139 368 139q178 0 283.5 -110.5t105.5 -298.5v-588q0 -41 33 -41v-41q-22 0 -28 4 q-20 7 -33 29.5t-13 48.5v98q-73 -95 -192 -147.5t-258 -52.5q-145 0 -244.5 94t-99.5 231zM844 209q30 44 30 84v211q-163 63 -356 63q-179 0 -288 -72t-109 -190q0 -120 87.5 -202.5t215.5 -82.5q136 0 250 51.5t170 137.5z" />
<glyph unicode="&#x4d4;" horiz-adv-x="1970" d="M899 1454h946v-41h-895v-649h785v-41h-785v-682h914v-41h-955v520h-575l-342 -520h-51zM909 561v828l-551 -828h551z" />
<glyph unicode="&#x4d5;" horiz-adv-x="1900" d="M80 305q0 134 122.5 218.5t315.5 84.5q149 0 297 -41q6 107 47 203q-26 124 -116 196t-220 72q-158 0 -344 -131l-24 33q204 139 368 139q136 0 231.5 -66.5t133.5 -187.5q67 116 180 185t246 69q139 0 256.5 -73t186 -199.5t69.5 -276.5v-22h-973q10 -135 75.5 -247 t170.5 -176.5t227 -64.5q123 0 230 63t151 161l39 -11q-43 -109 -163.5 -181t-258.5 -72q-130 0 -242 66.5t-182 180.5q-31 -63 -86 -112t-121 -77.5t-135 -43t-137 -14.5q-145 0 -244.5 94t-99.5 231zM1786 549q-13 213 -145.5 351t-321.5 138q-124 0 -227.5 -63t-166 -175 t-69.5 -251h930zM844 209q24 37 30 72q-56 112 -59 243q-139 43 -297 43q-179 0 -288 -72t-109 -190q0 -120 87.5 -202.5t215.5 -82.5q136 0 250 51.5t170 137.5z" />
<glyph unicode="&#x4d6;" horiz-adv-x="1263" d="M705 1657q-113 0 -167.5 35.5t-54.5 89.5h35q0 -38 45.5 -65t141.5 -27q94 0 133 23.5t53 68.5h33q0 -54 -54 -89.5t-165 -35.5zM1157 41v-41h-954v1454h936v-41h-895v-649h784v-41h-784v-682h913z" />
<glyph unicode="&#x4d7;" d="M598 1272q-113 0 -167 35.5t-54 89.5h35q0 -38 45 -65t141 -27q94 0 133 23.5t53 68.5h33q0 -54 -54 -89.5t-165 -35.5zM606 -20q-138 0 -256 75.5t-187 204.5t-69 279q0 147 67 271.5t182.5 196.5t252.5 72q139 0 256.5 -73t186 -199.5t69.5 -276.5v-22h-973 q10 -135 75.5 -247t170.5 -176.5t227 -64.5q123 0 230 63t151 161l39 -11q-43 -109 -163.5 -181t-258.5 -72zM135 549h930q-13 213 -145.5 351t-321.5 138q-124 0 -227.5 -63t-166 -175t-69.5 -251z" />
<glyph unicode="&#x4d8;" horiz-adv-x="1513" d="M68 721v20h1302q-10 144 -64.5 270t-139 216t-198 142t-237.5 52q-166 0 -311.5 -87.5t-202.5 -229.5l-41 18q57 147 216 244.5t343 97.5q137 0 263 -60t217.5 -161.5t145.5 -241.5t54 -292q0 -149 -52.5 -283.5t-141.5 -232.5t-212 -155.5t-259 -57.5q-190 0 -347 99 t-246 269t-89 373zM1370 696h-1255q13 -193 98 -346.5t224 -239t308 -85.5q168 0 308 87t224 240.5t93 343.5z" />
<glyph unicode="&#x4d9;" d="M584 -20q-139 0 -256.5 73t-186 199t-69.5 276v23h972q-15 206 -151 346.5t-322 140.5q-123 0 -230 -62.5t-151 -160.5l-38 10q43 109 163 181.5t258 72.5t256 -75.5t187 -204.5t69 -279q0 -147 -66.5 -271.5t-182 -196.5t-252.5 -72zM582 20q189 0 320 139.5t142 350.5 h-929q13 -213 145.5 -351.5t321.5 -138.5z" />
<glyph unicode="&#x4dc;" horiz-adv-x="1884" d="M803 1729v157h41v-157h-41zM1040 1729v157h41v-157h-41zM61 0l570 748l-541 706h51l529 -690h252v690h41v-690h251l529 690h51l-541 -706l570 -748h-54l-550 723h-256v-723h-41v723h-256l-553 -723h-52z" />
<glyph unicode="&#x4dd;" horiz-adv-x="1533" d="M629 1337v158h41v-158h-41zM866 1337v158h41v-158h-41zM92 0l418 545l-369 518h52l354 -500h201v500h40v-500h201l352 500h52l-369 -518l418 -545h-51l-402 524h-201v-524h-40v524h-199l-406 -524h-51z" />
<glyph unicode="&#x4de;" horiz-adv-x="1021" d="M387 1729v157h41v-157h-41zM625 1729v157h41v-157h-41zM483 -20q-127 0 -230.5 58.5t-160.5 162.5l37 20q53 -96 145 -148.5t209 -52.5q178 0 287 98.5t109 262.5q0 157 -99.5 257.5t-261.5 100.5h-115v41h117q123 0 209 95.5t86 230.5q0 141 -94.5 234.5t-235.5 93.5 q-101 0 -181 -50t-126 -141l-37 17q51 102 141.5 158.5t202.5 56.5q158 0 264.5 -105.5t106.5 -263.5q0 -116 -59.5 -209t-155.5 -133q128 -35 203.5 -139t75.5 -244q0 -181 -121 -291t-316 -110z" />
<glyph unicode="&#x4df;" horiz-adv-x="890" d="M279 1337v158h40v-158h-40zM516 1337v158h41v-158h-41zM422 -10q-129 0 -227 54t-144 151l37 16q41 -86 128 -133t206 -47q149 0 239.5 71.5t90.5 192.5q0 108 -72 177.5t-191 70.5h-106v41h119q74 0 130 67t56 160q0 104 -69.5 164.5t-196.5 60.5q-205 0 -281 -168 l-37 17q41 93 123 142.5t195 49.5q139 0 223 -72.5t84 -193.5q0 -80 -37.5 -145.5t-97.5 -98.5q93 -29 146 -101.5t53 -170.5q0 -138 -102.5 -221.5t-268.5 -83.5z" />
<glyph unicode="&#x4e2;" horiz-adv-x="1529" d="M479 1796v41h574v-41h-574zM203 0v1454h41v-1401l1044 1401h39v-1454h-41v1380l-1032 -1380h-51z" />
<glyph unicode="&#x4e3;" horiz-adv-x="1189" d="M309 1405v41h574v-41h-574zM172 0v1061h41v-1004l768 1006h37v-1063h-41v989l-758 -989h-47z" />
<glyph unicode="&#x4e4;" horiz-adv-x="1529" d="M627 1729v157h41v-157h-41zM864 1729v157h41v-157h-41zM203 0v1454h41v-1401l1044 1401h39v-1454h-41v1380l-1032 -1380h-51z" />
<glyph unicode="&#x4e5;" horiz-adv-x="1189" d="M457 1337v158h41v-158h-41zM694 1337v158h41v-158h-41zM172 0v1061h41v-1004l768 1006h37v-1063h-41v989l-758 -989h-47z" />
<glyph unicode="&#x4e6;" horiz-adv-x="1550" d="M637 1722v158h41v-158h-41zM874 1722v158h41v-158h-41zM98 727q0 192 88.5 361t245.5 272.5t344 103.5q145 0 274 -64.5t215.5 -168.5t136.5 -236t50 -268q0 -194 -88.5 -363t-245 -271.5t-342.5 -102.5q-146 1 -274.5 64t-215.5 165.5t-137.5 235.5t-50.5 272zM776 31 q110 0 211 39.5t177 107.5t132.5 156t85.5 189.5t29 203.5q0 180 -82.5 339.5t-230 258t-322.5 98.5q-138 0 -259 -60.5t-202.5 -158.5t-128.5 -223t-47 -254q0 -135 48.5 -261.5t131.5 -222.5t202.5 -154t254.5 -58z" />
<glyph unicode="&#x4e7;" horiz-adv-x="1200" d="M461 1337v158h41v-158h-41zM698 1337v158h41v-158h-41zM94 528q0 147 69 274t185.5 202t251.5 75t251.5 -75t185.5 -202t69 -274q0 -109 -40 -210.5t-108 -175.5t-161.5 -118t-196.5 -44q-138 0 -254.5 74.5t-184 201t-67.5 272.5zM598 20q125 0 232.5 69.5t171 187 t63.5 253.5q0 135 -63 252t-170.5 186.5t-231.5 69.5t-231.5 -70t-170.5 -188.5t-63 -255.5q0 -135 62.5 -251t169 -184.5t231.5 -68.5z" />
<glyph unicode="&#x4e8;" horiz-adv-x="1550" d="M776 1464q145 0 274 -64.5t215.5 -168.5t136.5 -236t50 -268q0 -194 -88.5 -363t-245 -271.5t-342.5 -102.5q-146 1 -274.5 64t-215.5 165.5t-137.5 235.5t-50.5 272q0 192 88.5 361t245.5 272.5t344 103.5zM776 1423q-133 0 -250.5 -56.5t-199 -149t-131 -210.5 t-56.5 -243h1272q-9 173 -93.5 324t-228.5 243t-313 92zM776 31q137 0 257.5 60.5t201.5 158t128 221.5t48 252h-1272q1 -180 82.5 -338t229 -256t325.5 -98z" />
<glyph unicode="&#x4e9;" horiz-adv-x="1200" d="M600 1079q135 0 251.5 -75t185.5 -202t69 -274q0 -109 -40 -210.5t-108 -175.5t-161.5 -118t-196.5 -44q-138 0 -254.5 74.5t-184 201t-67.5 272.5q0 147 69 274t185.5 202t251.5 75zM600 1038q-118 0 -221.5 -63.5t-168 -173t-73.5 -238.5h928q-8 128 -72.5 237.5 t-169 173.5t-223.5 64zM598 20q124 0 231 68.5t170.5 184.5t65.5 251h-930q0 -135 62.5 -251t169 -184.5t231.5 -68.5z" />
<glyph unicode="&#x4ee;" horiz-adv-x="1232" d="M342 1796v41h573v-41h-573zM373 0v41h92q32 0 51 23.5t51 89.5l86 178l-653 1122h47l627 -1077l514 1077h45l-631 -1323q-37 -76 -62 -103.5t-73 -27.5h-94z" />
<glyph unicode="&#x4ef;" horiz-adv-x="1097" d="M262 1405v41h574v-41h-574zM262 -416q80 0 96 21t179 395l-494 1063h45l469 -1012l444 1012h46l-633 -1444q-23 -53 -68 -65q-46 -11 -84 -11v41z" />
<glyph unicode="&#x4f0;" horiz-adv-x="1232" d="M489 1729v157h41v-157h-41zM727 1729v157h41v-157h-41zM373 0v41h92q32 0 51 23.5t51 89.5l86 178l-653 1122h47l627 -1077l514 1077h45l-631 -1323q-37 -76 -62 -103.5t-73 -27.5h-94z" />
<glyph unicode="&#x4f1;" horiz-adv-x="1097" d="M410 1337v158h41v-158h-41zM647 1337v158h41v-158h-41zM262 -416q80 0 96 21t179 395l-494 1063h45l469 -1012l444 1012h46l-633 -1444q-23 -53 -68 -65q-46 -11 -84 -11v41z" />
<glyph unicode="&#x4f2;" horiz-adv-x="1232" d="M498 1712l-33 25l131 149h70zM702 1712l-32 25l131 149h69zM373 0v41h92q32 0 51 23.5t51 89.5l86 178l-653 1122h47l627 -1077l514 1077h45l-631 -1323q-37 -76 -62 -103.5t-73 -27.5h-94z" />
<glyph unicode="&#x4f3;" horiz-adv-x="1097" d="M418 1321l-33 25l131 149h70zM623 1321l-33 25l131 149h70zM262 -416q80 0 96 21t179 395l-494 1063h45l469 -1012l444 1012h46l-633 -1444q-23 -53 -68 -65q-46 -11 -84 -11v41z" />
<glyph unicode="&#x4f4;" horiz-adv-x="1296" d="M520 1729v157h41v-157h-41zM758 1729v157h41v-157h-41zM1053 0v670q-205 -88 -432 -88q-239 0 -348 99.5t-109 317.5v455h41v-450q0 -201 96.5 -291t314.5 -90q132 0 248.5 26t188.5 68v737h41v-1454h-41z" />
<glyph unicode="&#x4f5;" horiz-adv-x="1003" d="M369 1337v158h41v-158h-41zM606 1337v158h41v-158h-41zM791 0v489q-137 -67 -310 -67q-182 0 -265 90t-83 283v268h41v-264q0 -178 71 -258t228 -80q89 0 178 21.5t140 52.5v528h40v-1063h-40z" />
<glyph unicode="&#x4f6;" horiz-adv-x="1019" d="M979 1413h-735v-1372h209v-317h-41v276h-209v1454h776v-41z" />
<glyph unicode="&#x4f7;" horiz-adv-x="802" d="M754 1024h-541v-985h182v-279h-41v240h-182v1063h582v-39z" />
<glyph unicode="&#x4f8;" horiz-adv-x="1636" d="M680 1729v157h41v-157h-41zM918 1729v157h40v-157h-40zM203 0v1454h41v-598h420q224 0 337 -116.5t113 -311.5q0 -86 -27.5 -162t-81 -136t-140 -95t-195.5 -35h-467zM1393 0v1452h41v-1452h-41zM244 41h426q105 0 185 32.5t126.5 88.5t69 123t22.5 143q0 81 -19.5 146.5 t-63.5 121.5t-127 87.5t-199 31.5h-420v-774z" />
<glyph unicode="&#x4f9;" horiz-adv-x="1277" d="M479 1337v158h41v-158h-41zM717 1337v158h41v-158h-41zM172 0v1063h41v-406h299q164 0 249 -87.5t85 -233.5q0 -144 -86.5 -240t-243.5 -96h-344zM1065 0v1061h41v-1061h-41zM213 39h303q99 0 166 43.5t95 108.5t28 145q0 59 -14.5 107t-46.5 88.5t-91 63.5t-141 23h-299 v-579z" />
<glyph unicode="&#x51a;" horiz-adv-x="1550" d="M1452 727q0 -155 -58.5 -297t-162.5 -246l145 -184h-51l-125 156q-187 -166 -424 -166q-146 1 -274.5 64t-215.5 165.5t-137.5 235.5t-50.5 272q0 192 88.5 361t245.5 272.5t344 103.5q145 0 274 -64.5t215.5 -168.5t136.5 -236t50 -268zM776 31q227 0 400 157l-154 193 h51l131 -166q98 101 152.5 236.5t54.5 275.5q0 180 -82.5 339.5t-230 258t-322.5 98.5q-138 0 -259 -60.5t-202.5 -158.5t-128.5 -223t-47 -254q0 -135 48.5 -261.5t131.5 -222.5t202.5 -154t254.5 -58z" />
<glyph unicode="&#x51b;" horiz-adv-x="1234" d="M94 528q0 107 40.5 208t108.5 176.5t163.5 121t199.5 45.5q123 0 237 -68.5t179 -172.5v225h41v-1499h-41v680q-183 -264 -434 -264q-144 0 -259 80t-175 204t-60 264zM1022 330v383q-9 82 -74.5 158.5t-159 121.5t-182.5 45q-100 0 -189.5 -44.5t-150 -116t-96 -163.5 t-35.5 -186q0 -134 58 -250t163 -187t232 -71q142 0 254 88t180 222z" />
<glyph unicode="&#x51c;" horiz-adv-x="2125" d="M780 1442h45l236 -545l237 545h45l-260 -594l349 -797l610 1403h45l-633 -1454h-45l-346 797l-346 -797h-45l-633 1454h45l610 -1403l346 797z" />
<glyph unicode="&#x51d;" horiz-adv-x="1626" d="M1530 1063h45l-465 -1063h-37l-260 596l-260 -596h-37l-465 1063h45l439 -1004l256 588l-179 414h43l158 -361l158 361h43l-178 -414l256 -588z" />
<glyph unicode="&#x524;" horiz-adv-x="1519" d="M1239 41h168v-317h-41v276h-168v1413h-954v-1413h-41v1454h1036v-1413z" />
<glyph unicode="&#x525;" horiz-adv-x="1161" d="M958 39h142v-279h-41v240h-141v1024h-705v-1024h-41v1063h786v-1024z" />
<glyph unicode="&#x1e08;" horiz-adv-x="1427" d="M961 1880l-168 -174l-33 25l131 149h70zM1350 326q-65 -142 -206.5 -230t-303.5 -104q59 -39 87.5 -80t28.5 -96q0 -76 -53.5 -114t-144.5 -38q-124 0 -226 51l23 35q58 -25 100.5 -37t96.5 -12q163 0 163 115q0 53 -32.5 92.5t-102.5 79.5h-6q-115 0 -221.5 42 t-187.5 115.5t-142 168t-93 204t-32 219.5q0 105 29 209t87.5 197t139 164t192 113t238.5 42q187 0 324.5 -86.5t206.5 -230.5l-39 -12q-41 77 -99 134.5t-124.5 90t-135 48t-141.5 15.5q-147 0 -270 -60.5t-201.5 -159t-122 -220.5t-43.5 -250q0 -137 50.5 -266t136 -224.5 t205.5 -153.5t251 -58q156 0 302.5 78t226.5 229z" />
<glyph unicode="&#x1e09;" horiz-adv-x="1101" d="M780 1495l-168 -174l-32 25l131 149h69zM1020 231q-30 -93 -125 -160.5t-215 -84.5q54 -37 80 -77t26 -93q0 -76 -53.5 -114t-144.5 -38q-124 0 -226 51l23 35q58 -25 100.5 -37t96.5 -12q163 0 163 115q0 51 -29.5 89t-92.5 75h-15q-138 0 -256.5 75t-188 203.5 t-69.5 278.5t67 274.5t185 196t260 71.5q134 0 240 -62.5t160 -174.5l-41 -15q-52 98 -150 154.5t-215 56.5q-195 0 -330 -145t-135 -356q0 -138 63.5 -257.5t171 -189.5t232.5 -70q124 0 238 68t139 156z" />
<glyph unicode="&#x1e0c;" horiz-adv-x="1456" d="M203 0v1454h467q167 0 298.5 -56.5t214.5 -156t126 -230t43 -282.5q0 -331 -185 -530t-497 -199h-467zM670 1413h-426v-1372h426q155 0 278 52.5t201.5 145.5t120 217.5t41.5 272.5q0 200 -73.5 353.5t-220 242t-347.5 88.5zM711 -260v158h41v-158h-41z" />
<glyph unicode="&#x1e0d;" horiz-adv-x="1236" d="M94 528q0 109 37.5 209.5t102 176t157.5 120.5t197 45q138 0 251 -74.5t183 -189.5v680h41v-1413q0 -19 9 -30t24 -11v-41q-19 0 -27 4q-22 9 -34.5 30.5t-12.5 47.5v139q-68 -107 -182 -174t-234 -67q-143 0 -262.5 80.5t-184.5 205.5t-65 262zM1022 346v383 q-30 83 -100.5 154.5t-159.5 113t-174 41.5q-100 0 -186.5 -44t-144 -116t-90 -163t-32.5 -187q0 -132 62.5 -248.5t171.5 -188t237 -71.5q62 0 133.5 27t133 70.5t103.5 104.5t46 124zM598 -260v158h41v-158h-41z" />
<glyph unicode="&#x1e0e;" horiz-adv-x="1456" d="M203 0v1454h467q167 0 298.5 -56.5t214.5 -156t126 -230t43 -282.5q0 -331 -185 -530t-497 -199h-467zM670 1413h-426v-1372h426q155 0 278 52.5t201.5 145.5t120 217.5t41.5 272.5q0 200 -73.5 353.5t-220 242t-347.5 88.5zM444 -195v41h574v-41h-574z" />
<glyph unicode="&#x1e0f;" horiz-adv-x="1236" d="M94 528q0 109 37.5 209.5t102 176t157.5 120.5t197 45q138 0 251 -74.5t183 -189.5v680h41v-1413q0 -19 9 -30t24 -11v-41q-19 0 -27 4q-22 9 -34.5 30.5t-12.5 47.5v139q-68 -107 -182 -174t-234 -67q-143 0 -262.5 80.5t-184.5 205.5t-65 262zM1022 346v383 q-30 83 -100.5 154.5t-159.5 113t-174 41.5q-100 0 -186.5 -44t-144 -116t-90 -163t-32.5 -187q0 -132 62.5 -248.5t171.5 -188t237 -71.5q62 0 133.5 27t133 70.5t103.5 104.5t46 124zM332 -195v41h573v-41h-573z" />
<glyph unicode="&#x1e14;" horiz-adv-x="1263" d="M565 2263h68l133 -149l-33 -25zM418 1790v41h573v-41h-573zM1157 41v-41h-954v1454h936v-41h-895v-649h784v-41h-784v-682h913z" />
<glyph unicode="&#x1e15;" d="M459 1878h67l133 -149l-32 -25zM311 1405v41h574v-41h-574zM606 -20q-138 0 -256 75.5t-187 204.5t-69 279q0 147 67 271.5t182.5 196.5t252.5 72q139 0 256.5 -73t186 -199.5t69.5 -276.5v-22h-973q10 -135 75.5 -247t170.5 -176.5t227 -64.5q123 0 230 63t151 161 l39 -11q-43 -109 -163.5 -181t-258.5 -72zM135 549h930q-13 213 -145.5 351t-321.5 138q-124 0 -227.5 -63t-166 -175t-69.5 -251z" />
<glyph unicode="&#x1e16;" horiz-adv-x="1263" d="M717 2089l-33 25l131 149h70zM418 1790v41h573v-41h-573zM1157 41v-41h-954v1454h936v-41h-895v-649h784v-41h-784v-682h913z" />
<glyph unicode="&#x1e17;" d="M610 1704l-32 25l131 149h69zM311 1405v41h574v-41h-574zM606 -20q-138 0 -256 75.5t-187 204.5t-69 279q0 147 67 271.5t182.5 196.5t252.5 72q139 0 256.5 -73t186 -199.5t69.5 -276.5v-22h-973q10 -135 75.5 -247t170.5 -176.5t227 -64.5q123 0 230 63t151 161l39 -11 q-43 -109 -163.5 -181t-258.5 -72zM135 549h930q-13 213 -145.5 351t-321.5 138q-124 0 -227.5 -63t-166 -175t-69.5 -251z" />
<glyph unicode="&#x1e1c;" horiz-adv-x="1263" d="M705 1722q-60 0 -106 47.5t-46 110.5h39q0 -46 35 -84.5t78 -38.5q41 0 74.5 36t39.5 87h37q0 -63 -45.5 -110.5t-105.5 -47.5zM1157 41v-41h-403q64 -39 96.5 -82.5t32.5 -101.5q0 -76 -54 -114t-145 -38q-123 0 -225 51l22 35q58 -25 100.5 -37t96.5 -12q164 0 164 115 q0 57 -38 98.5t-120 85.5h-481v1454h936v-41h-895v-649h784v-41h-784v-682h913z" />
<glyph unicode="&#x1e1d;" d="M598 1337q-60 0 -106 47.5t-46 110.5h39q0 -46 35 -84.5t78 -38.5q41 0 75 36t40 87h37q0 -63 -46 -110.5t-106 -47.5zM1108 530v-22h-973q10 -135 75.5 -247t170.5 -176.5t227 -64.5q123 0 230 63t151 161l39 -11q-36 -94 -133 -162t-217 -85q54 -37 80 -77t26 -93 q0 -76 -53.5 -114t-144.5 -38q-124 0 -226 51l23 35q58 -25 100.5 -37t96.5 -12q163 0 163 115q0 51 -29.5 89t-92.5 75h-15q-138 0 -256 75.5t-187 204.5t-69 279q0 147 67 271.5t182.5 196.5t252.5 72q139 0 256.5 -73t186 -199.5t69.5 -276.5zM135 549h930 q-13 213 -145.5 351t-321.5 138q-124 0 -227.5 -63t-166 -175t-69.5 -251z" />
<glyph unicode="&#x1e20;" horiz-adv-x="1474" d="M1044 1831v-41h-573v41h573zM967 692h383v-692h-41v250q-224 -260 -525 -260q-146 0 -276.5 65t-218.5 169.5t-139.5 236.5t-51.5 266q0 113 31.5 222t90.5 201.5t139 163t184 110.5t217 40q396 0 555 -317l-39 -12q-156 288 -516 288q-112 0 -211.5 -39.5t-173 -107.5 t-127.5 -156.5t-81.5 -189t-27.5 -203.5q0 -108 32.5 -212t92 -191t138.5 -153t178 -103t204 -37q291 0 525 274v346h-342v41z" />
<glyph unicode="&#x1e21;" horiz-adv-x="1234" d="M330 1405v41h573v-41h-573zM94 528q0 106 37 206t100.5 176.5t157 122.5t199.5 46q248 0 434 -264v248h41v-1108q0 -102 -39 -182.5t-105 -129.5t-149 -74.5t-176 -25.5q-179 0 -287.5 65.5t-173.5 188.5l39 13q62 -115 173.5 -170.5t248.5 -55.5q119 0 214.5 41 t154.5 126.5t59 203.5v266q-68 -107 -182 -174t-234 -67q-143 0 -262.5 80.5t-184.5 205.5t-65 262zM1022 346v383q-51 133 -174 221t-260 88q-104 0 -191.5 -45.5t-143.5 -119t-87 -163.5t-31 -182q0 -132 62.5 -248.5t171.5 -188t237 -71.5q97 0 192.5 49.5t156.5 125.5 t67 151z" />
<glyph unicode="&#x1e24;" horiz-adv-x="1497" d="M1294 1454v-1454h-41v723h-1009v-723h-41v1454h41v-690h1009v690h41zM729 -260v158h41v-158h-41z" />
<glyph unicode="&#x1e25;" horiz-adv-x="1157" d="M997 0h-41v592q0 446 -294 446q-149 0 -278.5 -105.5t-170.5 -260.5v-672h-41v1495h41v-707q66 132 188 211.5t258 79.5q166 0 252 -124t86 -363v-592zM559 -260v158h41v-158h-41z" />
<glyph unicode="&#x1e2a;" horiz-adv-x="1497" d="M1294 1454v-1454h-41v723h-1009v-723h-41v1454h41v-690h1009v690h41zM864 -86h37q0 -63 -45.5 -110.5t-105.5 -47.5t-106 47.5t-46 110.5h39q0 -46 35 -84.5t78 -38.5q41 0 74.5 36t39.5 87z" />
<glyph unicode="&#x1e2b;" horiz-adv-x="1157" d="M997 0h-41v592q0 446 -294 446q-149 0 -278.5 -105.5t-170.5 -260.5v-672h-41v1495h41v-707q66 132 188 211.5t258 79.5q166 0 252 -124t86 -363v-592zM694 -86h37q0 -63 -45.5 -110.5t-105.5 -47.5t-106 47.5t-46 110.5h39q0 -46 35 -84.5t78 -38.5q41 0 74.5 36 t39.5 87z" />
<glyph unicode="&#x1e2e;" horiz-adv-x="446" d="M236 2118l-33 24l131 150h69zM84 1722v158h41v-158h-41zM322 1722v158h40v-158h-40zM203 0v1454h41v-1454h-41z" />
<glyph unicode="&#x1e2f;" horiz-adv-x="385" d="M205 1733l-33 24l131 150h70zM53 1337v158h41v-158h-41zM291 1337v158h41v-158h-41zM172 0v1063h41v-1063h-41z" />
<glyph unicode="&#x1e36;" horiz-adv-x="1185" d="M203 0v1454h41v-1413h913v-41h-954zM657 -260v158h41v-158h-41z" />
<glyph unicode="&#x1e37;" horiz-adv-x="487" d="M184 1495h41v-1337q0 -60 36.5 -94.5t98.5 -34.5q50 0 113 18l14 -33q-74 -24 -141 -24q-72 0 -117 46.5t-45 121.5v1337zM311 -260v158h41v-158h-41z" />
<glyph unicode="&#x1e3a;" horiz-adv-x="1185" d="M203 0v1454h41v-1413h913v-41h-954zM391 -195v41h574v-41h-574z" />
<glyph unicode="&#x1e3b;" horiz-adv-x="487" d="M184 1495h41v-1337q0 -60 36.5 -94.5t98.5 -34.5q50 0 113 18l14 -33q-74 -24 -141 -24q-72 0 -117 46.5t-45 121.5v1337zM45 -195v41h573v-41h-573z" />
<glyph unicode="&#x1e42;" horiz-adv-x="1810" d="M1567 0v1364l-645 -1077h-33l-645 1077v-1364h-41v1454h33l669 -1118l670 1118h33v-1454h-41zM885 -260v158h41v-158h-41z" />
<glyph unicode="&#x1e43;" horiz-adv-x="1859" d="M1700 0h-41v592q0 228 -69.5 337t-215.5 109q-149 0 -261.5 -101.5t-156.5 -266.5v-670h-41v592q0 231 -68 338.5t-214 107.5q-148 0 -261 -100t-159 -266v-672h-41v1063h41v-275q69 138 177.5 214.5t234.5 76.5q133 0 220.5 -84t102.5 -225q158 309 426 309 q166 0 246 -119.5t80 -367.5v-592zM909 -260v158h41v-158h-41z" />
<glyph unicode="&#x1e44;" horiz-adv-x="1589" d="M784 1722v158h41v-158h-41zM244 1374v-1374h-41v1454h30l1113 -1395v1395h40v-1454h-47z" />
<glyph unicode="&#x1e45;" horiz-adv-x="1157" d="M553 1337v158h41v-158h-41zM997 0h-41v592q0 232 -65 339t-207 107q-155 0 -291 -105t-180 -261v-672h-41v1063h41v-275q66 129 196.5 210t272.5 81q163 0 239 -118t76 -369v-592z" />
<glyph unicode="&#x1e46;" horiz-adv-x="1589" d="M244 1374v-1374h-41v1454h30l1113 -1395v1395h40v-1454h-47zM786 -260v158h41v-158h-41z" />
<glyph unicode="&#x1e47;" horiz-adv-x="1157" d="M997 0h-41v592q0 232 -65 339t-207 107q-155 0 -291 -105t-180 -261v-672h-41v1063h41v-275q66 129 196.5 210t272.5 81q163 0 239 -118t76 -369v-592zM553 -260v158h41v-158h-41z" />
<glyph unicode="&#x1e48;" horiz-adv-x="1589" d="M244 1374v-1374h-41v1454h30l1113 -1395v1395h40v-1454h-47zM520 -195v41h574v-41h-574z" />
<glyph unicode="&#x1e49;" horiz-adv-x="1157" d="M997 0h-41v592q0 232 -65 339t-207 107q-155 0 -291 -105t-180 -261v-672h-41v1063h41v-275q66 129 196.5 210t272.5 81q163 0 239 -118t76 -369v-592zM287 -195v41h573v-41h-573z" />
<glyph unicode="&#x1e4c;" horiz-adv-x="1550" d="M788 2138l-32 25l131 149h69zM637 1821q-30 0 -53 -13.5t-33 -32t-14.5 -32.5t-4.5 -21h-40q0 7 2.5 19.5t11.5 34t24 39.5t44 31.5t67 13.5q53 0 128.5 -39t127.5 -39q32 0 56 9.5t35.5 22.5t19 28.5t9 24t1.5 13.5h41q0 -8 -2.5 -21t-13 -34.5t-27 -38.5t-49 -30 t-74.5 -13q-51 0 -97.5 19.5t-85.5 39t-73 19.5zM98 727q0 192 88.5 361t245.5 272.5t344 103.5q145 0 274 -64.5t215.5 -168.5t136.5 -236t50 -268q0 -194 -88.5 -363t-245 -271.5t-342.5 -102.5q-146 1 -274.5 64t-215.5 165.5t-137.5 235.5t-50.5 272zM776 31 q110 0 211 39.5t177 107.5t132.5 156t85.5 189.5t29 203.5q0 180 -82.5 339.5t-230 258t-322.5 98.5q-138 0 -259 -60.5t-202.5 -158.5t-128.5 -223t-47 -254q0 -135 48.5 -261.5t131.5 -222.5t202.5 -154t254.5 -58z" />
<glyph unicode="&#x1e4d;" horiz-adv-x="1200" d="M612 1753l-32 25l131 149h69zM461 1436q-30 0 -53 -13.5t-33 -32t-14.5 -32.5t-4.5 -21h-41q0 7 2.5 19.5t12 34t24.5 39.5t44 31.5t67 13.5q53 0 128.5 -39t127.5 -39q32 0 56 9.5t35.5 22.5t19 28.5t9 24t1.5 13.5h41q0 -8 -2.5 -21t-13 -34.5t-27 -38.5t-49 -30 t-74.5 -13q-51 0 -97.5 19.5t-85.5 39t-73 19.5zM94 528q0 147 69 274t185.5 202t251.5 75t251.5 -75t185.5 -202t69 -274q0 -109 -40 -210.5t-108 -175.5t-161.5 -118t-196.5 -44q-138 0 -254.5 74.5t-184 201t-67.5 272.5zM598 20q125 0 232.5 69.5t171 187t63.5 253.5 q0 135 -63 252t-170.5 186.5t-231.5 69.5t-231.5 -70t-170.5 -188.5t-63 -255.5q0 -135 62.5 -251t169 -184.5t231.5 -68.5z" />
<glyph unicode="&#x1e4e;" horiz-adv-x="1550" d="M637 2154v158h41v-158h-41zM874 2154v158h41v-158h-41zM637 1821q-30 0 -53 -13.5t-33 -32t-14.5 -32.5t-4.5 -21h-40q0 7 2.5 19.5t11.5 34t24 39.5t44 31.5t67 13.5q53 0 128.5 -39t127.5 -39q32 0 56 9.5t35.5 22.5t19 28.5t9 24t1.5 13.5h41q0 -8 -2.5 -21t-13 -34.5 t-27 -38.5t-49 -30t-74.5 -13q-51 0 -97.5 19.5t-85.5 39t-73 19.5zM98 727q0 192 88.5 361t245.5 272.5t344 103.5q145 0 274 -64.5t215.5 -168.5t136.5 -236t50 -268q0 -194 -88.5 -363t-245 -271.5t-342.5 -102.5q-146 1 -274.5 64t-215.5 165.5t-137.5 235.5t-50.5 272z M776 31q110 0 211 39.5t177 107.5t132.5 156t85.5 189.5t29 203.5q0 180 -82.5 339.5t-230 258t-322.5 98.5q-138 0 -259 -60.5t-202.5 -158.5t-128.5 -223t-47 -254q0 -135 48.5 -261.5t131.5 -222.5t202.5 -154t254.5 -58z" />
<glyph unicode="&#x1e4f;" horiz-adv-x="1200" d="M461 1769v158h41v-158h-41zM698 1769v158h41v-158h-41zM461 1436q-30 0 -53 -13.5t-33 -32t-14.5 -32.5t-4.5 -21h-41q0 7 2.5 19.5t12 34t24.5 39.5t44 31.5t67 13.5q53 0 128.5 -39t127.5 -39q32 0 56 9.5t35.5 22.5t19 28.5t9 24t1.5 13.5h41q0 -8 -2.5 -21t-13 -34.5 t-27 -38.5t-49 -30t-74.5 -13q-51 0 -97.5 19.5t-85.5 39t-73 19.5zM94 528q0 147 69 274t185.5 202t251.5 75t251.5 -75t185.5 -202t69 -274q0 -109 -40 -210.5t-108 -175.5t-161.5 -118t-196.5 -44q-138 0 -254.5 74.5t-184 201t-67.5 272.5zM598 20q125 0 232.5 69.5 t171 187t63.5 253.5q0 135 -63 252t-170.5 186.5t-231.5 69.5t-231.5 -70t-170.5 -188.5t-63 -255.5q0 -135 62.5 -251t169 -184.5t231.5 -68.5z" />
<glyph unicode="&#x1e50;" horiz-adv-x="1550" d="M637 2263h68l133 -149l-33 -25zM489 1790v41h574v-41h-574zM98 727q0 192 88.5 361t245.5 272.5t344 103.5q145 0 274 -64.5t215.5 -168.5t136.5 -236t50 -268q0 -194 -88.5 -363t-245 -271.5t-342.5 -102.5q-146 1 -274.5 64t-215.5 165.5t-137.5 235.5t-50.5 272z M776 31q110 0 211 39.5t177 107.5t132.5 156t85.5 189.5t29 203.5q0 180 -82.5 339.5t-230 258t-322.5 98.5q-138 0 -259 -60.5t-202.5 -158.5t-128.5 -223t-47 -254q0 -135 48.5 -261.5t131.5 -222.5t202.5 -154t254.5 -58z" />
<glyph unicode="&#x1e51;" horiz-adv-x="1200" d="M461 1878h67l134 -149l-33 -25zM313 1405v41h574v-41h-574zM94 528q0 147 69 274t185.5 202t251.5 75t251.5 -75t185.5 -202t69 -274q0 -109 -40 -210.5t-108 -175.5t-161.5 -118t-196.5 -44q-138 0 -254.5 74.5t-184 201t-67.5 272.5zM598 20q125 0 232.5 69.5t171 187 t63.5 253.5q0 135 -63 252t-170.5 186.5t-231.5 69.5t-231.5 -70t-170.5 -188.5t-63 -255.5q0 -135 62.5 -251t169 -184.5t231.5 -68.5z" />
<glyph unicode="&#x1e52;" horiz-adv-x="1550" d="M788 2089l-32 25l131 149h69zM489 1790v41h574v-41h-574zM98 727q0 192 88.5 361t245.5 272.5t344 103.5q145 0 274 -64.5t215.5 -168.5t136.5 -236t50 -268q0 -194 -88.5 -363t-245 -271.5t-342.5 -102.5q-146 1 -274.5 64t-215.5 165.5t-137.5 235.5t-50.5 272zM776 31 q110 0 211 39.5t177 107.5t132.5 156t85.5 189.5t29 203.5q0 180 -82.5 339.5t-230 258t-322.5 98.5q-138 0 -259 -60.5t-202.5 -158.5t-128.5 -223t-47 -254q0 -135 48.5 -261.5t131.5 -222.5t202.5 -154t254.5 -58z" />
<glyph unicode="&#x1e53;" horiz-adv-x="1200" d="M612 1704l-32 25l131 149h69zM313 1405v41h574v-41h-574zM94 528q0 147 69 274t185.5 202t251.5 75t251.5 -75t185.5 -202t69 -274q0 -109 -40 -210.5t-108 -175.5t-161.5 -118t-196.5 -44q-138 0 -254.5 74.5t-184 201t-67.5 272.5zM598 20q125 0 232.5 69.5t171 187 t63.5 253.5q0 135 -63 252t-170.5 186.5t-231.5 69.5t-231.5 -70t-170.5 -188.5t-63 -255.5q0 -135 62.5 -251t169 -184.5t231.5 -68.5z" />
<glyph unicode="&#x1e5a;" horiz-adv-x="1314" d="M203 0v1454h592q115 0 210.5 -65t147 -165.5t51.5 -209.5q0 -173 -104.5 -302t-265.5 -141l368 -571h-49l-369 571h-540v-571h-41zM244 612h565q105 0 187.5 59t124.5 150t42 193q0 158 -108.5 278.5t-259.5 120.5h-551v-801zM627 -260v158h41v-158h-41z" />
<glyph unicode="&#x1e5b;" horiz-adv-x="661" d="M627 1022q-151 -6 -261 -99t-153 -251v-672h-41v1063h41v-275q56 113 149 186t197 85q54 4 68 4v-41zM172 -260v158h41v-158h-41z" />
<glyph unicode="&#x1e5e;" horiz-adv-x="1314" d="M203 0v1454h592q115 0 210.5 -65t147 -165.5t51.5 -209.5q0 -173 -104.5 -302t-265.5 -141l368 -571h-49l-369 571h-540v-571h-41zM244 612h565q105 0 187.5 59t124.5 150t42 193q0 158 -108.5 278.5t-259.5 120.5h-551v-801zM360 -195v41h574v-41h-574z" />
<glyph unicode="&#x1e5f;" horiz-adv-x="661" d="M627 1022q-151 -6 -261 -99t-153 -251v-672h-41v1063h41v-275q56 113 149 186t197 85q54 4 68 4v-41zM-94 -195v41h573v-41h-573z" />
<glyph unicode="&#x1e60;" horiz-adv-x="1232" d="M621 1767v158h41v-158h-41zM1042 1262q-83 92 -175 127.5t-226 35.5q-241 0 -356 -91.5t-115 -256.5q0 -45 9 -81t25 -64t45 -51.5t62.5 -41t85 -34t104.5 -29.5t128 -28q109 -22 181 -41.5t143.5 -51t112.5 -70t66 -96.5t25 -133q0 -175 -136 -270.5t-376 -95.5 q-174 0 -311 54.5t-254 170.5l31 27q109 -113 239 -165t297 -52q221 0 345 82.5t124 242.5q0 81 -27.5 138t-90.5 98.5t-148.5 69t-218.5 53.5q-108 20 -177.5 38t-137 46.5t-105 64.5t-60 90t-22.5 125q0 186 136.5 288.5t371.5 102.5q140 0 243.5 -41t188.5 -133z" />
<glyph unicode="&#x1e61;" horiz-adv-x="964" d="M471 1337v158h41v-158h-41zM481 -20q-249 0 -405 172l30 26q83 -81 173 -119.5t202 -38.5q159 0 257 69.5t98 189.5q0 38 -10 67.5t-34.5 53t-51 40t-75 32.5t-89.5 27t-111 27q-45 11 -69 17t-59 16.5t-53.5 18t-43.5 19.5t-37 23.5t-27 28t-21.5 35.5t-11 42.5 t-4.5 51.5q0 77 30 136t82.5 94t119 53t143.5 18q125 0 217.5 -42.5t128.5 -110.5l-37 -17q-37 61 -124.5 95t-192.5 34q-92 0 -163.5 -25.5t-117 -84t-45.5 -144.5q0 -35 6.5 -61.5t24.5 -47t37 -34.5t57 -27.5t70.5 -23t91.5 -23.5q68 -16 104 -25t87.5 -24.5t78 -28.5 t58 -34t46.5 -44.5t25.5 -55t10.5 -70.5q0 -139 -108.5 -222t-287.5 -83z" />
<glyph unicode="&#x1e62;" horiz-adv-x="1232" d="M1042 1262q-83 92 -175 127.5t-226 35.5q-241 0 -356 -91.5t-115 -256.5q0 -45 9 -81t25 -64t45 -51.5t62.5 -41t85 -34t104.5 -29.5t128 -28q109 -22 181 -41.5t143.5 -51t112.5 -70t66 -96.5t25 -133q0 -175 -136 -270.5t-376 -95.5q-174 0 -311 54.5t-254 170.5l31 27 q109 -113 239 -165t297 -52q221 0 345 82.5t124 242.5q0 81 -27.5 138t-90.5 98.5t-148.5 69t-218.5 53.5q-108 20 -177.5 38t-137 46.5t-105 64.5t-60 90t-22.5 125q0 186 136.5 288.5t371.5 102.5q140 0 243.5 -41t188.5 -133zM616 -260v158h41v-158h-41z" />
<glyph unicode="&#x1e63;" horiz-adv-x="964" d="M481 -20q-249 0 -405 172l30 26q83 -81 173 -119.5t202 -38.5q159 0 257 69.5t98 189.5q0 38 -10 67.5t-34.5 53t-51 40t-75 32.5t-89.5 27t-111 27q-45 11 -69 17t-59 16.5t-53.5 18t-43.5 19.5t-37 23.5t-27 28t-21.5 35.5t-11 42.5t-4.5 51.5q0 77 30 136t82.5 94 t119 53t143.5 18q125 0 217.5 -42.5t128.5 -110.5l-37 -17q-37 61 -124.5 95t-192.5 34q-92 0 -163.5 -25.5t-117 -84t-45.5 -144.5q0 -35 6.5 -61.5t24.5 -47t37 -34.5t57 -27.5t70.5 -23t91.5 -23.5q68 -16 104 -25t87.5 -24.5t78 -28.5t58 -34t46.5 -44.5t25.5 -55 t10.5 -70.5q0 -139 -108.5 -222t-287.5 -83zM461 -260v158h41v-158h-41z" />
<glyph unicode="&#x1e64;" horiz-adv-x="1232" d="M700 2200v157h41v-157h-41zM653 1751l-32 25l131 149h69zM1042 1262q-83 92 -175 127.5t-226 35.5q-241 0 -356 -91.5t-115 -256.5q0 -45 9 -81t25 -64t45 -51.5t62.5 -41t85 -34t104.5 -29.5t128 -28q109 -22 181 -41.5t143.5 -51t112.5 -70t66 -96.5t25 -133 q0 -175 -136 -270.5t-376 -95.5q-174 0 -311 54.5t-254 170.5l31 27q109 -113 239 -165t297 -52q221 0 345 82.5t124 242.5q0 81 -27.5 138t-90.5 98.5t-148.5 69t-218.5 53.5q-108 20 -177.5 38t-137 46.5t-105 64.5t-60 90t-22.5 125q0 186 136.5 288.5t371.5 102.5 q140 0 243.5 -41t188.5 -133z" />
<glyph unicode="&#x1e65;" horiz-adv-x="964" d="M551 1769v158h41v-158h-41zM504 1321l-33 25l131 149h70zM481 -20q-249 0 -405 172l30 26q83 -81 173 -119.5t202 -38.5q159 0 257 69.5t98 189.5q0 38 -10 67.5t-34.5 53t-51 40t-75 32.5t-89.5 27t-111 27q-45 11 -69 17t-59 16.5t-53.5 18t-43.5 19.5t-37 23.5t-27 28 t-21.5 35.5t-11 42.5t-4.5 51.5q0 77 30 136t82.5 94t119 53t143.5 18q125 0 217.5 -42.5t128.5 -110.5l-37 -17q-37 61 -124.5 95t-192.5 34q-92 0 -163.5 -25.5t-117 -84t-45.5 -144.5q0 -35 6.5 -61.5t24.5 -47t37 -34.5t57 -27.5t70.5 -23t91.5 -23.5q68 -16 104 -25 t87.5 -24.5t78 -28.5t58 -34t46.5 -44.5t25.5 -55t10.5 -70.5q0 -139 -108.5 -222t-287.5 -83z" />
<glyph unicode="&#x1e66;" horiz-adv-x="1232" d="M621 2200v157h41v-157h-41zM467 1925l174 -129l174 129l33 -24l-191 -152h-32l-191 152zM1042 1262q-83 92 -175 127.5t-226 35.5q-241 0 -356 -91.5t-115 -256.5q0 -45 9 -81t25 -64t45 -51.5t62.5 -41t85 -34t104.5 -29.5t128 -28q109 -22 181 -41.5t143.5 -51 t112.5 -70t66 -96.5t25 -133q0 -175 -136 -270.5t-376 -95.5q-174 0 -311 54.5t-254 170.5l31 27q109 -113 239 -165t297 -52q221 0 345 82.5t124 242.5q0 81 -27.5 138t-90.5 98.5t-148.5 69t-218.5 53.5q-108 20 -177.5 38t-137 46.5t-105 64.5t-60 90t-22.5 125 q0 186 136.5 288.5t371.5 102.5q140 0 243.5 -41t188.5 -133z" />
<glyph unicode="&#x1e67;" horiz-adv-x="964" d="M471 1769v158h41v-158h-41zM317 1495l175 -129l174 129l32 -25l-190 -151h-33l-190 151zM481 -20q-249 0 -405 172l30 26q83 -81 173 -119.5t202 -38.5q159 0 257 69.5t98 189.5q0 38 -10 67.5t-34.5 53t-51 40t-75 32.5t-89.5 27t-111 27q-45 11 -69 17t-59 16.5 t-53.5 18t-43.5 19.5t-37 23.5t-27 28t-21.5 35.5t-11 42.5t-4.5 51.5q0 77 30 136t82.5 94t119 53t143.5 18q125 0 217.5 -42.5t128.5 -110.5l-37 -17q-37 61 -124.5 95t-192.5 34q-92 0 -163.5 -25.5t-117 -84t-45.5 -144.5q0 -35 6.5 -61.5t24.5 -47t37 -34.5t57 -27.5 t70.5 -23t91.5 -23.5q68 -16 104 -25t87.5 -24.5t78 -28.5t58 -34t46.5 -44.5t25.5 -55t10.5 -70.5q0 -139 -108.5 -222t-287.5 -83z" />
<glyph unicode="&#x1e68;" horiz-adv-x="1232" d="M621 1767v158h41v-158h-41zM1042 1262q-83 92 -175 127.5t-226 35.5q-241 0 -356 -91.5t-115 -256.5q0 -45 9 -81t25 -64t45 -51.5t62.5 -41t85 -34t104.5 -29.5t128 -28q109 -22 181 -41.5t143.5 -51t112.5 -70t66 -96.5t25 -133q0 -175 -136 -270.5t-376 -95.5 q-174 0 -311 54.5t-254 170.5l31 27q109 -113 239 -165t297 -52q221 0 345 82.5t124 242.5q0 81 -27.5 138t-90.5 98.5t-148.5 69t-218.5 53.5q-108 20 -177.5 38t-137 46.5t-105 64.5t-60 90t-22.5 125q0 186 136.5 288.5t371.5 102.5q140 0 243.5 -41t188.5 -133z M616 -260v158h41v-158h-41z" />
<glyph unicode="&#x1e69;" horiz-adv-x="964" d="M471 1337v158h41v-158h-41zM481 -20q-249 0 -405 172l30 26q83 -81 173 -119.5t202 -38.5q159 0 257 69.5t98 189.5q0 38 -10 67.5t-34.5 53t-51 40t-75 32.5t-89.5 27t-111 27q-45 11 -69 17t-59 16.5t-53.5 18t-43.5 19.5t-37 23.5t-27 28t-21.5 35.5t-11 42.5 t-4.5 51.5q0 77 30 136t82.5 94t119 53t143.5 18q125 0 217.5 -42.5t128.5 -110.5l-37 -17q-37 61 -124.5 95t-192.5 34q-92 0 -163.5 -25.5t-117 -84t-45.5 -144.5q0 -35 6.5 -61.5t24.5 -47t37 -34.5t57 -27.5t70.5 -23t91.5 -23.5q68 -16 104 -25t87.5 -24.5t78 -28.5 t58 -34t46.5 -44.5t25.5 -55t10.5 -70.5q0 -139 -108.5 -222t-287.5 -83zM461 -260v158h41v-158h-41z" />
<glyph unicode="&#x1e6c;" horiz-adv-x="1228" d="M1192 1413h-557v-1413h-41v1413h-557v41h1155v-41zM594 -260v158h41v-158h-41z" />
<glyph unicode="&#x1e6d;" horiz-adv-x="604" d="M586 49q-5 -5 -25.5 -17t-70 -27t-99.5 -15q-76 0 -130 46t-54 118v868h-154v41h154v371h41v-371h256v-41h-256v-868q4 -58 45 -90.5t98 -32.5q42 0 84.5 12.5t63 23.5t24.5 15zM369 -260v158h41v-158h-41z" />
<glyph unicode="&#x1e6e;" horiz-adv-x="1228" d="M1192 1413h-557v-1413h-41v1413h-557v41h1155v-41zM328 -195v41h573v-41h-573z" />
<glyph unicode="&#x1e6f;" horiz-adv-x="604" d="M586 49q-5 -5 -25.5 -17t-70 -27t-99.5 -15q-76 0 -130 46t-54 118v868h-154v41h154v371h41v-371h256v-41h-256v-868q4 -58 45 -90.5t98 -32.5q42 0 84.5 12.5t63 23.5t24.5 15zM102 -195v41h574v-41h-574z" />
<glyph unicode="&#x1e78;" horiz-adv-x="1548" d="M788 2138l-32 25l131 149h69zM637 1821q-30 0 -53 -13.5t-33 -32t-14.5 -32.5t-4.5 -21h-40q0 7 2.5 19.5t11.5 34t24 39.5t44 31.5t67 13.5q53 0 128.5 -39t127.5 -39q32 0 56 9.5t35.5 22.5t19 28.5t9 24t1.5 13.5h41q0 -8 -2.5 -21t-13 -34.5t-27 -38.5t-49 -30 t-74.5 -13q-51 0 -97.5 19.5t-85.5 39t-73 19.5zM776 -10q-134 0 -238.5 42t-170.5 111.5t-109.5 167t-60.5 199.5t-17 217v727h41v-727q0 -111 16 -207.5t55.5 -188t100.5 -156.5t158.5 -104.5t222.5 -39.5q127 0 225.5 40.5t159.5 106t100.5 158t54.5 188t15 203.5v727h41 v-727q0 -120 -18.5 -225t-62.5 -200.5t-111 -163.5t-169.5 -108t-232.5 -40z" />
<glyph unicode="&#x1e79;" d="M590 1753l-33 25l131 149h70zM438 1436q-30 0 -52.5 -13.5t-32.5 -32t-14.5 -32.5t-4.5 -21h-41q0 7 2.5 19.5t11.5 34t24 39.5t44 31.5t67 13.5q53 0 128.5 -39t127.5 -39q32 0 56 9.5t35.5 22.5t19 28.5t9 24t1.5 13.5h41q0 -8 -2.5 -21t-13 -34.5t-27 -38.5t-49 -30 t-74.5 -13q-51 0 -97.5 19.5t-85.5 39t-73 19.5zM160 467v596h41v-596q0 -226 74.5 -336.5t226.5 -110.5q154 0 285 103.5t178 263.5v676h41v-981q0 -41 32 -41v-41q-22 0 -28 4q-20 7 -32.5 29t-12.5 49v188q-69 -133 -194.5 -211.5t-268.5 -78.5q-169 0 -255.5 123 t-86.5 364z" />
<glyph unicode="&#x1e7a;" horiz-adv-x="1548" d="M637 2105v158h41v-158h-41zM874 2105v158h41v-158h-41zM489 1790v41h574v-41h-574zM776 -10q-134 0 -238.5 42t-170.5 111.5t-109.5 167t-60.5 199.5t-17 217v727h41v-727q0 -111 16 -207.5t55.5 -188t100.5 -156.5t158.5 -104.5t222.5 -39.5q127 0 225.5 40.5t159.5 106 t100.5 158t54.5 188t15 203.5v727h41v-727q0 -120 -18.5 -225t-62.5 -200.5t-111 -163.5t-169.5 -108t-232.5 -40z" />
<glyph unicode="&#x1e7b;" d="M438 1720v158h41v-158h-41zM676 1720v158h41v-158h-41zM291 1405v41h573v-41h-573zM160 467v596h41v-596q0 -226 74.5 -336.5t226.5 -110.5q154 0 285 103.5t178 263.5v676h41v-981q0 -41 32 -41v-41q-22 0 -28 4q-20 7 -32.5 29t-12.5 49v188q-69 -133 -194.5 -211.5 t-268.5 -78.5q-169 0 -255.5 123t-86.5 364z" />
<glyph unicode="&#x1e80;" horiz-adv-x="2125" d="M922 1880h67l133 -149l-32 -25zM780 1442h45l236 -545l237 545h45l-260 -594l349 -797l610 1403h45l-633 -1454h-45l-346 797l-346 -797h-45l-633 1454h45l610 -1403l346 797z" />
<glyph unicode="&#x1e81;" horiz-adv-x="1626" d="M674 1495h67l133 -149l-32 -25zM1530 1063h45l-465 -1063h-37l-260 596l-260 -596h-37l-465 1063h45l439 -1004l256 588l-179 414h43l158 -361l158 361h43l-178 -414l256 -588z" />
<glyph unicode="&#x1e82;" horiz-adv-x="2125" d="M1073 1706l-33 25l131 149h70zM780 1442h45l236 -545l237 545h45l-260 -594l349 -797l610 1403h45l-633 -1454h-45l-346 797l-346 -797h-45l-633 1454h45l610 -1403l346 797z" />
<glyph unicode="&#x1e83;" horiz-adv-x="1626" d="M825 1321l-32 25l131 149h69zM1530 1063h45l-465 -1063h-37l-260 596l-260 -596h-37l-465 1063h45l439 -1004l256 588l-179 414h43l158 -361l158 361h43l-178 -414l256 -588z" />
<glyph unicode="&#x1e84;" horiz-adv-x="2125" d="M922 1722v158h41v-158h-41zM1159 1722v158h41v-158h-41zM780 1442h45l236 -545l237 545h45l-260 -594l349 -797l610 1403h45l-633 -1454h-45l-346 797l-346 -797h-45l-633 1454h45l610 -1403l346 797z" />
<glyph unicode="&#x1e85;" horiz-adv-x="1626" d="M674 1337v158h41v-158h-41zM911 1337v158h41v-158h-41zM1530 1063h45l-465 -1063h-37l-260 596l-260 -596h-37l-465 1063h45l439 -1004l256 588l-179 414h43l158 -361l158 361h43l-178 -414l256 -588z" />
<glyph unicode="&#x1e8e;" horiz-adv-x="1312" d="M635 1722v158h41v-158h-41zM94 1454l561 -844l564 844h47l-590 -891v-563h-41v567l-588 887h47z" />
<glyph unicode="&#x1e8f;" horiz-adv-x="1097" d="M537 1337v158h41v-158h-41zM262 -416q80 0 96 21t179 395l-494 1063h45l469 -1012l444 1012h46l-633 -1444q-23 -53 -68 -65q-46 -11 -84 -11v41z" />
<glyph unicode="&#x1e92;" horiz-adv-x="1277" d="M57 41l1110 1372h-1099v41h1151v-41l-1110 -1372h1101v-41h-1153v41zM618 -260v158h41v-158h-41z" />
<glyph unicode="&#x1e93;" horiz-adv-x="999" d="M68 41l811 981h-801v41h852v-41l-809 -981h801v-41h-854v41zM479 -260v158h41v-158h-41z" />
<glyph unicode="&#x1e97;" horiz-adv-x="604" d="M92 1729v157h41v-157h-41zM330 1729v157h41v-157h-41zM586 49q-5 -5 -25.5 -17t-70 -27t-99.5 -15q-76 0 -130 46t-54 118v868h-154v41h154v371h41v-371h256v-41h-256v-868q4 -58 45 -90.5t98 -32.5q42 0 84.5 12.5t63 23.5t24.5 15z" />
<glyph unicode="&#x1e9e;" horiz-adv-x="1210" d="M713 567q47 -11 73.5 -17.5t66 -16.5t61.5 -18t52 -19.5t47 -22.5t37.5 -26t31.5 -31.5t21.5 -36.5t14.5 -43.5t4 -50.5q0 -139 -108 -222t-287 -83q-249 0 -405 172l30 26q83 -81 173 -119.5t202 -38.5q159 0 256.5 69.5t97.5 189.5q0 33 -9 59.5t-21.5 46.5t-40 37.5 t-51 29.5t-70 26.5t-80.5 23l-98 24.5q-56 14 -87 22t-71.5 21.5t-61.5 25t-45 29.5t-35 38.5t-18.5 48.5t-7.5 63q0 44 11 81.5t29 66.5t49 53.5t62 42.5t78.5 33.5t88.5 25.5t100.5 19.5t106 15.5t114.5 14q-10 135 -110.5 215t-251.5 80q-199 0 -324 -137.5t-125 -363.5 v-920h-41v920q0 243 138 392.5t358 149.5q168 0 273 -91.5t124 -244.5l4 -32q-88 -9 -151 -17t-135 -21.5t-121 -29t-97 -39t-76 -52.5t-45.5 -68.5t-17.5 -88.5q0 -41 13 -71t32.5 -49.5t60.5 -36.5t77.5 -27.5t103.5 -26.5z" />
<glyph unicode="&#x1ea0;" horiz-adv-x="1380" d="M672 1454h37l632 -1454h-45l-227 520h-760l-227 -520h-45zM1051 561l-361 834l-364 -834h725zM690 -260v158h41v-158h-41z" />
<glyph unicode="&#x1ea1;" horiz-adv-x="1073" d="M80 305q0 134 122.5 218.5t315.5 84.5q197 0 356 -59v121q0 166 -95.5 267t-252.5 101q-158 0 -344 -131l-24 33q204 139 368 139q178 0 283.5 -110.5t105.5 -298.5v-588q0 -41 33 -41v-41q-22 0 -28 4q-20 7 -33 29.5t-13 48.5v98q-73 -95 -192 -147.5t-258 -52.5 q-145 0 -244.5 94t-99.5 231zM844 209q30 44 30 84v211q-163 63 -356 63q-179 0 -288 -72t-109 -190q0 -120 87.5 -202.5t215.5 -82.5q136 0 250 51.5t170 137.5zM530 -260v158h41v-158h-41z" />
<glyph unicode="&#x1ea2;" horiz-adv-x="1380" d="M592 1782l-25 26q37 33 63.5 47.5t63.5 14.5q51 0 84 -31.5t33 -85.5q0 -11 -1.5 -21t-6.5 -20.5t-9 -17.5t-13.5 -19t-14.5 -17.5t-18 -20.5t-19 -21l-24 22q37 42 53 67t16 48q0 35 -21 57.5t-63 22.5q-26 0 -44.5 -10.5t-53.5 -40.5zM672 1454h37l632 -1454h-45 l-227 520h-760l-227 -520h-45zM1051 561l-361 834l-364 -834h725z" />
<glyph unicode="&#x1ea3;" horiz-adv-x="1073" d="M428 1397l-25 26q37 33 63.5 47.5t63.5 14.5q51 0 84 -31.5t33 -85.5q0 -11 -1.5 -21t-6.5 -20.5t-9 -17.5t-13.5 -19t-14.5 -17.5t-18 -20.5t-19 -21l-24 22q37 42 53 67t16 48q0 35 -21 57.5t-63 22.5q-26 0 -44.5 -10.5t-53.5 -40.5zM80 305q0 134 122.5 218.5 t315.5 84.5q197 0 356 -59v121q0 166 -95.5 267t-252.5 101q-158 0 -344 -131l-24 33q204 139 368 139q178 0 283.5 -110.5t105.5 -298.5v-588q0 -41 33 -41v-41q-22 0 -28 4q-20 7 -33 29.5t-13 48.5v98q-73 -95 -192 -147.5t-258 -52.5q-145 0 -244.5 94t-99.5 231z M844 209q30 44 30 84v211q-163 63 -356 63q-179 0 -288 -72t-109 -190q0 -120 87.5 -202.5t215.5 -82.5q136 0 250 51.5t170 137.5z" />
<glyph unicode="&#x1ea4;" horiz-adv-x="1380" d="M885 1700l-33 24l131 150h70zM477 1632l191 152h32l191 -152l-33 -24l-174 129l-174 -129zM672 1454h37l632 -1454h-45l-227 520h-760l-227 -520h-45zM1051 561l-361 834l-364 -834h725z" />
<glyph unicode="&#x1ea5;" horiz-adv-x="1073" d="M721 1315l-33 24l131 150h70zM313 1247l191 152h33l190 -152l-33 -24l-174 129l-174 -129zM80 305q0 134 122.5 218.5t315.5 84.5q197 0 356 -59v121q0 166 -95.5 267t-252.5 101q-158 0 -344 -131l-24 33q204 139 368 139q178 0 283.5 -110.5t105.5 -298.5v-588 q0 -41 33 -41v-41q-22 0 -28 4q-20 7 -33 29.5t-13 48.5v98q-73 -95 -192 -147.5t-258 -52.5q-145 0 -244.5 94t-99.5 231zM844 209q30 44 30 84v211q-163 63 -356 63q-179 0 -288 -72t-109 -190q0 -120 87.5 -202.5t215.5 -82.5q136 0 250 51.5t170 137.5z" />
<glyph unicode="&#x1ea6;" horiz-adv-x="1380" d="M317 1907h68l133 -150l-33 -24zM475 1632l191 152h32l191 -152l-33 -24l-174 129l-174 -129zM672 1454h37l632 -1454h-45l-227 520h-760l-227 -520h-45zM1051 561l-361 834l-364 -834h725z" />
<glyph unicode="&#x1ea7;" horiz-adv-x="1073" d="M154 1522h67l133 -150l-32 -24zM311 1247l191 152h33l190 -152l-33 -24l-174 129l-174 -129zM80 305q0 134 122.5 218.5t315.5 84.5q197 0 356 -59v121q0 166 -95.5 267t-252.5 101q-158 0 -344 -131l-24 33q204 139 368 139q178 0 283.5 -110.5t105.5 -298.5v-588 q0 -41 33 -41v-41q-22 0 -28 4q-20 7 -33 29.5t-13 48.5v98q-73 -95 -192 -147.5t-258 -52.5q-145 0 -244.5 94t-99.5 231zM844 209q30 44 30 84v211q-163 63 -356 63q-179 0 -288 -72t-109 -190q0 -120 87.5 -202.5t215.5 -82.5q136 0 250 51.5t170 137.5z" />
<glyph unicode="&#x1ea8;" horiz-adv-x="1380" d="M741 1901l-24 26q37 33 63.5 47.5t63.5 14.5q51 0 84 -31.5t33 -85.5q0 -11 -1.5 -21t-6.5 -20.5t-9 -17.5t-13.5 -19t-14.5 -17.5t-18 -20.5t-19 -21l-25 22q38 43 54 67.5t16 47.5q0 35 -21 57.5t-63 22.5q-26 0 -45.5 -11t-53.5 -40zM473 1632l191 152h32l191 -152 l-33 -24l-174 129l-174 -129zM672 1454h37l632 -1454h-45l-227 520h-760l-227 -520h-45zM1051 561l-361 834l-364 -834h725z" />
<glyph unicode="&#x1ea9;" horiz-adv-x="1073" d="M578 1516l-25 26q37 33 63.5 47.5t63.5 14.5q51 0 84 -31.5t33 -85.5q0 -11 -1.5 -21t-6.5 -20.5t-9 -17.5t-13.5 -19t-14.5 -17.5t-18 -20.5t-19 -21l-25 22q38 43 54 67.5t16 47.5q0 35 -21 57.5t-63 22.5q-26 0 -44.5 -10.5t-53.5 -40.5zM309 1247l191 152h32 l191 -152l-33 -24l-174 129l-174 -129zM80 305q0 134 122.5 218.5t315.5 84.5q197 0 356 -59v121q0 166 -95.5 267t-252.5 101q-158 0 -344 -131l-24 33q204 139 368 139q178 0 283.5 -110.5t105.5 -298.5v-588q0 -41 33 -41v-41q-22 0 -28 4q-20 7 -33 29.5t-13 48.5v98 q-73 -95 -192 -147.5t-258 -52.5q-145 0 -244.5 94t-99.5 231zM844 209q30 44 30 84v211q-163 63 -356 63q-179 0 -288 -72t-109 -190q0 -120 87.5 -202.5t215.5 -82.5q136 0 250 51.5t170 137.5z" />
<glyph unicode="&#x1eaa;" horiz-adv-x="1380" d="M565 1913q-30 0 -52.5 -13t-32.5 -32t-14.5 -32.5t-4.5 -20.5h-41q0 7 2.5 19.5t11.5 34t24 39t44 31t67 13.5q53 0 128.5 -39t127.5 -39q32 0 56 9.5t35.5 22.5t19 28.5t9 24t1.5 13.5h41q0 -8 -2.5 -21t-13 -34.5t-27 -38.5t-49 -30t-74.5 -13q-51 0 -97.5 19.5 t-85.5 39t-73 19.5zM475 1634l191 152h32l191 -152l-33 -24l-174 129l-174 -129zM672 1454h37l632 -1454h-45l-227 520h-760l-227 -520h-45zM1051 561l-361 834l-364 -834h725z" />
<glyph unicode="&#x1eab;" horiz-adv-x="1073" d="M401 1528q-30 0 -52.5 -13t-32.5 -32t-14.5 -32.5t-4.5 -20.5h-41q0 7 2.5 19.5t12 34t24.5 39t44 31t67 13.5q53 0 128.5 -39t127.5 -39q32 0 56 9.5t35.5 22.5t18.5 28.5t8.5 24t1.5 13.5h41q0 -8 -2.5 -21t-13 -34.5t-27 -38.5t-49 -30t-74.5 -13q-51 0 -97.5 19.5 t-85.5 39t-73 19.5zM311 1249l191 152h33l190 -152l-33 -24l-174 129l-174 -129zM80 305q0 134 122.5 218.5t315.5 84.5q197 0 356 -59v121q0 166 -95.5 267t-252.5 101q-158 0 -344 -131l-24 33q204 139 368 139q178 0 283.5 -110.5t105.5 -298.5v-588q0 -41 33 -41v-41 q-22 0 -28 4q-20 7 -33 29.5t-13 48.5v98q-73 -95 -192 -147.5t-258 -52.5q-145 0 -244.5 94t-99.5 231zM844 209q30 44 30 84v211q-163 63 -356 63q-179 0 -288 -72t-109 -190q0 -120 87.5 -202.5t215.5 -82.5q136 0 250 51.5t170 137.5z" />
<glyph unicode="&#x1eac;" horiz-adv-x="1380" d="M483 1729l191 151h33l190 -151l-33 -25l-174 129l-174 -129zM672 1454h37l632 -1454h-45l-227 520h-760l-227 -520h-45zM1051 561l-361 834l-364 -834h725zM690 -260v158h41v-158h-41z" />
<glyph unicode="&#x1ead;" horiz-adv-x="1073" d="M319 1343l191 152h33l190 -152l-33 -24l-174 129l-174 -129zM80 305q0 134 122.5 218.5t315.5 84.5q197 0 356 -59v121q0 166 -95.5 267t-252.5 101q-158 0 -344 -131l-24 33q204 139 368 139q178 0 283.5 -110.5t105.5 -298.5v-588q0 -41 33 -41v-41q-22 0 -28 4 q-20 7 -33 29.5t-13 48.5v98q-73 -95 -192 -147.5t-258 -52.5q-145 0 -244.5 94t-99.5 231zM844 209q30 44 30 84v211q-163 63 -356 63q-179 0 -288 -72t-109 -190q0 -120 87.5 -202.5t215.5 -82.5q136 0 250 51.5t170 137.5zM530 -260v158h41v-158h-41z" />
</font>
</defs>
</svg>
