<?xml version="1.0" standalone="no"?>
<!DOCTYPE svg PUBLIC "-//W3C//DTD SVG 1.1//EN" "http://www.w3.org/Graphics/SVG/1.1/DTD/svg11.dtd" >
<svg xmlns="http://www.w3.org/2000/svg" xmlns:xlink="http://www.w3.org/1999/xlink" version="1.1">
<metadata></metadata>
<defs>
<font id="rawlineextralight" horiz-adv-x="0" >
<font-face units-per-em="2048" ascent="1638" descent="-410" />
<missing-glyph horiz-adv-x="530" />
<glyph unicode="fi" horiz-adv-x="956" d="M209 1004h-152v61h152v39q0 56 11 111.5t37.5 110.5t65 96.5t98.5 67.5t134 26q66 0 129.5 -17.5t94 -34t40.5 -26.5l-43 -47q-24 24 -85 41.5t-134 17.5q-72 0 -127.5 -31t-87.5 -82.5t-47.5 -110.5t-15.5 -122v-39h512v-1065h-70v1004h-442v-1004h-70v1004z" />
<glyph unicode="fl" horiz-adv-x="1114" d="M956 -10q-80 0 -127 50.5t-47 127.5v1063q0 42 -13.5 79.5t-41 69.5t-76 51t-112.5 19q-54 0 -98 -20t-73.5 -53t-49.5 -78.5t-29 -94.5t-10 -102v-37h247v-61h-247v-1004h-70v1004h-152v61h152v41q0 88 19 160.5t57.5 129.5t102.5 88.5t149 31.5q149 0 232 -78t83 -199 v-1057q0 -56 30.5 -92.5t84.5 -36.5q45 0 129 21l20 -62q-12 -6 -62 -14t-98 -8z" />
<glyph unicode="&#xd;" />
<glyph unicode=" "  horiz-adv-x="530" />
<glyph unicode="&#x09;" horiz-adv-x="530" />
<glyph unicode="&#xa0;" horiz-adv-x="530" />
<glyph unicode="!" horiz-adv-x="481" d="M205 426v1042h71v-1042h-71zM205 0v188h71v-188h-71z" />
<glyph unicode="&#x22;" horiz-adv-x="487" d="M147 1139v319h64v-319h-64zM276 1139v319h64v-319h-64z" />
<glyph unicode="#" horiz-adv-x="1349" d="M1272 971h-248l-113 -465h277v-62h-293l-107 -444h-65l111 444h-461l-109 -444h-63l108 444h-231v62h246l112 465h-274v59h289l104 424h63l-104 -424h461l102 424h66l-105 -424h234v-59zM848 506l113 465h-461l-113 -465h461z" />
<glyph unicode="$" horiz-adv-x="1259" d="M1176 365q0 -181 -137 -278t-375 -97v-187h-56v189q-302 15 -518 219l43 53q190 -196 477 -211v647q-98 20 -166 39.5t-129 48.5t-97 66t-56.5 89.5t-20.5 121.5q0 181 125.5 284.5t341.5 114.5v205h56v-205q135 -2 239.5 -43.5t190.5 -128.5l-39 -53q-76 84 -170 121 t-223 39v-641q86 -17 148.5 -33.5t124.5 -39.5t103 -52t74 -67t48.5 -88t15.5 -113zM213 1075q0 -56 15 -98.5t43.5 -73t79 -55t110.5 -42t149 -36.5v629q-202 -9 -299.5 -94t-97.5 -230zM664 51q208 0 324 77t116 226q0 75 -25.5 128t-83 92t-135.5 65t-198 51v-639h2z" />
<glyph unicode="%" horiz-adv-x="1398" d="M94 1188q0 119 84.5 203t204.5 84t204.5 -84t84.5 -203q0 -118 -84.5 -201.5t-204.5 -83.5t-204.5 83.5t-84.5 201.5zM109 33l571 710l567 715l45 -35l-575 -714l-565 -713zM612 1188q0 97 -68.5 165t-160.5 68q-95 0 -162 -69.5t-67 -163.5q0 -97 67.5 -165.5 t161.5 -68.5q95 0 162 70t67 164zM727 266q0 118 85.5 201.5t205.5 83.5t204.5 -83.5t84.5 -201.5q0 -120 -84.5 -203t-204.5 -83t-205.5 83t-85.5 203zM1247 266q0 95 -69 164.5t-160 69.5q-95 0 -162.5 -70t-67.5 -164q0 -98 67 -165.5t163 -67.5q95 0 162 69.5t67 163.5z " />
<glyph unicode="&#x26;" horiz-adv-x="1318" d="M1303 0h-95l-200 211q-85 -108 -200.5 -169.5t-252.5 -61.5q-87 0 -168 25.5t-144 72t-101 119t-38 159.5q0 58 18.5 112t46.5 96t76 87t90 77t105 75q-124 133 -172.5 212.5t-48.5 153.5q0 123 101 213.5t247 90.5q136 0 226 -78t90 -193q0 -48 -20 -95t-48.5 -83.5 t-79.5 -80.5t-91.5 -72.5t-106.5 -73.5l467 -486q100 179 100 385h63q0 -241 -120 -430zM567 1411q-119 0 -199.5 -70.5t-80.5 -171.5q0 -58 42.5 -129t166.5 -200q70 48 110 76.5t86 67.5t69.5 69.5t39.5 68t16 76.5q0 92 -71.5 152.5t-178.5 60.5zM563 39 q122 0 225.5 57.5t176.5 157.5l-482 506q-57 -39 -97.5 -70t-83 -72t-68.5 -79.5t-43 -87t-17 -99.5q0 -76 35 -137.5t91.5 -98.5t124.5 -57t138 -20z" />
<glyph unicode="'" horiz-adv-x="358" d="M147 1137v321h64v-321h-64z" />
<glyph unicode="(" horiz-adv-x="499" d="M375 1495l55 -33q-104 -154 -185 -370t-81 -392q0 -158 70.5 -351.5t195.5 -375.5l-55 -32q-277 408 -277 766q0 192 71.5 377.5t205.5 410.5z" />
<glyph unicode=")" horiz-adv-x="497" d="M125 -59l-53 32q124 182 194 375.5t70 351.5q0 176 -81 392t-185 370l55 33q133 -224 204.5 -410t71.5 -378q0 -360 -276 -766z" />
<glyph unicode="*" horiz-adv-x="630" d="M188 1145l86 119l-139 45l17 49l137 -47v145h53l-2 -145l139 47l15 -49l-138 -45l88 -119l-45 -31l-84 121l-86 -121z" />
<glyph unicode="+" horiz-adv-x="845" d="M733 758v-62h-276v-299h-68v299h-276v62h276v299h68v-299h276z" />
<glyph unicode="," horiz-adv-x="512" d="M219 -166l25 154h-27v164h78v-164l-35 -154h-41z" />
<glyph unicode="-" horiz-adv-x="862" d="M139 522v68h584v-68h-584z" />
<glyph unicode="." horiz-adv-x="342" d="M139 0v152h64v-152h-64z" />
<glyph unicode="/" horiz-adv-x="1138" d="M1081 1454l-944 -1454h-82l942 1454h84z" />
<glyph unicode="0" horiz-adv-x="1378" d="M104 717q0 105 25.5 210.5t76.5 200t120.5 167.5t163 116t198.5 43q112 0 209 -46t165 -122t117 -172.5t72 -198t23 -198.5q0 -106 -26 -211.5t-77 -199t-120.5 -166t-163.5 -115.5t-199 -45q-111 3 -208 49.5t-164.5 120.5t-116 169t-72 196.5t-23.5 201.5zM688 47 q99 0 184.5 42.5t144.5 111.5t102 157t63 180t20 179q0 119 -36 237t-100.5 214.5t-163.5 157t-214 60.5q-99 0 -184.5 -42.5t-144 -111.5t-101 -157t-62.5 -179.5t-20 -178.5q3 -96 25 -190t65.5 -181t102 -153.5t141.5 -106t178 -39.5z" />
<glyph unicode="1" horiz-adv-x="765" d="M731 66v-66h-602v66h272v1314q-39 -54 -140.5 -115t-178.5 -61v68q40 0 87 20.5t85.5 49t72.5 58.5t53 50.5t21 24.5h70v-1409h260z" />
<glyph unicode="2" horiz-adv-x="1161" d="M104 0q-7 134 18.5 240.5t81.5 182.5t127.5 129.5t166.5 94.5q30 14 78 33.5t82 33t78 35t75 41.5t63.5 49t52 60.5t32 74t12.5 91.5q0 67 -22.5 127t-66 108t-116 76.5t-164.5 28.5q-85 0 -159 -23t-126.5 -62t-85.5 -72.5t-59 -71.5l-51 41q5 10 22.5 33t60 63.5 t95.5 74.5t136 59.5t173 25.5q107 0 192 -34.5t137 -92.5t79.5 -130.5t27.5 -152.5q0 -54 -14 -102t-34 -83.5t-55.5 -69t-65.5 -55t-77.5 -45.5t-78 -37t-81.5 -33t-73 -30q-104 -43 -179 -99.5t-114.5 -109t-62 -118t-28 -111.5t-5.5 -104h871v-66h-943z" />
<glyph unicode="3" horiz-adv-x="1193" d="M598 -18q-203 0 -342.5 103.5t-149.5 262.5l56 23q6 -134 131.5 -228t306.5 -94q179 0 297.5 92.5t118.5 233.5q0 150 -135 241t-357 91h-71v63h71q218 0 334.5 76.5t116.5 220.5q0 148 -114 244t-286 96q-138 0 -244.5 -62.5t-148.5 -164.5l-55 39q51 116 172.5 185 t273.5 69q204 0 339 -116t135 -290q0 -254 -293 -328q150 -29 240.5 -131t90.5 -239q0 -167 -140.5 -277t-346.5 -110z" />
<glyph unicode="4" horiz-adv-x="1138" d="M817 0v420h-766v61l787 973h49v-969h180v-65h-180v-420h-70zM135 485h686v852z" />
<glyph unicode="5" horiz-adv-x="1130" d="M551 -20q-152 0 -275.5 79.5t-185.5 212.5l60 21q56 -112 164.5 -180t238.5 -68q176 0 296 115.5t120 294.5q0 171 -117 283t-289 112q-110 0 -209 -50t-161 -141h-74l160 795h694v-68h-639l-123 -622q67 73 160 112t196 39q129 0 237 -58t172 -164t64 -238 q0 -139 -67.5 -248.5t-178.5 -168t-243 -58.5z" />
<glyph unicode="6" horiz-adv-x="1222" d="M637 973q-155 0 -281 -89t-172 -231q0 350 123 548t328 198q127 0 229 -71.5t142 -188.5l55 32q-50 135 -164 214t-262 79q-241 0 -381.5 -227t-140.5 -680q0 -263 145 -420t369 -157q213 0 360.5 145t147.5 352q0 135 -66.5 249t-181 180.5t-250.5 66.5zM193 477 q0 116 59 215.5t159.5 158t217.5 58.5q179 0 308.5 -128t129.5 -306q0 -177 -128 -303.5t-308 -126.5q-117 0 -218 58.5t-160.5 158t-59.5 215.5z" />
<glyph unicode="7" horiz-adv-x="1024" d="M909 1386h-848v68h961l-743 -1454h-80z" />
<glyph unicode="8" horiz-adv-x="1198" d="M592 -14q-107 0 -199 33.5t-154.5 89.5t-97.5 130.5t-35 155.5q0 140 96 243t228 142q-118 43 -194 125.5t-76 194.5q0 83 38.5 151.5t101.5 112t140.5 67t159.5 23.5q110 0 208 -39.5t164 -122t66 -190.5q0 -112 -77 -195.5t-195 -126.5q141 -43 232.5 -147.5 t91.5 -241.5q0 -120 -69.5 -214t-182 -142.5t-246.5 -48.5zM598 809q88 0 171.5 33.5t141.5 102t58 155.5q0 88 -54.5 155.5t-138.5 100.5t-180 33q-149 0 -258 -80.5t-109 -212.5q0 -66 34 -122t88 -91t118.5 -54.5t128.5 -19.5zM596 748q-103 0 -198 -43t-157.5 -125.5 t-62.5 -184.5q0 -80 38.5 -147.5t100 -110t136 -66.5t149.5 -24q76 0 150 25t134 69t97 111t37 145q0 80 -38.5 148t-100.5 111.5t-136.5 67.5t-148.5 24z" />
<glyph unicode="9" horiz-adv-x="1222" d="M586 471q155 0 281 88.5t173 231.5q0 -350 -123 -548t-329 -198q-127 0 -229 71.5t-142 188.5l-53 -33q50 -135 163.5 -213.5t260.5 -78.5q241 0 381.5 227t140.5 680q0 263 -145 420t-369 157q-212 0 -360 -145t-148 -352q0 -134 66.5 -248t181 -181t250.5 -67z M1032 967q0 -175 -129.5 -303.5t-308.5 -128.5q-178 0 -307 128.5t-129 305.5t127 304.5t307 127.5t310 -128.5t130 -305.5z" />
<glyph unicode=":" horiz-adv-x="342" d="M139 907v152h64v-152h-64zM139 0v152h64v-152h-64z" />
<glyph unicode=";" horiz-adv-x="366" d="M147 907v152h64v-152h-64zM147 -166l25 154h-27v164h76v-164l-33 -154h-41z" />
<glyph unicode="&#x3c;" horiz-adv-x="1032" d="M70 553l854 512v-76l-754 -459l754 -460v-76l-854 512v47z" />
<glyph unicode="=" horiz-adv-x="892" d="M143 621v59h607v-59h-607zM143 451v59h607v-59h-607z" />
<glyph unicode="&#x3e;" horiz-adv-x="1032" d="M963 506l-857 -512v76l754 460l-754 459v76l857 -512v-47z" />
<glyph unicode="?" horiz-adv-x="962" d="M350 381q0 87 12 150t37 105t54 68.5t73 49.5q17 9 48 24t50.5 25.5t48 28t47.5 33t40 40t33 51t20 62t8 76.5q0 78 -27 140t-73 99.5t-103 56.5t-120 19q-118 0 -220 -63t-153 -166l-53 28q55 124 173.5 194.5t252.5 70.5q103 0 189 -42t142 -131.5t56 -212.5 q0 -44 -8 -82t-19.5 -66t-34 -55.5t-39 -44t-49 -37.5t-51 -31t-56 -29.5t-53.5 -28.5q-31 -17 -51.5 -31.5t-43.5 -41t-36 -59t-21.5 -83.5t-8.5 -117h-64zM350 0v186h66v-186h-66z" />
<glyph unicode="@" horiz-adv-x="1703" d="M1583 455q0 -31 -2 -65t-9.5 -83.5t-19.5 -94t-34 -90.5t-51.5 -79.5t-74.5 -54.5t-100 -21q-47 0 -78 14.5t-47 45.5t-23 61.5t-11 79.5q-57 -64 -149 -106t-193 -42q-137 0 -220.5 74.5t-83.5 192.5q0 71 33 124t88.5 81.5t119 41.5t134.5 13q135 0 273 -47 q0 86 -12.5 150t-42 114.5t-83 77t-129.5 26.5q-155 0 -293 -98l-26 47q160 107 325 107q81 0 140 -24.5t92 -62.5t52.5 -95.5t25.5 -110.5t6 -121v-299q0 -101 21 -147t85 -46q53 0 95 30t68 76.5t43 107t23.5 116.5t6.5 109q0 200 -91.5 367.5t-248.5 264.5t-344 97 q-137 0 -263.5 -54t-222 -147t-153 -227.5t-57.5 -286.5q0 -197 92 -363t251.5 -262t348.5 -96q161 0 311 78l23 -45q-163 -82 -336 -82q-150 0 -287 59.5t-237 161.5t-159 245.5t-59 303.5q0 164 62.5 308.5t166 243.5t239.5 155.5t280 56.5q149 0 284.5 -60.5 t234.5 -163.5t157.5 -248.5t58.5 -307.5zM1133 354v92q-10 1 -51 13.5t-103 24.5t-127 12q-61 0 -113 -10.5t-97 -33.5t-71 -65t-26 -100q0 -96 71.5 -153.5t174.5 -57.5q104 0 196 45q46 22 77 50t45 60.5t19 60t5 62.5z" />
<glyph unicode="A" horiz-adv-x="1382" d="M659 1454h62l625 -1454h-76l-215 502h-729l-215 -502h-78zM1032 563l-342 801l-344 -801h686z" />
<glyph unicode="B" horiz-adv-x="1347" d="M874 0h-677v1454h659q98 0 176 -55.5t117 -139t39 -176.5q0 -111 -56.5 -203.5t-152.5 -134.5q123 -36 196.5 -138t73.5 -230q0 -155 -110.5 -266t-264.5 -111zM268 1389v-623h563q122 0 204.5 94.5t82.5 216.5q0 128 -77.5 220t-196.5 92h-576zM889 702h-621v-636h606 q125 0 215.5 97t90.5 220q0 127 -84.5 223t-206.5 96z" />
<glyph unicode="C" horiz-adv-x="1421" d="M782 1462q187 0 325.5 -86.5t207.5 -230.5l-62 -29q-38 75 -93.5 130.5t-119.5 87t-130 46.5t-136 15q-113 0 -212 -38t-170.5 -102.5t-123 -149.5t-77 -180.5t-25.5 -193.5q0 -176 81 -331.5t223 -250t310 -94.5q96 0 188.5 30t178.5 98.5t137 166.5l64 -24 q-47 -105 -143 -183.5t-208 -116.5t-225 -38q-144 0 -272.5 65t-216 171t-138.5 240.5t-51 272.5q0 105 29 209t88 197t140 164t192.5 113t238.5 42z" />
<glyph unicode="D" horiz-adv-x="1458" d="M197 0v1454h475q135 0 247.5 -37t192.5 -103t136 -157t83 -199t27 -229q0 -331 -186 -530t-500 -199h-475zM672 1389h-404v-1323h404q148 0 265.5 50.5t193 140t115.5 210t40 262.5q0 144 -41 265t-117.5 209t-193.5 137t-262 49z" />
<glyph unicode="E" horiz-adv-x="1259" d="M1157 66v-66h-960v1454h942v-65h-871v-613h762v-65h-762v-645h889z" />
<glyph unicode="F" horiz-adv-x="1224" d="M197 0v1454h942v-65h-871v-615h740v-63h-740v-711h-71z" />
<glyph unicode="G" horiz-adv-x="1472" d="M950 698h402v-698h-66v238q-217 -248 -508 -248q-145 0 -274.5 64.5t-218 169t-140 236.5t-51.5 267q0 143 50.5 277t137 235.5t212 163t266.5 61.5q396 0 555 -317l-62 -31q-147 281 -495 281q-132 0 -245.5 -58t-188 -152.5t-116.5 -214.5t-42 -245q0 -175 81.5 -329 t224 -247.5t310.5 -93.5q277 0 504 265v315h-336v61z" />
<glyph unicode="H" horiz-adv-x="1501" d="M1305 1454v-1454h-70v711h-967v-711h-71v1454h71v-678h967v678h70z" />
<glyph unicode="I" horiz-adv-x="464" d="M197 0v1454h71v-1454h-71z" />
<glyph unicode="J" horiz-adv-x="972" d="M63 125q118 -80 289 -80q70 0 124.5 15.5t94 42t67 71.5t44.5 95.5t26.5 123.5t13 144.5t3.5 169.5v747h70v-739q0 -103 -4 -180t-15.5 -158t-31 -138t-53 -109.5t-80 -84t-111.5 -50t-148 -18.5q-182 0 -315 91z" />
<glyph unicode="K" horiz-adv-x="1284" d="M197 0v1454h71v-915l889 915h88l-612 -637l641 -817h-84l-606 772l-316 -321v-451h-71z" />
<glyph unicode="L" horiz-adv-x="1187" d="M197 0v1454h71v-1388h891v-66h-962z" />
<glyph unicode="M" horiz-adv-x="1806" d="M1538 0v1311l-610 -1030h-49l-611 1030v-1311h-71v1454h65l641 -1081l641 1081h66v-1454h-72z" />
<glyph unicode="N" horiz-adv-x="1587" d="M268 1321v-1321h-71v1454h57l1065 -1341v1341h72v-1454h-74z" />
<glyph unicode="O" horiz-adv-x="1546" d="M94 727q0 192 88.5 361t246.5 272.5t345 103.5q146 0 275 -64.5t216 -168.5t137 -236t50 -268q0 -145 -52.5 -280t-142 -235.5t-216.5 -161t-267 -60.5q-147 1 -275.5 64t-216 165.5t-138 235.5t-50.5 272zM774 57q132 0 247.5 58t193 153t121.5 215t44 244 q0 129 -46.5 251t-126 214.5t-193.5 148.5t-240 56q-132 0 -248 -58t-193.5 -152.5t-122 -214.5t-44.5 -245q0 -130 46 -251.5t125 -214t193.5 -148.5t243.5 -56z" />
<glyph unicode="P" horiz-adv-x="1269" d="M197 0v1454h596q87 0 165.5 -38.5t132.5 -101t85.5 -142.5t31.5 -162q0 -116 -50 -218t-143.5 -166.5t-209.5 -64.5h-537v-561h-71zM268 627h535q99 0 177 56.5t117.5 143t39.5 183.5q0 151 -102.5 265t-243.5 114h-523v-762z" />
<glyph unicode="Q" horiz-adv-x="1546" d="M1452 727q0 -154 -57.5 -294.5t-159.5 -244.5l154 -188h-78l-121 147q-181 -157 -416 -157q-147 1 -275.5 64t-216 165.5t-138 235.5t-50.5 272q0 192 88.5 361t246.5 272.5t345 103.5q146 0 275 -64.5t216 -168.5t137 -236t50 -268zM774 57q213 0 373 144l-162 198h78 l127 -157q90 96 140 224t50 261q0 129 -46.5 251t-126 214.5t-193.5 148.5t-240 56q-132 0 -248 -58t-193.5 -152.5t-122 -214.5t-44.5 -245q0 -130 46 -251.5t125 -214t193.5 -148.5t243.5 -56z" />
<glyph unicode="R" horiz-adv-x="1320" d="M197 0v1454h598q88 0 166.5 -38.5t132 -101t85 -142.5t31.5 -162q0 -169 -100 -296.5t-256 -144.5l365 -569h-82l-361 561h-508v-561h-71zM268 627h539q99 0 176.5 56t117.5 142.5t40 184.5t-46 185t-127 140.5t-175 53.5h-525v-762z" />
<glyph unicode="S" horiz-adv-x="1234" d="M1040 1239q-78 86 -173.5 123t-227.5 37q-224 0 -332 -85t-108 -239q0 -60 17 -103.5t48 -75t88.5 -56t122 -42t166.5 -38.5q88 -18 150 -34.5t125.5 -40t105 -52t75 -66.5t49 -88.5t15.5 -113.5q0 -181 -137.5 -278t-376.5 -97q-338 0 -571 221l43 53q204 -213 530 -213 q208 0 324.5 77t116.5 226q0 77 -27 131t-90 93t-145 65t-212 53q-73 15 -126.5 28t-107.5 30.5t-91 37.5t-70 47t-52.5 59t-30.5 74t-11 93q0 190 138 294.5t372 104.5q140 0 247.5 -41.5t194.5 -130.5z" />
<glyph unicode="T" horiz-adv-x="1234" d="M1198 1389h-545v-1389h-71v1389h-545v65h1161v-65z" />
<glyph unicode="U" horiz-adv-x="1548" d="M776 -10q-96 0 -178 21.5t-143 59.5t-109.5 92.5t-80 118t-52.5 137.5t-30 149.5t-9 156.5v729h72v-729q0 -88 11 -166.5t34.5 -155.5t65 -138.5t98 -108.5t138 -73t181.5 -26q121 0 215 38.5t152.5 101.5t96.5 151.5t52.5 180.5t14.5 196v729h69v-729q0 -120 -19 -225 t-63.5 -200.5t-112 -163t-170.5 -107t-233 -39.5z" />
<glyph unicode="V" horiz-adv-x="1388" d="M109 1454l585 -1366l584 1366h76l-625 -1454h-70l-624 1454h74z" />
<glyph unicode="W" horiz-adv-x="2129" d="M766 1442h72l225 -537l229 537h72l-258 -602l328 -756l585 1370h78l-629 -1454h-69l-334 774l-334 -774h-69l-627 1454h76l587 -1370l326 756z" />
<glyph unicode="X" horiz-adv-x="1277" d="M104 1454l537 -684l535 684h84l-580 -737l563 -717h-84l-518 664l-520 -664h-86l563 717l-580 737h86z" />
<glyph unicode="Y" horiz-adv-x="1318" d="M123 1454l534 -825l539 825h80l-582 -897v-557h-71v561l-580 893h80z" />
<glyph unicode="Z" horiz-adv-x="1280" d="M59 61l1076 1328h-1063v65h1147v-61l-1072 -1327h1065v-66h-1153v61z" />
<glyph unicode="[" horiz-adv-x="485" d="M193 -82v1598h174v-64h-107v-1470h107v-64h-174z" />
<glyph unicode="\" horiz-adv-x="1085" d="M139 1454l891 -1454h-82l-893 1454h84z" />
<glyph unicode="]" horiz-adv-x="485" d="M119 -82v64h106v1470h-106v64h172v-1598h-172z" />
<glyph unicode="^" horiz-adv-x="1054" d="M92 621l406 833h61l404 -833h-70l-365 753l-370 -753h-66z" />
<glyph unicode="_" horiz-adv-x="1075" d="M139 -66v66h797v-66h-797z" />
<glyph unicode="`" horiz-adv-x="419" d="M102 1495h91l129 -162l-50 -26z" />
<glyph unicode="a" horiz-adv-x="1085" d="M76 305q0 138 123.5 224.5t318.5 86.5q184 0 344 -57v113q0 157 -92 251.5t-244 94.5q-159 0 -342 -129l-34 51q205 141 380 141q185 0 293.5 -111.5t108.5 -301.5v-562q0 -45 37 -45v-61q-29 -3 -39 2q-28 6 -45 29.5t-19 54.5v92q-73 -94 -189.5 -146t-250.5 -52 q-149 0 -249.5 94t-100.5 231zM825 213q37 46 37 90v195q-158 61 -340 61q-170 0 -274.5 -68.5t-104.5 -181.5q0 -112 83.5 -191t207.5 -79q125 0 231.5 48t159.5 126z" />
<glyph unicode="b" horiz-adv-x="1243" d="M231 217v-217h-65v1495h70v-672q177 258 426 258q112 0 206.5 -48.5t155.5 -127.5t95 -177t34 -200q0 -144 -67 -270t-185 -202t-258 -76q-123 0 -235 66.5t-177 170.5zM1083 528q0 126 -53.5 237.5t-154 181t-224.5 69.5q-136 0 -243.5 -84t-171.5 -213v-371 q7 -79 73 -151t155 -112t169 -40q126 0 231 70.5t162 181t57 231.5z" />
<glyph unicode="c" horiz-adv-x="1107" d="M610 -20q-106 0 -202.5 44.5t-166 119.5t-110.5 178t-41 215q0 151 67 275.5t186 196.5t265 72q138 0 247 -64t163 -177l-68 -25q-51 94 -143.5 147.5t-204.5 53.5q-186 0 -314 -138.5t-128 -340.5q0 -201 131.5 -346.5t312.5 -145.5q119 0 226.5 63t132.5 148l69 -20 q-38 -110 -158.5 -183t-263.5 -73z" />
<glyph unicode="d" horiz-adv-x="1247" d="M90 528q0 109 37.5 210.5t102 177t156.5 120.5t196 45q135 0 246.5 -73t179.5 -185v672h69v-1389q0 -45 37 -45v-61q-22 -3 -37 2q-29 7 -47 31.5t-18 54.5v129q-66 -106 -178.5 -171.5t-231.5 -65.5q-144 0 -263 79.5t-184 205t-65 263.5zM1008 352v367 q-44 122 -167.5 209.5t-248.5 87.5q-95 0 -177 -42t-136.5 -110.5t-85.5 -156t-31 -179.5q0 -127 59 -238t163 -178t226 -67q81 0 170 41t155 114t73 152z" />
<glyph unicode="e" horiz-adv-x="1185" d="M608 -20q-106 0 -202.5 45t-165.5 120t-109.5 178t-40.5 216q0 110 39.5 210.5t107.5 173t162.5 115.5t200.5 43q108 0 204 -43.5t164.5 -117.5t108.5 -175.5t41 -212.5q0 -22 -2 -32h-954q15 -195 144 -328t306 -133q117 0 219.5 60t145.5 155l63 -16 q-44 -112 -166.5 -185t-265.5 -73zM160 559h889q-13 201 -140 331t-307 130t-306 -131t-136 -330z" />
<glyph unicode="f" horiz-adv-x="630" d="M209 0v1004h-152v61h152v39q0 193 77 302.5t214 109.5q59 0 114 -19.5t88 -50.5l-34 -47q-26 24 -70 38.5t-90 14.5q-110 0 -169.5 -90t-59.5 -258v-39h311v-61h-311v-1004h-70z" />
<glyph unicode="g" horiz-adv-x="1243" d="M90 528q0 145 62 271t177 204t257 78q246 0 426 -258v242h65v-1098q0 -104 -39.5 -186t-107.5 -133.5t-154 -78t-184 -26.5q-178 0 -287.5 64.5t-177.5 185.5l53 29q60 -109 169.5 -163t242.5 -54q116 0 208.5 39.5t150 123t57.5 199.5v250q-67 -105 -179 -170t-231 -65 q-142 0 -260.5 79.5t-183 204.5t-64.5 262zM1008 352v367q-49 129 -167 213t-249 84q-98 0 -181 -43.5t-136.5 -113.5t-83 -156t-29.5 -175q0 -127 59 -238t163 -178t226 -67q92 0 182.5 46.5t149 117.5t66.5 143z" />
<glyph unicode="h" horiz-adv-x="1167" d="M1014 0h-70v594q0 209 -71 315.5t-209 106.5q-141 0 -264 -100.5t-164 -249.5v-666h-70v1495h70v-696q66 129 185.5 205.5t254.5 76.5q168 0 253 -123.5t85 -355.5v-602z" />
<glyph unicode="i" horiz-adv-x="403" d="M166 1323v172h70v-172h-70zM166 0v1065h70v-1065h-70z" />
<glyph unicode="j" horiz-adv-x="417" d="M182 1323v172h70v-172h-70zM-246 -283l43 45q58 -51 164 -51q85 0 153 65t68 156v1133h70v-1131q0 -121 -88.5 -204.5t-196.5 -83.5q-139 0 -213 71z" />
<glyph unicode="k" horiz-adv-x="1052" d="M942 0l-434 590l-272 -248v-342h-70v1495h70v-1069l690 635h84l-453 -426l465 -635h-80z" />
<glyph unicode="l" horiz-adv-x="507" d="M176 1495h72v-1313q0 -64 33 -96.5t90 -32.5q47 0 121 21l16 -58q-76 -26 -156 -26q-79 0 -127.5 48.5t-48.5 129.5v1327z" />
<glyph unicode="m" horiz-adv-x="1865" d="M1712 0h-70v594q0 215 -66.5 318.5t-203.5 103.5q-140 0 -247.5 -97.5t-151.5 -254.5v-664h-70v594q0 218 -65 320t-203 102t-246 -96t-153 -254v-666h-70v1065h67v-266q68 134 175.5 208t234.5 74q132 0 218.5 -81.5t103.5 -217.5q156 299 421 299q167 0 246.5 -120.5 t79.5 -358.5v-602z" />
<glyph unicode="n" horiz-adv-x="1167" d="M1014 0h-70v594q0 218 -62.5 320t-197.5 102q-146 0 -276 -100.5t-172 -249.5v-666h-70v1065h67v-266q65 126 193 204t270 78q165 0 241.5 -119t76.5 -360v-602z" />
<glyph unicode="o" horiz-adv-x="1206" d="M90 528q0 147 68.5 274.5t186.5 203t257 75.5q140 0 258.5 -75.5t187 -203t68.5 -274.5t-67.5 -273t-186.5 -200.5t-260 -74.5t-259.5 74.5t-185.5 200.5t-67 273zM600 45q90 0 172 39t141.5 104.5t95 155t35.5 186.5q0 130 -59.5 242t-161.5 178t-221 66 q-118 0 -220 -66.5t-162 -179.5t-60 -244q0 -198 129.5 -339.5t310.5 -141.5z" />
<glyph unicode="p" horiz-adv-x="1243" d="M236 238v-674h-70v1501h65v-221q69 106 180.5 171.5t231.5 65.5q143 0 262 -81t183.5 -206.5t64.5 -263.5q0 -148 -60.5 -273t-174 -201t-256.5 -76q-131 0 -242 72t-184 186zM1083 530q0 126 -59.5 237.5t-164 180t-226.5 68.5q-78 0 -167.5 -42t-156 -115t-73.5 -150 v-367q57 -129 170.5 -213t244.5 -84q95 0 177.5 41.5t137.5 110t86 155.5t31 178z" />
<glyph unicode="q" horiz-adv-x="1243" d="M90 530q0 144 68 271t186.5 203.5t257.5 76.5q121 0 233 -67t177 -170v221h65v-1501h-69v674q-177 -258 -426 -258q-143 0 -257.5 79.5t-174.5 204t-60 266.5zM1008 338v367q-10 79 -73 152t-152 116t-175 43q-95 0 -179.5 -42.5t-142 -111t-91 -156.5t-33.5 -178 q0 -128 54.5 -238t154.5 -177.5t223 -67.5q136 0 242 82t172 211z" />
<glyph unicode="r" horiz-adv-x="677" d="M643 999q-147 -6 -255.5 -93.5t-151.5 -235.5v-670h-70v1065h67v-270q55 112 148.5 184t196.5 84q27 2 65 2v-66z" />
<glyph unicode="s" horiz-adv-x="972" d="M487 -20q-257 0 -413 172l37 49q85 -82 175.5 -121t198.5 -39q150 0 242 64t92 176q0 31 -8.5 56t-21.5 44t-39.5 36t-50 28.5t-66.5 24.5t-76.5 21.5t-91.5 22.5q-54 14 -87.5 23.5t-73 23t-62 26.5t-46 31.5t-35 41t-19 51.5t-7.5 65q0 149 108 227t275 78 q123 0 216.5 -41.5t135.5 -109.5l-45 -39q-42 61 -127 95t-188 34q-86 0 -153 -23t-110.5 -77t-43.5 -134q0 -40 12 -68.5t29.5 -47.5t58 -36.5t75 -27.5t103.5 -28q51 -12 80.5 -20t71 -19.5t65.5 -21t54.5 -23.5t48 -28t36.5 -33t28 -40t15.5 -47t6.5 -57 q0 -142 -109.5 -225.5t-290.5 -83.5z" />
<glyph unicode="t" horiz-adv-x="628" d="M608 49q-1 0 -14 -7.5t-31 -15.5t-42.5 -16.5t-56 -14t-63.5 -5.5q-83 0 -139.5 47.5t-56.5 128.5v838h-152v61h152v367h69v-367h252v-61h-252v-828q4 -57 44 -89t96 -32q40 0 80.5 12t61.5 23t26 16z" />
<glyph unicode="u" horiz-adv-x="1189" d="M156 459v606h69v-598q0 -214 70 -318t215 -104t269 96t171 248v676h70v-959q0 -45 37 -45v-61q-27 -3 -39 2q-26 6 -44 30t-18 54l-2 176q-69 -130 -192 -206t-266 -76q-167 0 -253.5 121.5t-86.5 357.5z" />
<glyph unicode="v" horiz-adv-x="1073" d="M502 0l-455 1065h76l414 -983l415 983h74l-455 -1065h-69z" />
<glyph unicode="w" horiz-adv-x="1638" d="M1520 1065h71l-463 -1065h-61l-248 578l-250 -578h-61l-463 1065h72l424 -981l237 557l-178 422h68l151 -356l152 356h65l-178 -422l240 -557z" />
<glyph unicode="x" horiz-adv-x="999" d="M121 1065l362 -463l17 -27l16 27l363 463h84l-420 -537l415 -528h-81l-361 459l-16 24l-17 -24l-358 -459h-84l416 528l-418 537h82z" />
<glyph unicode="y" horiz-adv-x="1101" d="M248 -389q79 -3 96 14q18 10 49 74.5t131 300.5l-485 1065h76l446 -987l420 987h72l-609 -1425q-33 -81 -112 -89q-38 -9 -84 -6v66z" />
<glyph unicode="z" horiz-adv-x="1001" d="M66 57l784 949h-772v59h854v-57l-780 -949h774v-59h-860v57z" />
<glyph unicode="{" horiz-adv-x="487" d="M264 1452v-596q0 -76 -47 -119q47 -40 47 -119v-618h113v-63h-133q-20 0 -33.5 15t-13.5 46v610q0 39 -16 68t-50 33v61q26 0 42 20.5t20 39.5t4 36v588q0 34 16.5 48t30.5 14h133v-64h-113z" />
<glyph unicode="|" horiz-adv-x="442" d="M188 -266v1853h66v-1853h-66z" />
<glyph unicode="}" horiz-adv-x="487" d="M111 1452v64h133q8 0 17 -4t19.5 -19t10.5 -39v-588q0 -17 3.5 -36t19.5 -39.5t42 -20.5v-61q-34 -4 -49.5 -33t-15.5 -68v-610q0 -31 -14.5 -46t-32.5 -15h-133v63h112v618q0 79 47 119q-47 43 -47 119v596h-112z" />
<glyph unicode="~" horiz-adv-x="974" d="M328 688q38 0 81.5 -19.5t75.5 -43t74.5 -43t79.5 -19.5q28 0 53 10.5t41 25.5t27.5 31.5t16.5 28t5 15.5l54 -2q0 -3 -5.5 -18.5t-20.5 -40.5t-36.5 -48.5t-57 -40t-77.5 -16.5q-44 0 -91.5 19t-80.5 42.5t-71.5 42.5t-67.5 19q-25 0 -47.5 -12.5t-37 -29.5t-25.5 -35.5 t-16 -31t-5 -14.5h-56q0 8 11 34.5t31.5 60.5t59 59.5t85.5 25.5z" />
<glyph unicode="&#xa1;" horiz-adv-x="481" d="M274 1466v-188h-69v188h69zM274 1040v-1042h-69v1042h69z" />
<glyph unicode="&#xa2;" horiz-adv-x="1120" d="M565 -246v228q-134 11 -244 93t-169.5 202.5t-59.5 250.5q0 103 34.5 200t95.5 173t150.5 124.5t192.5 55.5v240h51v-240q283 -8 404 -241l-68 -25q-106 191 -336 201v-971q65 1 138 26.5t134 75t77 109.5l69 -20q-27 -81 -99 -141t-155 -87.5t-164 -27.5v-226h-51z M565 49v965q-93 -6 -170.5 -51t-127 -114t-76.5 -152.5t-27 -168.5q0 -180 115.5 -320t285.5 -159z" />
<glyph unicode="&#xa3;" horiz-adv-x="974" d="M862 76l19 -60q-112 -47 -219 -47q-60 0 -160 21.5t-162 21.5q-102 0 -201 -26l-26 53q158 164 215 261.5t57 201.5q0 93 -39 190h-246v62h215q-16 29 -50.5 88t-52.5 93t-34 86t-16 101q0 141 101.5 241.5t242.5 100.5q104 0 196 -58t148 -157l-49 -43 q-49 91 -129.5 143t-169.5 52q-113 0 -192 -81t-79 -198q0 -59 22 -115t70 -137t66 -116h356v-62h-329q35 -96 35 -186q0 -108 -52 -208t-180 -239q84 15 146 15q65 0 158.5 -19.5t142.5 -19.5q80 0 196 41z" />
<glyph unicode="&#xa4;" horiz-adv-x="1093" d="M305 965q98 92 240 92q140 0 243 -96l144 143l43 -41l-146 -143q80 -108 80 -234q0 -128 -84 -233l150 -146l-41 -39l-148 146q-105 -95 -241 -95q-134 0 -238 91l-143 -142l-39 39l143 142q-86 107 -86 237q0 132 82 238l-139 139l41 41zM545 375q123 0 211 92.5 t88 220.5q0 130 -87.5 220.5t-211.5 90.5q-122 0 -209.5 -92t-87.5 -223q0 -127 87.5 -218t209.5 -91z" />
<glyph unicode="&#xa5;" horiz-adv-x="1347" d="M807 713h186v-58h-221l-63 -98v-51h284v-57h-284v-449h-72v449h-283v57h283v55l-59 94h-224v58h189l-486 741h80l537 -825l538 825h78z" />
<glyph unicode="&#xa6;" horiz-adv-x="450" d="M258 1587v-846h-65v846h65zM258 580v-846h-65v846h65z" />
<glyph unicode="&#xa7;" horiz-adv-x="999" d="M913 162q0 -81 -36 -148t-93.5 -108t-125.5 -63.5t-136 -22.5q-215 0 -389 174l49 43q159 -150 340 -150q79 0 151 32t120.5 96t48.5 145q0 54 -18.5 94t-47 63.5t-71.5 38t-82 20t-88 7.5q-65 2 -121.5 15t-105.5 38t-83.5 60.5t-54.5 87t-20 114.5q0 54 16.5 106 t44.5 83q-53 33 -85 98.5t-32 147.5q0 99 59.5 176.5t146 116t179.5 38.5q131 0 211.5 -42.5t136.5 -123.5l-57 -26q-35 69 -115.5 98t-173.5 29q-123 0 -220 -74t-97 -192q0 -131 85.5 -190.5t233.5 -59.5q76 0 144.5 -17t126 -52t91.5 -95.5t34 -140.5q0 -59 -19.5 -113 t-52.5 -86q106 -59 106 -217zM739 403q33 27 52.5 75t19.5 100q0 54 -20.5 96.5t-53 69t-76.5 44t-87 24.5t-89 7q-122 0 -209 37q-26 -26 -42.5 -71t-16.5 -91q0 -73 28 -123.5t71 -74t102 -38t113 -19t113.5 -13.5t94.5 -23z" />
<glyph unicode="&#xa8;" horiz-adv-x="538" d="M109 1325v168h63v-168h-63zM367 1325v168h63v-168h-63z" />
<glyph unicode="&#xa9;" horiz-adv-x="1691" d="M102 727q0 125 36 238.5t103.5 203.5t158.5 156.5t205.5 102.5t240.5 36q210 0 380 -95.5t266.5 -264.5t96.5 -377q0 -209 -96.5 -379t-266.5 -266t-380 -96q-157 0 -295.5 56.5t-237 154.5t-155 235.5t-56.5 294.5zM1536 721q0 147 -52.5 276t-143 220t-218.5 143.5 t-274 52.5q-147 0 -275.5 -52.5t-220 -143t-144 -218.5t-52.5 -274q0 -145 52.5 -273t143.5 -219t220 -143.5t276 -52.5q192 0 349 85.5t248 242.5t91 356zM403 727q0 68 16 134.5t51.5 128.5t86.5 108.5t125.5 75t163.5 28.5q125 0 222.5 -54.5t137.5 -156.5l-67 -22 q-21 50 -57.5 85.5t-80 52t-81 23.5t-74.5 7q-92 0 -165.5 -37t-117.5 -97t-67 -131t-23 -145q0 -93 35.5 -171.5t92 -128.5t122 -77.5t129.5 -27.5q91 0 181.5 49t125.5 129l66 -19q-10 -32 -40.5 -69t-76.5 -72t-112 -58.5t-136 -23.5q-83 0 -164 32.5t-146.5 90.5 t-106 148.5t-40.5 197.5z" />
<glyph unicode="&#xaa;" horiz-adv-x="876" d="M104 936q0 95 86 154t220 59t227 -37v68q0 96 -59 153.5t-160 57.5q-108 0 -236 -84l-30 51q143 94 272 94q136 0 214.5 -75t78.5 -206v-333q0 -34 33 -37v-72q-26 -3 -43 0q-26 3 -42 20.5t-18 43.5l-2 57q-51 -64 -129 -98.5t-170 -34.5q-101 0 -171.5 63.5 t-70.5 155.5zM612 883q25 28 25 55v119q-84 37 -217 37q-107 0 -173.5 -42t-66.5 -112q0 -67 53.5 -113.5t131.5 -46.5t145.5 28.5t101.5 74.5z" />
<glyph unicode="&#xab;" horiz-adv-x="1093" d="M86 553l492 352v-67l-433 -308l433 -307v-67l-492 350v47zM463 553l493 352v-67l-432 -308l432 -307v-67l-493 350v47z" />
<glyph unicode="&#xac;" horiz-adv-x="1161" d="M1016 709v-430h-64v362h-782v68h846z" />
<glyph unicode="&#xad;" horiz-adv-x="1124" d="M139 522v68h846v-68h-846z" />
<glyph unicode="&#xae;" horiz-adv-x="1691" d="M102 727q0 125 36 238.5t103.5 203.5t158.5 156.5t205.5 102.5t240.5 36q210 0 380 -95.5t266.5 -264.5t96.5 -377q0 -209 -96.5 -379t-266.5 -266t-380 -96q-157 0 -295.5 56.5t-237 154.5t-155 235.5t-56.5 294.5zM1536 727q0 193 -89 350t-247 246.5t-354 89.5 q-195 0 -352.5 -89.5t-246.5 -246.5t-89 -350q0 -146 52 -274t142.5 -219.5t218.5 -144t275 -52.5q194 0 350.5 85t248 243.5t91.5 361.5zM545 1192h387q113 0 190.5 -88.5t77.5 -200.5q0 -109 -65 -190.5t-166 -91.5l235 -369h-69l-232 364h-297v-364h-61v940zM938 672 q96 0 149.5 66t53.5 165q0 96 -60 163t-151 67h-324v-461h332z" />
<glyph unicode="&#xaf;" horiz-adv-x="788" d="M104 1391v57h580v-57h-580z" />
<glyph unicode="&#xb0;" horiz-adv-x="524" d="M262 1483q63 0 106.5 -43.5t43.5 -106.5t-43.5 -106t-106.5 -43q-62 0 -105.5 43t-43.5 106t43.5 106.5t105.5 43.5zM166 1333q0 -40 27 -67q31 -31 69 -31q39 0 70 31q28 28 28 67t-28 70q-27 27 -70 27q-42 0 -69 -27q-27 -30 -27 -70z" />
<glyph unicode="&#xb1;" horiz-adv-x="960" d="M795 764v-64h-281v-301h-68v301h-280v64h280v301h68v-301h281zM166 160v63h629v-63h-629z" />
<glyph unicode="&#xb2;" horiz-adv-x="768" d="M80 856q0 148 63 231t191 130q17 7 62.5 22.5t67.5 24.5t57 27.5t52 36t31 45.5t14 61q0 74 -58.5 124t-166.5 50q-165 0 -264 -121l-39 37q8 11 26 28t56 44.5t98 46t129 18.5q134 0 206.5 -65.5t72.5 -163.5q0 -27 -6 -50.5t-19 -43.5t-26 -35.5t-35.5 -29.5 t-38.5 -23.5t-44 -21t-42.5 -16.5t-44 -15t-39.5 -13q-73 -25 -121 -60t-69 -75t-28 -71.5t-7 -68.5h520v-53h-598z" />
<glyph unicode="&#xb3;" horiz-adv-x="784" d="M80 1038l39 27q6 -65 83.5 -114.5t186.5 -49.5q108 0 181 46.5t73 119.5q0 78 -84 124t-221 46h-47v49h47q132 0 204 39.5t72 112.5q0 76 -68.5 124t-170.5 48q-85 0 -149.5 -33t-92.5 -88l-41 39q34 61 110.5 97t172.5 36q129 0 214 -62.5t85 -156.5q0 -140 -182 -178 q93 -15 149.5 -71.5t56.5 -133.5q0 -94 -89.5 -153.5t-219.5 -59.5q-127 0 -213.5 53.5t-95.5 138.5z" />
<glyph unicode="&#xb4;" horiz-adv-x="419" d="M152 1307l-50 26l127 162h93z" />
<glyph unicode="&#xb5;" horiz-adv-x="1243" d="M180 1065h70v-598q0 -214 71 -318t216 -104t269 96t171 248v676h70v-954q0 -45 36 -45v-66q-27 -3 -39 2q-27 6 -45 31.5t-18 56.5v172q-65 -127 -187 -204.5t-259 -77.5q-214 0 -287 200l2 -614h-70v1499z" />
<glyph unicode="&#xb6;" horiz-adv-x="1179" d="M645 1454h434v-61h-143v-1557h-64v662h-176v-662h-65v662q-263 5 -413 130.5t-150 346.5q0 224 152.5 351.5t424.5 127.5zM631 559v834q-241 0 -370.5 -109.5t-129.5 -306.5q0 -105 40 -185t110.5 -128.5t158 -74t191.5 -30.5zM872 1393h-176v-834h176v834z" />
<glyph unicode="&#xb7;" horiz-adv-x="342" d="M139 510v186h64v-186h-64z" />
<glyph unicode="&#xb8;" horiz-adv-x="534" d="M307 -346q-121 0 -227 53l26 49q106 -49 189 -49q158 0 158 113q0 54 -37 95t-117 85l47 23q82 -47 123 -95t41 -114q0 -79 -55 -119.5t-148 -40.5z" />
<glyph unicode="&#xb9;" horiz-adv-x="528" d="M483 909v-55h-383v55h168v684q-25 -30 -87 -64t-109 -34v55q25 0 54 11t53 26.5t44.5 32t32 28t12.5 13.5h58v-752h157z" />
<glyph unicode="&#xba;" horiz-adv-x="921" d="M98 1083q0 152 104.5 260.5t256.5 108.5q154 0 259 -108.5t105 -260.5q0 -150 -104.5 -258t-259.5 -108q-153 0 -257 108t-104 258zM459 772q123 0 211 92t88 221t-88 219.5t-211 90.5q-121 0 -208 -92t-87 -222q0 -127 86.5 -218t208.5 -91z" />
<glyph unicode="&#xbb;" horiz-adv-x="1093" d="M631 506l-494 -350v67l432 307l-432 308v67l494 -352v-47zM1008 506l-492 -350v67l432 307l-432 308v67l492 -352v-47z" />
<glyph unicode="&#xbc;" horiz-adv-x="1525" d="M483 745v-55h-383v55h168v685q-25 -31 -87 -65t-109 -34v55q25 0 54 11t53 26.5t44.5 32t32 28t12.5 13.5h58v-752h157zM70 33l571 710l567 715l45 -35l-575 -714l-565 -713zM1292 0v221h-475v49l492 525h39v-521h114v-53h-114v-221h-56zM887 274h405v433z" />
<glyph unicode="&#xbd;" horiz-adv-x="1556" d="M483 745v-55h-383v55h168v685q-25 -31 -87 -65t-109 -34v55q25 0 54 11t53 26.5t44.5 32t32 28t12.5 13.5h58v-752h157zM70 33l571 710l567 715l45 -35l-575 -714l-565 -713zM874 0q0 148 62 230.5t190 129.5q17 7 61.5 23t67 24.5t57 27.5t52 36.5t31.5 45.5t14 61 q0 73 -58 123.5t-165 50.5q-96 0 -161 -37t-101 -84l-39 37q6 8 16.5 20t38.5 34t60.5 39t84 30.5t107.5 13.5q133 0 204.5 -66t71.5 -164q0 -27 -5.5 -50.5t-18.5 -43t-26 -35t-35.5 -30t-38 -24t-43.5 -20.5t-42 -16t-43.5 -15t-39.5 -13q-226 -77 -226 -275h520v-53h-596 z" />
<glyph unicode="&#xbe;" horiz-adv-x="1781" d="M80 874l39 27q6 -65 83.5 -114.5t186.5 -49.5q108 0 181 46.5t73 119.5q0 78 -84 124t-221 46h-47v49h47q132 0 204 39.5t72 112.5q0 76 -68.5 124t-170.5 48q-85 0 -149.5 -33t-92.5 -88l-41 39q34 61 110.5 97t172.5 36q129 0 214 -62.5t85 -156.5q0 -140 -182 -178 q93 -15 149.5 -71.5t56.5 -133.5q0 -94 -89.5 -153.5t-219.5 -59.5q-127 0 -213.5 53.5t-95.5 138.5zM326 33l571 710l567 715l45 -35l-575 -714l-565 -713zM1548 0v221h-475v49l492 525h39v-521h114v-53h-114v-221h-56zM1143 274h405v433z" />
<glyph unicode="&#xbf;" horiz-adv-x="948" d="M604 1036v-186h-65v186h65zM604 655q0 -87 -12 -150t-37 -105t-54 -68t-73 -49q-17 -9 -48 -24t-50.5 -25.5t-48 -28t-47.5 -33t-40 -40t-33 -51t-20 -62t-8 -76.5q0 -78 27.5 -140t73.5 -99.5t103 -57t120 -19.5q118 0 219.5 63.5t152.5 166.5l54 -29 q-55 -124 -173.5 -194t-252.5 -70q-76 0 -144.5 24.5t-123 71.5t-87 121.5t-32.5 167.5q0 35 5 66.5t13 57t22 49t27 40.5t34 35.5t37 30t41.5 26.5t42 24t44.5 23.5t43 22.5q40 22 64.5 41.5t49.5 56t36.5 94t11.5 139.5h63z" />
<glyph unicode="&#xc0;" horiz-adv-x="1382" d="M537 1880h90l129 -162l-49 -26zM659 1454h62l625 -1454h-76l-215 502h-729l-215 -502h-78zM1032 563l-342 801l-344 -801h686z" />
<glyph unicode="&#xc1;" horiz-adv-x="1382" d="M713 1690l-49 26l127 162h92zM659 1454h62l625 -1454h-76l-215 502h-729l-215 -502h-78zM1032 563l-342 801l-344 -801h686z" />
<glyph unicode="&#xc2;" horiz-adv-x="1382" d="M471 1720l193 158h53l194 -158l-47 -30l-174 129l-174 -129zM659 1454h62l625 -1454h-76l-215 502h-729l-215 -502h-78zM1032 563l-342 801l-344 -801h686z" />
<glyph unicode="&#xc3;" horiz-adv-x="1382" d="M551 1804q-30 0 -53 -13t-33 -32t-14.5 -32.5t-4.5 -20.5h-53q0 8 3 23t13 38.5t26.5 43.5t47 34.5t70.5 14.5q55 0 131 -40t127 -40q31 0 54.5 9.5t35.5 22.5t19 28.5t8.5 24t1.5 13.5h55q0 -9 -3 -24t-14.5 -38t-29.5 -42.5t-52 -33.5t-77 -14q-52 0 -99 19.5t-86 39 t-73 19.5zM659 1454h62l625 -1454h-76l-215 502h-729l-215 -502h-78zM1032 563l-342 801l-344 -801h686z" />
<glyph unicode="&#xc4;" horiz-adv-x="1382" d="M528 1710v168h64v-168h-64zM786 1710v168h64v-168h-64zM659 1454h62l625 -1454h-76l-215 502h-729l-215 -502h-78zM1032 563l-342 801l-344 -801h686z" />
<glyph unicode="&#xc5;" horiz-adv-x="1382" d="M690 1929q69 0 116.5 -45t47.5 -112t-47.5 -113.5t-116.5 -46.5q-68 0 -115 46.5t-47 113.5t47 112t115 45zM584 1772q0 -46 31 -77.5t75 -31.5q42 0 75.5 31.5t33.5 77.5q0 48 -31.5 77t-77.5 29q-44 0 -75 -29t-31 -77zM659 1454h62l625 -1454h-76l-215 502h-729 l-215 -502h-78zM1032 563l-342 801l-344 -801h686z" />
<glyph unicode="&#xc6;" horiz-adv-x="1970" d="M895 1454h956v-65h-868v-613h758v-65h-758v-645h887v-66h-957v502h-563l-325 -502h-82zM909 567v791l-522 -791h522z" />
<glyph unicode="&#xc7;" horiz-adv-x="1421" d="M1348 326q-63 -140 -203 -228t-301 -106q114 -74 114 -178q0 -79 -54.5 -119.5t-147.5 -40.5q-122 0 -228 53l27 49q106 -49 188 -49q158 0 158 113q0 51 -31.5 89.5t-99.5 78.5q-144 1 -272 66t-215.5 170.5t-138 240t-50.5 272.5q0 105 29 209t88 197t140 164 t192.5 113t238.5 42q187 0 325.5 -86.5t207.5 -230.5l-62 -29q-38 75 -93.5 130.5t-119.5 87t-130 46.5t-136 15q-113 0 -212 -38t-170.5 -102.5t-123 -149.5t-77 -180.5t-25.5 -193.5q0 -176 81 -331.5t223 -250t310 -94.5q96 0 188.5 30t178.5 98.5t137 166.5z" />
<glyph unicode="&#xc8;" horiz-adv-x="1259" d="M547 1880h90l129 -162l-49 -26zM1157 66v-66h-960v1454h942v-65h-871v-613h762v-65h-762v-645h889z" />
<glyph unicode="&#xc9;" horiz-adv-x="1259" d="M723 1690l-49 26l127 162h92zM1157 66v-66h-960v1454h942v-65h-871v-613h762v-65h-762v-645h889z" />
<glyph unicode="&#xca;" horiz-adv-x="1259" d="M481 1720l193 158h53l195 -158l-48 -30l-174 129l-174 -129zM1157 66v-66h-960v1454h942v-65h-871v-613h762v-65h-762v-645h889z" />
<glyph unicode="&#xcb;" horiz-adv-x="1259" d="M539 1710v168h63v-168h-63zM797 1710v168h63v-168h-63zM1157 66v-66h-960v1454h942v-65h-871v-613h762v-65h-762v-645h889z" />
<glyph unicode="&#xcc;" horiz-adv-x="464" d="M78 1880h90l129 -162l-49 -26zM197 0v1454h71v-1454h-71z" />
<glyph unicode="&#xcd;" horiz-adv-x="464" d="M254 1690l-49 26l127 162h92zM197 0v1454h71v-1454h-71z" />
<glyph unicode="&#xce;" horiz-adv-x="464" d="M12 1720l193 158h53l195 -158l-47 -30l-175 129l-174 -129zM197 0v1454h71v-1454h-71z" />
<glyph unicode="&#xcf;" horiz-adv-x="464" d="M70 1710v168h63v-168h-63zM328 1710v168h63v-168h-63zM197 0v1454h71v-1454h-71z" />
<glyph unicode="&#xd0;" horiz-adv-x="1472" d="M686 1454q135 0 247.5 -37t192.5 -103t136 -157t83 -199t27 -229q0 -331 -186 -530t-500 -199h-475v700h-139v62h139v692h475zM686 66q148 0 265.5 50.5t193 140t115.5 210t40 262.5q0 144 -41 265t-117.5 209t-193.5 137t-262 49h-403v-627h379v-62h-379v-634h403z" />
<glyph unicode="&#xd1;" horiz-adv-x="1587" d="M664 1804q-30 0 -53 -13t-33 -32t-14.5 -32.5t-4.5 -20.5h-53q0 8 3 23t13 38.5t26.5 43.5t47 34.5t70.5 14.5q55 0 131 -40t127 -40q31 0 54.5 9.5t35 22.5t18.5 28.5t8.5 24t1.5 13.5h56q0 -9 -3 -24t-14.5 -38t-29.5 -42.5t-52 -33.5t-77 -14q-52 0 -99 19.5t-86 39 t-73 19.5zM268 1321v-1321h-71v1454h57l1065 -1341v1341h72v-1454h-74z" />
<glyph unicode="&#xd2;" horiz-adv-x="1546" d="M621 1880h90l129 -162l-49 -26zM94 727q0 192 88.5 361t246.5 272.5t345 103.5q146 0 275 -64.5t216 -168.5t137 -236t50 -268q0 -145 -52.5 -280t-142 -235.5t-216.5 -161t-267 -60.5q-147 1 -275.5 64t-216 165.5t-138 235.5t-50.5 272zM774 57q132 0 247.5 58t193 153 t121.5 215t44 244q0 129 -46.5 251t-126 214.5t-193.5 148.5t-240 56q-132 0 -248 -58t-193.5 -152.5t-122 -214.5t-44.5 -245q0 -130 46 -251.5t125 -214t193.5 -148.5t243.5 -56z" />
<glyph unicode="&#xd3;" horiz-adv-x="1546" d="M797 1690l-49 26l126 162h93zM94 727q0 192 88.5 361t246.5 272.5t345 103.5q146 0 275 -64.5t216 -168.5t137 -236t50 -268q0 -145 -52.5 -280t-142 -235.5t-216.5 -161t-267 -60.5q-147 1 -275.5 64t-216 165.5t-138 235.5t-50.5 272zM774 57q132 0 247.5 58t193 153 t121.5 215t44 244q0 129 -46.5 251t-126 214.5t-193.5 148.5t-240 56q-132 0 -248 -58t-193.5 -152.5t-122 -214.5t-44.5 -245q0 -130 46 -251.5t125 -214t193.5 -148.5t243.5 -56z" />
<glyph unicode="&#xd4;" horiz-adv-x="1546" d="M555 1720l193 158h53l194 -158l-47 -30l-174 129l-174 -129zM94 727q0 192 88.5 361t246.5 272.5t345 103.5q146 0 275 -64.5t216 -168.5t137 -236t50 -268q0 -145 -52.5 -280t-142 -235.5t-216.5 -161t-267 -60.5q-147 1 -275.5 64t-216 165.5t-138 235.5t-50.5 272z M774 57q132 0 247.5 58t193 153t121.5 215t44 244q0 129 -46.5 251t-126 214.5t-193.5 148.5t-240 56q-132 0 -248 -58t-193.5 -152.5t-122 -214.5t-44.5 -245q0 -130 46 -251.5t125 -214t193.5 -148.5t243.5 -56z" />
<glyph unicode="&#xd5;" horiz-adv-x="1546" d="M635 1804q-30 0 -53 -13t-33 -32t-14.5 -32.5t-4.5 -20.5h-53q0 8 3 23t13 38.5t26.5 43.5t47 34.5t70.5 14.5q55 0 131 -40t127 -40q31 0 54.5 9.5t35.5 22.5t19 28.5t8.5 24t1.5 13.5h55q0 -9 -3 -24t-14.5 -38t-29.5 -42.5t-52 -33.5t-77 -14q-52 0 -99 19.5t-86 39 t-73 19.5zM94 727q0 192 88.5 361t246.5 272.5t345 103.5q146 0 275 -64.5t216 -168.5t137 -236t50 -268q0 -145 -52.5 -280t-142 -235.5t-216.5 -161t-267 -60.5q-147 1 -275.5 64t-216 165.5t-138 235.5t-50.5 272zM774 57q132 0 247.5 58t193 153t121.5 215t44 244 q0 129 -46.5 251t-126 214.5t-193.5 148.5t-240 56q-132 0 -248 -58t-193.5 -152.5t-122 -214.5t-44.5 -245q0 -130 46 -251.5t125 -214t193.5 -148.5t243.5 -56z" />
<glyph unicode="&#xd6;" horiz-adv-x="1546" d="M612 1710v168h64v-168h-64zM870 1710v168h64v-168h-64zM94 727q0 192 88.5 361t246.5 272.5t345 103.5q146 0 275 -64.5t216 -168.5t137 -236t50 -268q0 -145 -52.5 -280t-142 -235.5t-216.5 -161t-267 -60.5q-147 1 -275.5 64t-216 165.5t-138 235.5t-50.5 272zM774 57 q132 0 247.5 58t193 153t121.5 215t44 244q0 129 -46.5 251t-126 214.5t-193.5 148.5t-240 56q-132 0 -248 -58t-193.5 -152.5t-122 -214.5t-44.5 -245q0 -130 46 -251.5t125 -214t193.5 -148.5t243.5 -56z" />
<glyph unicode="&#xd7;" horiz-adv-x="911" d="M772 287l-47 -47l-270 268l-269 -268l-45 49l267 266l-267 268l47 47l267 -268l270 270l45 -49l-268 -268z" />
<glyph unicode="&#xd8;" horiz-adv-x="1546" d="M1190 1307q123 -107 192.5 -262t69.5 -318q0 -145 -52.5 -280t-142 -235.5t-216.5 -161t-267 -60.5q-202 0 -364 114l-68 -104h-82l96 147q-123 106 -192.5 260t-69.5 320q0 192 88.5 361t246.5 272.5t345 103.5q200 0 361 -114l67 104h84zM166 727q0 -151 60 -288.5 t167 -233.5l705 1087q-146 105 -324 105q-132 0 -248 -58t-193.5 -152.5t-122 -214.5t-44.5 -245zM774 57q132 0 247.5 58t193 153t121.5 215t44 244q0 149 -61 287t-166 233l-707 -1085q146 -105 328 -105z" />
<glyph unicode="&#xd9;" horiz-adv-x="1548" d="M623 1880h90l129 -162l-49 -26zM776 -10q-96 0 -178 21.5t-143 59.5t-109.5 92.5t-80 118t-52.5 137.5t-30 149.5t-9 156.5v729h72v-729q0 -88 11 -166.5t34.5 -155.5t65 -138.5t98 -108.5t138 -73t181.5 -26q121 0 215 38.5t152.5 101.5t96.5 151.5t52.5 180.5t14.5 196 v729h69v-729q0 -120 -19 -225t-63.5 -200.5t-112 -163t-170.5 -107t-233 -39.5z" />
<glyph unicode="&#xda;" horiz-adv-x="1548" d="M799 1690l-49 26l127 162h92zM776 -10q-96 0 -178 21.5t-143 59.5t-109.5 92.5t-80 118t-52.5 137.5t-30 149.5t-9 156.5v729h72v-729q0 -88 11 -166.5t34.5 -155.5t65 -138.5t98 -108.5t138 -73t181.5 -26q121 0 215 38.5t152.5 101.5t96.5 151.5t52.5 180.5t14.5 196 v729h69v-729q0 -120 -19 -225t-63.5 -200.5t-112 -163t-170.5 -107t-233 -39.5z" />
<glyph unicode="&#xdb;" horiz-adv-x="1548" d="M557 1720l193 158h53l194 -158l-47 -30l-174 129l-174 -129zM776 -10q-96 0 -178 21.5t-143 59.5t-109.5 92.5t-80 118t-52.5 137.5t-30 149.5t-9 156.5v729h72v-729q0 -88 11 -166.5t34.5 -155.5t65 -138.5t98 -108.5t138 -73t181.5 -26q121 0 215 38.5t152.5 101.5 t96.5 151.5t52.5 180.5t14.5 196v729h69v-729q0 -120 -19 -225t-63.5 -200.5t-112 -163t-170.5 -107t-233 -39.5z" />
<glyph unicode="&#xdc;" horiz-adv-x="1548" d="M614 1710v168h64v-168h-64zM872 1710v168h64v-168h-64zM776 -10q-96 0 -178 21.5t-143 59.5t-109.5 92.5t-80 118t-52.5 137.5t-30 149.5t-9 156.5v729h72v-729q0 -88 11 -166.5t34.5 -155.5t65 -138.5t98 -108.5t138 -73t181.5 -26q121 0 215 38.5t152.5 101.5 t96.5 151.5t52.5 180.5t14.5 196v729h69v-729q0 -120 -19 -225t-63.5 -200.5t-112 -163t-170.5 -107t-233 -39.5z" />
<glyph unicode="&#xdd;" horiz-adv-x="1318" d="M680 1690l-49 26l127 162h92zM123 1454l534 -825l539 825h80l-582 -897v-557h-71v561l-580 893h80z" />
<glyph unicode="&#xde;" horiz-adv-x="1228" d="M1167 707q0 -86 -29.5 -166.5t-80.5 -143t-127.5 -100t-163.5 -37.5h-498v-260h-71v1454h71v-301h484q88 0 166.5 -39t132 -102t85 -143t31.5 -162zM1098 707q0 151 -102.5 264.5t-245.5 113.5h-482v-759h496q99 0 177 56.5t117.5 142.5t39.5 182z" />
<glyph unicode="&#xdf;" horiz-adv-x="1120" d="M475 53q232 5 359 99.5t127 267.5q0 166 -110 268.5t-288 102.5h-35v65h33q128 0 212.5 76.5t84.5 193.5q0 119 -88 195t-219 76q-146 0 -230.5 -98.5t-84.5 -258.5v-1040h-70v1047q0 185 108 300t279 115q159 0 266 -92t107 -231q0 -110 -69 -201t-169 -111 q164 -35 254 -142.5t90 -266.5q0 -199 -145.5 -310t-411.5 -120v65z" />
<glyph unicode="&#xe0;" horiz-adv-x="1085" d="M377 1497h90l129 -162l-49 -26zM76 305q0 138 123.5 224.5t318.5 86.5q184 0 344 -57v113q0 157 -92 251.5t-244 94.5q-159 0 -342 -129l-34 51q205 141 380 141q185 0 293.5 -111.5t108.5 -301.5v-562q0 -45 37 -45v-61q-29 -3 -39 2q-28 6 -45 29.5t-19 54.5v92 q-73 -94 -189.5 -146t-250.5 -52q-149 0 -249.5 94t-100.5 231zM825 213q37 46 37 90v195q-158 61 -340 61q-170 0 -274.5 -68.5t-104.5 -181.5q0 -112 83.5 -191t207.5 -79q125 0 231.5 48t159.5 126z" />
<glyph unicode="&#xe1;" horiz-adv-x="1085" d="M553 1307l-49 26l127 162h92zM76 305q0 138 123.5 224.5t318.5 86.5q184 0 344 -57v113q0 157 -92 251.5t-244 94.5q-159 0 -342 -129l-34 51q205 141 380 141q185 0 293.5 -111.5t108.5 -301.5v-562q0 -45 37 -45v-61q-29 -3 -39 2q-28 6 -45 29.5t-19 54.5v92 q-73 -94 -189.5 -146t-250.5 -52q-149 0 -249.5 94t-100.5 231zM825 213q37 46 37 90v195q-158 61 -340 61q-170 0 -274.5 -68.5t-104.5 -181.5q0 -112 83.5 -191t207.5 -79q125 0 231.5 48t159.5 126z" />
<glyph unicode="&#xe2;" horiz-adv-x="1085" d="M311 1337l193 158h53l195 -158l-47 -30l-175 129l-174 -129zM76 305q0 138 123.5 224.5t318.5 86.5q184 0 344 -57v113q0 157 -92 251.5t-244 94.5q-159 0 -342 -129l-34 51q205 141 380 141q185 0 293.5 -111.5t108.5 -301.5v-562q0 -45 37 -45v-61q-29 -3 -39 2 q-28 6 -45 29.5t-19 54.5v92q-73 -94 -189.5 -146t-250.5 -52q-149 0 -249.5 94t-100.5 231zM825 213q37 46 37 90v195q-158 61 -340 61q-170 0 -274.5 -68.5t-104.5 -181.5q0 -112 83.5 -191t207.5 -79q125 0 231.5 48t159.5 126z" />
<glyph unicode="&#xe3;" horiz-adv-x="1085" d="M391 1421q-30 0 -52.5 -13t-32.5 -32t-14.5 -32.5t-4.5 -20.5h-54q0 8 3 23t13 38.5t26.5 43.5t47 34.5t70.5 14.5q55 0 131 -40t127 -40q31 0 54.5 9.5t35.5 22.5t19 28.5t8.5 24t1.5 13.5h55q0 -9 -3 -24t-14.5 -38t-29.5 -42.5t-52 -33.5t-77 -14q-52 0 -99 19.5 t-86 39t-73 19.5zM76 305q0 138 123.5 224.5t318.5 86.5q184 0 344 -57v113q0 157 -92 251.5t-244 94.5q-159 0 -342 -129l-34 51q205 141 380 141q185 0 293.5 -111.5t108.5 -301.5v-562q0 -45 37 -45v-61q-29 -3 -39 2q-28 6 -45 29.5t-19 54.5v92q-73 -94 -189.5 -146 t-250.5 -52q-149 0 -249.5 94t-100.5 231zM825 213q37 46 37 90v195q-158 61 -340 61q-170 0 -274.5 -68.5t-104.5 -181.5q0 -112 83.5 -191t207.5 -79q125 0 231.5 48t159.5 126z" />
<glyph unicode="&#xe4;" horiz-adv-x="1085" d="M369 1327v168h63v-168h-63zM627 1327v168h63v-168h-63zM76 305q0 138 123.5 224.5t318.5 86.5q184 0 344 -57v113q0 157 -92 251.5t-244 94.5q-159 0 -342 -129l-34 51q205 141 380 141q185 0 293.5 -111.5t108.5 -301.5v-562q0 -45 37 -45v-61q-29 -3 -39 2 q-28 6 -45 29.5t-19 54.5v92q-73 -94 -189.5 -146t-250.5 -52q-149 0 -249.5 94t-100.5 231zM825 213q37 46 37 90v195q-158 61 -340 61q-170 0 -274.5 -68.5t-104.5 -181.5q0 -112 83.5 -191t207.5 -79q125 0 231.5 48t159.5 126z" />
<glyph unicode="&#xe5;" horiz-adv-x="1085" d="M530 1546q69 0 116.5 -45t47.5 -112t-47.5 -113.5t-116.5 -46.5q-68 0 -114.5 46.5t-46.5 113.5t46.5 112t114.5 45zM424 1389q0 -46 31 -77.5t75 -31.5q42 0 75.5 31.5t33.5 77.5q0 48 -31.5 77t-77.5 29q-44 0 -75 -29t-31 -77zM76 305q0 138 123.5 224.5t318.5 86.5 q184 0 344 -57v113q0 157 -92 251.5t-244 94.5q-159 0 -342 -129l-34 51q205 141 380 141q185 0 293.5 -111.5t108.5 -301.5v-562q0 -45 37 -45v-61q-29 -3 -39 2q-28 6 -45 29.5t-19 54.5v92q-73 -94 -189.5 -146t-250.5 -52q-149 0 -249.5 94t-100.5 231zM825 213 q37 46 37 90v195q-158 61 -340 61q-170 0 -274.5 -68.5t-104.5 -181.5q0 -112 83.5 -191t207.5 -79q125 0 231.5 48t159.5 126z" />
<glyph unicode="&#xe6;" horiz-adv-x="1902" d="M76 307q0 135 123.5 222t316.5 87q147 0 291 -41q6 102 43 189q-25 119 -111 188.5t-213 69.5q-158 0 -344 -131l-30 51q204 139 378 139q134 0 229.5 -63.5t135.5 -177.5q68 110 179.5 175.5t242.5 65.5q107 0 203 -43.5t164.5 -117.5t109 -175.5t41.5 -214.5 q0 -4 -1 -14.5t-1 -15.5h-959q9 -128 72 -234t164.5 -166.5t218.5 -60.5t219.5 60t145.5 155l63 -16q-46 -112 -167.5 -185t-264.5 -73q-132 0 -245 65.5t-183 177.5q-62 -120 -196.5 -181.5t-278.5 -61.5q-145 0 -245.5 94.5t-100.5 232.5zM1765 557q-13 202 -139.5 332.5 t-308.5 130.5t-308 -132t-135 -331h891zM829 217q28 44 33 72q-52 101 -55 229q-133 43 -285 43q-169 0 -274 -69t-105 -183t83.5 -192t205.5 -78q129 0 236 48t161 130z" />
<glyph unicode="&#xe7;" horiz-adv-x="1107" d="M1032 236q-33 -95 -128 -163t-216 -87q105 -75 105 -172q0 -79 -55 -119.5t-148 -40.5q-122 0 -228 53l27 49q106 -49 189 -49q157 0 157 113q0 48 -29 85.5t-90 74.5h-6q-106 0 -202.5 44.5t-166 119.5t-110.5 178t-41 215q0 151 67 275.5t186 196.5t265 72 q138 0 247 -64t163 -177l-68 -25q-51 94 -143.5 147.5t-204.5 53.5q-186 0 -314 -138.5t-128 -340.5q0 -201 131.5 -346.5t312.5 -145.5q119 0 226.5 63t132.5 148z" />
<glyph unicode="&#xe8;" horiz-adv-x="1185" d="M446 1497h91l129 -162l-50 -26zM608 -20q-106 0 -202.5 45t-165.5 120t-109.5 178t-40.5 216q0 110 39.5 210.5t107.5 173t162.5 115.5t200.5 43q108 0 204 -43.5t164.5 -117.5t108.5 -175.5t41 -212.5q0 -22 -2 -32h-954q15 -195 144 -328t306 -133q117 0 219.5 60 t145.5 155l63 -16q-44 -112 -166.5 -185t-265.5 -73zM160 559h889q-13 201 -140 331t-307 130t-306 -131t-136 -330z" />
<glyph unicode="&#xe9;" horiz-adv-x="1185" d="M623 1307l-50 26l127 162h93zM608 -20q-106 0 -202.5 45t-165.5 120t-109.5 178t-40.5 216q0 110 39.5 210.5t107.5 173t162.5 115.5t200.5 43q108 0 204 -43.5t164.5 -117.5t108.5 -175.5t41 -212.5q0 -22 -2 -32h-954q15 -195 144 -328t306 -133q117 0 219.5 60 t145.5 155l63 -16q-44 -112 -166.5 -185t-265.5 -73zM160 559h889q-13 201 -140 331t-307 130t-306 -131t-136 -330z" />
<glyph unicode="&#xea;" horiz-adv-x="1185" d="M381 1337l192 158h54l194 -158l-47 -30l-174 129l-174 -129zM608 -20q-106 0 -202.5 45t-165.5 120t-109.5 178t-40.5 216q0 110 39.5 210.5t107.5 173t162.5 115.5t200.5 43q108 0 204 -43.5t164.5 -117.5t108.5 -175.5t41 -212.5q0 -22 -2 -32h-954q15 -195 144 -328 t306 -133q117 0 219.5 60t145.5 155l63 -16q-44 -112 -166.5 -185t-265.5 -73zM160 559h889q-13 201 -140 331t-307 130t-306 -131t-136 -330z" />
<glyph unicode="&#xeb;" horiz-adv-x="1185" d="M438 1327v168h64v-168h-64zM696 1327v168h64v-168h-64zM608 -20q-106 0 -202.5 45t-165.5 120t-109.5 178t-40.5 216q0 110 39.5 210.5t107.5 173t162.5 115.5t200.5 43q108 0 204 -43.5t164.5 -117.5t108.5 -175.5t41 -212.5q0 -22 -2 -32h-954q15 -195 144 -328 t306 -133q117 0 219.5 60t145.5 155l63 -16q-44 -112 -166.5 -185t-265.5 -73zM160 559h889q-13 201 -140 331t-307 130t-306 -131t-136 -330z" />
<glyph unicode="&#xec;" horiz-adv-x="403" d="M47 1497h90l129 -162l-49 -26zM166 0v1065h70v-1065h-70z" />
<glyph unicode="&#xed;" horiz-adv-x="403" d="M223 1307l-49 26l127 162h92zM166 0v1065h70v-1065h-70z" />
<glyph unicode="&#xee;" horiz-adv-x="403" d="M-18 1337l192 158h53l195 -158l-47 -30l-174 129l-174 -129zM166 0v1065h70v-1065h-70z" />
<glyph unicode="&#xef;" horiz-adv-x="403" d="M39 1327v168h63v-168h-63zM297 1327v168h63v-168h-63zM166 0v1065h70v-1065h-70z" />
<glyph unicode="&#xf0;" horiz-adv-x="1220" d="M797 1305q99 -90 165.5 -187t99.5 -198.5t45.5 -193.5t12.5 -204q0 -111 -41 -212t-110.5 -173t-165 -114.5t-199.5 -42.5q-138 0 -255.5 67t-186 181t-68.5 247t68.5 248t185 182.5t252.5 67.5q150 0 272.5 -78t178.5 -203q-20 161 -88 303t-218 279l-247 -160l-29 39 l240 152q-125 104 -277 190h100q133 -77 228 -160l192 125l27 -39zM604 45q182 0 314.5 136t132.5 321q0 167 -131.5 287t-311.5 120q-181 0 -311.5 -128.5t-130.5 -307.5q0 -177 128.5 -302.5t309.5 -125.5z" />
<glyph unicode="&#xf1;" horiz-adv-x="1167" d="M444 1421q-30 0 -52.5 -13t-32.5 -32t-14.5 -32.5t-4.5 -20.5h-53q0 8 2.5 23t13 39t26.5 43.5t46.5 34t70.5 14.5q55 0 131.5 -40t127.5 -40q31 0 54.5 9.5t35 22.5t18.5 28.5t8.5 24t1.5 13.5h56q0 -9 -3.5 -24t-15 -38t-29.5 -42.5t-52 -33.5t-77 -14q-52 0 -99 19.5 t-86 39t-73 19.5zM1014 0h-70v594q0 218 -62.5 320t-197.5 102q-146 0 -276 -100.5t-172 -249.5v-666h-70v1065h67v-266q65 126 193 204t270 78q165 0 241.5 -119t76.5 -360v-602z" />
<glyph unicode="&#xf2;" horiz-adv-x="1206" d="M449 1497h90l129 -162l-50 -26zM90 528q0 147 68.5 274.5t186.5 203t257 75.5q140 0 258.5 -75.5t187 -203t68.5 -274.5t-67.5 -273t-186.5 -200.5t-260 -74.5t-259.5 74.5t-185.5 200.5t-67 273zM600 45q90 0 172 39t141.5 104.5t95 155t35.5 186.5q0 130 -59.5 242 t-161.5 178t-221 66q-118 0 -220 -66.5t-162 -179.5t-60 -244q0 -198 129.5 -339.5t310.5 -141.5z" />
<glyph unicode="&#xf3;" horiz-adv-x="1206" d="M625 1307l-50 26l127 162h93zM90 528q0 147 68.5 274.5t186.5 203t257 75.5q140 0 258.5 -75.5t187 -203t68.5 -274.5t-67.5 -273t-186.5 -200.5t-260 -74.5t-259.5 74.5t-185.5 200.5t-67 273zM600 45q90 0 172 39t141.5 104.5t95 155t35.5 186.5q0 130 -59.5 242 t-161.5 178t-221 66q-118 0 -220 -66.5t-162 -179.5t-60 -244q0 -198 129.5 -339.5t310.5 -141.5z" />
<glyph unicode="&#xf4;" horiz-adv-x="1206" d="M383 1337l192 158h54l194 -158l-47 -30l-174 129l-174 -129zM90 528q0 147 68.5 274.5t186.5 203t257 75.5q140 0 258.5 -75.5t187 -203t68.5 -274.5t-67.5 -273t-186.5 -200.5t-260 -74.5t-259.5 74.5t-185.5 200.5t-67 273zM600 45q90 0 172 39t141.5 104.5t95 155 t35.5 186.5q0 130 -59.5 242t-161.5 178t-221 66q-118 0 -220 -66.5t-162 -179.5t-60 -244q0 -198 129.5 -339.5t310.5 -141.5z" />
<glyph unicode="&#xf5;" horiz-adv-x="1206" d="M463 1421q-30 0 -53 -13t-33 -32t-14.5 -32.5t-4.5 -20.5h-53q0 8 3 23t13 38.5t26.5 43.5t47 34.5t70.5 14.5q55 0 131 -40t127 -40q31 0 54.5 9.5t35.5 22.5t19 28.5t8.5 24t1.5 13.5h55q0 -9 -3 -24t-14.5 -38t-29.5 -42.5t-52 -33.5t-77 -14q-52 0 -99 19.5t-86 39 t-73 19.5zM90 528q0 147 68.5 274.5t186.5 203t257 75.5q140 0 258.5 -75.5t187 -203t68.5 -274.5t-67.5 -273t-186.5 -200.5t-260 -74.5t-259.5 74.5t-185.5 200.5t-67 273zM600 45q90 0 172 39t141.5 104.5t95 155t35.5 186.5q0 130 -59.5 242t-161.5 178t-221 66 q-118 0 -220 -66.5t-162 -179.5t-60 -244q0 -198 129.5 -339.5t310.5 -141.5z" />
<glyph unicode="&#xf6;" horiz-adv-x="1206" d="M440 1327v168h64v-168h-64zM698 1327v168h64v-168h-64zM90 528q0 147 68.5 274.5t186.5 203t257 75.5q140 0 258.5 -75.5t187 -203t68.5 -274.5t-67.5 -273t-186.5 -200.5t-260 -74.5t-259.5 74.5t-185.5 200.5t-67 273zM600 45q90 0 172 39t141.5 104.5t95 155 t35.5 186.5q0 130 -59.5 242t-161.5 178t-221 66q-118 0 -220 -66.5t-162 -179.5t-60 -244q0 -198 129.5 -339.5t310.5 -141.5z" />
<glyph unicode="&#xf7;" horiz-adv-x="1112" d="M524 797v147h64v-147h-64zM145 530v64h826v-64h-826zM524 178v146h64v-146h-64z" />
<glyph unicode="&#xf8;" horiz-adv-x="1206" d="M915 965q93 -77 147 -192.5t54 -244.5q0 -147 -67.5 -273t-186.5 -200.5t-260 -74.5t-264 77l-39 -57h-72l64 92q-94 78 -147.5 192.5t-53.5 243.5q0 147 68.5 274.5t186.5 203t257 75.5q142 0 264 -80l41 64h76zM160 526q0 -113 46 -212t124 -167l497 799 q-107 70 -225 70t-220 -66.5t-162 -179.5t-60 -244zM600 45q90 0 172 39t141.5 104.5t95 155t35.5 186.5q0 112 -44.5 211t-122.5 168l-502 -796q108 -68 225 -68z" />
<glyph unicode="&#xf9;" horiz-adv-x="1189" d="M428 1497h90l129 -162l-49 -26zM156 459v606h69v-598q0 -214 70 -318t215 -104t269 96t171 248v676h70v-959q0 -45 37 -45v-61q-27 -3 -39 2q-26 6 -44 30t-18 54l-2 176q-69 -130 -192 -206t-266 -76q-167 0 -253.5 121.5t-86.5 357.5z" />
<glyph unicode="&#xfa;" horiz-adv-x="1189" d="M604 1307l-49 26l127 162h92zM156 459v606h69v-598q0 -214 70 -318t215 -104t269 96t171 248v676h70v-959q0 -45 37 -45v-61q-27 -3 -39 2q-26 6 -44 30t-18 54l-2 176q-69 -130 -192 -206t-266 -76q-167 0 -253.5 121.5t-86.5 357.5z" />
<glyph unicode="&#xfb;" horiz-adv-x="1189" d="M362 1337l193 158h53l195 -158l-47 -30l-174 129l-174 -129zM156 459v606h69v-598q0 -214 70 -318t215 -104t269 96t171 248v676h70v-959q0 -45 37 -45v-61q-27 -3 -39 2q-26 6 -44 30t-18 54l-2 176q-69 -130 -192 -206t-266 -76q-167 0 -253.5 121.5t-86.5 357.5z" />
<glyph unicode="&#xfc;" horiz-adv-x="1189" d="M420 1327v168h63v-168h-63zM678 1327v168h63v-168h-63zM156 459v606h69v-598q0 -214 70 -318t215 -104t269 96t171 248v676h70v-959q0 -45 37 -45v-61q-27 -3 -39 2q-26 6 -44 30t-18 54l-2 176q-69 -130 -192 -206t-266 -76q-167 0 -253.5 121.5t-86.5 357.5z" />
<glyph unicode="&#xfd;" horiz-adv-x="1101" d="M584 1307l-49 26l127 162h92zM248 -389q79 -3 96 14q18 10 49 74.5t131 300.5l-485 1065h76l446 -987l420 987h72l-609 -1425q-33 -81 -112 -89q-38 -9 -84 -6v66z" />
<glyph unicode="&#xfe;" horiz-adv-x="1234" d="M631 -25q-119 0 -226.5 64.5t-166.5 161.5v-637h-72v1890h72v-616q171 243 411 243q90 0 170.5 -32t139 -86.5t101 -125.5t64 -150t21.5 -159q-3 -145 -70 -271.5t-185 -204t-259 -77.5zM647 1016q-135 0 -240.5 -82.5t-168.5 -208.5v-377q0 -77 65 -149.5t155.5 -114 t170.5 -41.5q95 0 179 41.5t142 109.5t91.5 155.5t33.5 178.5q0 126 -53 237.5t-152.5 181t-222.5 69.5z" />
<glyph unicode="&#xff;" horiz-adv-x="1101" d="M399 1327v168h64v-168h-64zM657 1327v168h64v-168h-64zM248 -389q79 -3 96 14q18 10 49 74.5t131 300.5l-485 1065h76l446 -987l420 987h72l-609 -1425q-33 -81 -112 -89q-38 -9 -84 -6v66z" />
<glyph unicode="&#x100;" horiz-adv-x="1382" d="M401 1774v57h580v-57h-580zM659 1454h62l625 -1454h-76l-215 502h-729l-215 -502h-78zM1032 563l-342 801l-344 -801h686z" />
<glyph unicode="&#x101;" horiz-adv-x="1085" d="M242 1391v57h579v-57h-579zM76 305q0 138 123.5 224.5t318.5 86.5q184 0 344 -57v113q0 157 -92 251.5t-244 94.5q-159 0 -342 -129l-34 51q205 141 380 141q185 0 293.5 -111.5t108.5 -301.5v-562q0 -45 37 -45v-61q-29 -3 -39 2q-28 6 -45 29.5t-19 54.5v92 q-73 -94 -189.5 -146t-250.5 -52q-149 0 -249.5 94t-100.5 231zM825 213q37 46 37 90v195q-158 61 -340 61q-170 0 -274.5 -68.5t-104.5 -181.5q0 -112 83.5 -191t207.5 -79q125 0 231.5 48t159.5 126z" />
<glyph unicode="&#x102;" horiz-adv-x="1382" d="M805 1878h51q0 -70 -50 -121t-116 -51q-68 0 -117 51t-49 121h54q0 -48 34.5 -87.5t77.5 -39.5q41 0 75 37.5t40 89.5zM659 1454h62l625 -1454h-76l-215 502h-729l-215 -502h-78zM1032 563l-342 801l-344 -801h686z" />
<glyph unicode="&#x103;" horiz-adv-x="1085" d="M645 1495h51q0 -70 -50 -121t-116 -51q-68 0 -116.5 51t-48.5 121h53q0 -48 34.5 -87.5t77.5 -39.5q41 0 75 37.5t40 89.5zM76 305q0 138 123.5 224.5t318.5 86.5q184 0 344 -57v113q0 157 -92 251.5t-244 94.5q-159 0 -342 -129l-34 51q205 141 380 141 q185 0 293.5 -111.5t108.5 -301.5v-562q0 -45 37 -45v-61q-29 -3 -39 2q-28 6 -45 29.5t-19 54.5v92q-73 -94 -189.5 -146t-250.5 -52q-149 0 -249.5 94t-100.5 231zM825 213q37 46 37 90v195q-158 61 -340 61q-170 0 -274.5 -68.5t-104.5 -181.5q0 -112 83.5 -191 t207.5 -79q125 0 231.5 48t159.5 126z" />
<glyph unicode="&#x104;" horiz-adv-x="1382" d="M1188 -199q0 -38 34 -59.5t115 -36.5l-26 -51q-183 27 -183 139q0 95 142 207l-215 502h-729l-215 -502h-78l626 1454h62l625 -1454q-85 -65 -121.5 -110.5t-36.5 -88.5zM346 563h686l-342 801z" />
<glyph unicode="&#x105;" horiz-adv-x="1085" d="M969 0q-85 -65 -121.5 -110.5t-36.5 -88.5q0 -38 34.5 -59.5t115.5 -36.5l-27 -51q-98 14 -140 49.5t-42 89.5q0 52 37.5 104.5t115.5 114.5q-36 22 -39 74v92q-73 -94 -189.5 -146t-250.5 -52q-149 0 -249.5 94t-100.5 231q0 138 123.5 224.5t318.5 86.5q184 0 344 -57 v113q0 157 -92 251.5t-244 94.5q-159 0 -342 -129l-34 51q205 141 380 141q185 0 293.5 -111.5t108.5 -301.5v-562q0 -45 37 -45v-61zM862 303v195q-158 61 -340 61q-170 0 -274.5 -68.5t-104.5 -181.5q0 -112 83.5 -191t207.5 -79q125 0 231.5 48t159.5 126q37 46 37 90z " />
<glyph unicode="&#x106;" horiz-adv-x="1421" d="M801 1690l-49 26l127 162h92zM782 1462q187 0 325.5 -86.5t207.5 -230.5l-62 -29q-38 75 -93.5 130.5t-119.5 87t-130 46.5t-136 15q-113 0 -212 -38t-170.5 -102.5t-123 -149.5t-77 -180.5t-25.5 -193.5q0 -176 81 -331.5t223 -250t310 -94.5q96 0 188.5 30t178.5 98.5 t137 166.5l64 -24q-47 -105 -143 -183.5t-208 -116.5t-225 -38q-144 0 -272.5 65t-216 171t-138.5 240.5t-51 272.5q0 105 29 209t88 197t140 164t192.5 113t238.5 42z" />
<glyph unicode="&#x107;" horiz-adv-x="1107" d="M625 1307l-50 26l127 162h93zM610 -20q-106 0 -202.5 44.5t-166 119.5t-110.5 178t-41 215q0 151 67 275.5t186 196.5t265 72q138 0 247 -64t163 -177l-68 -25q-51 94 -143.5 147.5t-204.5 53.5q-186 0 -314 -138.5t-128 -340.5q0 -201 131.5 -346.5t312.5 -145.5 q119 0 226.5 63t132.5 148l69 -20q-38 -110 -158.5 -183t-263.5 -73z" />
<glyph unicode="&#x108;" horiz-adv-x="1421" d="M559 1720l193 158h53l194 -158l-47 -30l-174 129l-174 -129zM782 1462q187 0 325.5 -86.5t207.5 -230.5l-62 -29q-38 75 -93.5 130.5t-119.5 87t-130 46.5t-136 15q-113 0 -212 -38t-170.5 -102.5t-123 -149.5t-77 -180.5t-25.5 -193.5q0 -176 81 -331.5t223 -250 t310 -94.5q96 0 188.5 30t178.5 98.5t137 166.5l64 -24q-47 -105 -143 -183.5t-208 -116.5t-225 -38q-144 0 -272.5 65t-216 171t-138.5 240.5t-51 272.5q0 105 29 209t88 197t140 164t192.5 113t238.5 42z" />
<glyph unicode="&#x109;" horiz-adv-x="1107" d="M383 1337l192 158h54l194 -158l-47 -30l-174 129l-174 -129zM610 -20q-106 0 -202.5 44.5t-166 119.5t-110.5 178t-41 215q0 151 67 275.5t186 196.5t265 72q138 0 247 -64t163 -177l-68 -25q-51 94 -143.5 147.5t-204.5 53.5q-186 0 -314 -138.5t-128 -340.5 q0 -201 131.5 -346.5t312.5 -145.5q119 0 226.5 63t132.5 148l69 -20q-38 -110 -158.5 -183t-263.5 -73z" />
<glyph unicode="&#x10a;" horiz-adv-x="1421" d="M745 1708v170h66v-170h-66zM782 1462q187 0 325.5 -86.5t207.5 -230.5l-62 -29q-38 75 -93.5 130.5t-119.5 87t-130 46.5t-136 15q-113 0 -212 -38t-170.5 -102.5t-123 -149.5t-77 -180.5t-25.5 -193.5q0 -176 81 -331.5t223 -250t310 -94.5q96 0 188.5 30t178.5 98.5 t137 166.5l64 -24q-47 -105 -143 -183.5t-208 -116.5t-225 -38q-144 0 -272.5 65t-216 171t-138.5 240.5t-51 272.5q0 105 29 209t88 197t140 164t192.5 113t238.5 42z" />
<glyph unicode="&#x10b;" horiz-adv-x="1107" d="M569 1325v170h66v-170h-66zM610 -20q-106 0 -202.5 44.5t-166 119.5t-110.5 178t-41 215q0 151 67 275.5t186 196.5t265 72q138 0 247 -64t163 -177l-68 -25q-51 94 -143.5 147.5t-204.5 53.5q-186 0 -314 -138.5t-128 -340.5q0 -201 131.5 -346.5t312.5 -145.5 q119 0 226.5 63t132.5 148l69 -20q-38 -110 -158.5 -183t-263.5 -73z" />
<glyph unicode="&#x10c;" horiz-adv-x="1421" d="M604 1878l174 -129l174 129l47 -29l-194 -159h-53l-193 159zM782 1462q187 0 325.5 -86.5t207.5 -230.5l-62 -29q-38 75 -93.5 130.5t-119.5 87t-130 46.5t-136 15q-113 0 -212 -38t-170.5 -102.5t-123 -149.5t-77 -180.5t-25.5 -193.5q0 -176 81 -331.5t223 -250 t310 -94.5q96 0 188.5 30t178.5 98.5t137 166.5l64 -24q-47 -105 -143 -183.5t-208 -116.5t-225 -38q-144 0 -272.5 65t-216 171t-138.5 240.5t-51 272.5q0 105 29 209t88 197t140 164t192.5 113t238.5 42z" />
<glyph unicode="&#x10d;" horiz-adv-x="1107" d="M428 1495l174 -129l174 129l47 -29l-194 -159h-54l-192 159zM610 -20q-106 0 -202.5 44.5t-166 119.5t-110.5 178t-41 215q0 151 67 275.5t186 196.5t265 72q138 0 247 -64t163 -177l-68 -25q-51 94 -143.5 147.5t-204.5 53.5q-186 0 -314 -138.5t-128 -340.5 q0 -201 131.5 -346.5t312.5 -145.5q119 0 226.5 63t132.5 148l69 -20q-38 -110 -158.5 -183t-263.5 -73z" />
<glyph unicode="&#x10e;" horiz-adv-x="1458" d="M543 1878l174 -129l174 129l47 -29l-195 -159h-53l-192 159zM197 0v1454h475q135 0 247.5 -37t192.5 -103t136 -157t83 -199t27 -229q0 -331 -186 -530t-500 -199h-475zM672 1389h-404v-1323h404q148 0 265.5 50.5t193 140t115.5 210t40 262.5q0 144 -41 265t-117.5 209 t-193.5 137t-262 49z" />
<glyph unicode="&#x10f;" horiz-adv-x="1247" d="M90 528q0 109 37.5 210.5t102 177t156.5 120.5t196 45q135 0 246.5 -73t179.5 -185v672h69v-1389q0 -45 37 -45v-61q-22 -3 -37 2q-29 7 -47 31.5t-18 54.5v129q-66 -106 -178.5 -171.5t-231.5 -65.5q-144 0 -263 79.5t-184 205t-65 263.5zM1214 1307l-49 26l127 162h92z M1008 352v367q-44 122 -167.5 209.5t-248.5 87.5q-95 0 -177 -42t-136.5 -110.5t-85.5 -156t-31 -179.5q0 -127 59 -238t163 -178t226 -67q81 0 170 41t155 114t73 152z" />
<glyph unicode="&#x110;" horiz-adv-x="1472" d="M686 1454q135 0 247.5 -37t192.5 -103t136 -157t83 -199t27 -229q0 -331 -186 -530t-500 -199h-475v700h-139v62h139v692h475zM686 66q148 0 265.5 50.5t193 140t115.5 210t40 262.5q0 144 -41 265t-117.5 209t-193.5 137t-262 49h-403v-627h379v-62h-379v-634h403z" />
<glyph unicode="&#x111;" horiz-adv-x="1247" d="M1229 1286h-152v-1180q0 -45 37 -45v-61q-22 -3 -37 2q-29 7 -47 31.5t-18 54.5v129q-66 -106 -178.5 -171.5t-231.5 -65.5q-144 0 -263 79.5t-184 205t-65 263.5q0 109 37.5 210.5t102 177t156.5 120.5t196 45q135 0 246.5 -73t179.5 -185v463h-248v57h248v152h69v-152 h152v-57zM1008 352v367q-44 122 -167.5 209.5t-248.5 87.5q-95 0 -177 -42t-136.5 -110.5t-85.5 -156t-31 -179.5q0 -127 59 -238t163 -178t226 -67q81 0 170 41t155 114t73 152z" />
<glyph unicode="&#x112;" horiz-adv-x="1259" d="M412 1774v57h579v-57h-579zM1157 66v-66h-960v1454h942v-65h-871v-613h762v-65h-762v-645h889z" />
<glyph unicode="&#x113;" horiz-adv-x="1185" d="M311 1391v57h580v-57h-580zM608 -20q-106 0 -202.5 45t-165.5 120t-109.5 178t-40.5 216q0 110 39.5 210.5t107.5 173t162.5 115.5t200.5 43q108 0 204 -43.5t164.5 -117.5t108.5 -175.5t41 -212.5q0 -22 -2 -32h-954q15 -195 144 -328t306 -133q117 0 219.5 60 t145.5 155l63 -16q-44 -112 -166.5 -185t-265.5 -73zM160 559h889q-13 201 -140 331t-307 130t-306 -131t-136 -330z" />
<glyph unicode="&#x114;" horiz-adv-x="1259" d="M815 1878h51q0 -70 -50 -121t-116 -51q-68 0 -116.5 51t-48.5 121h53q0 -48 34.5 -87.5t77.5 -39.5q41 0 75 37.5t40 89.5zM1157 66v-66h-960v1454h942v-65h-871v-613h762v-65h-762v-645h889z" />
<glyph unicode="&#x115;" horiz-adv-x="1185" d="M715 1495h51q0 -70 -50 -121t-116 -51q-68 0 -117 51t-49 121h53q0 -47 35 -87t78 -40q41 0 75 37.5t40 89.5zM608 -20q-106 0 -202.5 45t-165.5 120t-109.5 178t-40.5 216q0 110 39.5 210.5t107.5 173t162.5 115.5t200.5 43q108 0 204 -43.5t164.5 -117.5t108.5 -175.5 t41 -212.5q0 -22 -2 -32h-954q15 -195 144 -328t306 -133q117 0 219.5 60t145.5 155l63 -16q-44 -112 -166.5 -185t-265.5 -73zM160 559h889q-13 201 -140 331t-307 130t-306 -131t-136 -330z" />
<glyph unicode="&#x116;" horiz-adv-x="1259" d="M668 1708v170h65v-170h-65zM1157 66v-66h-960v1454h942v-65h-871v-613h762v-65h-762v-645h889z" />
<glyph unicode="&#x117;" horiz-adv-x="1185" d="M567 1325v170h66v-170h-66zM608 -20q-106 0 -202.5 45t-165.5 120t-109.5 178t-40.5 216q0 110 39.5 210.5t107.5 173t162.5 115.5t200.5 43q108 0 204 -43.5t164.5 -117.5t108.5 -175.5t41 -212.5q0 -22 -2 -32h-954q15 -195 144 -328t306 -133q117 0 219.5 60 t145.5 155l63 -16q-44 -112 -166.5 -185t-265.5 -73zM160 559h889q-13 201 -140 331t-307 130t-306 -131t-136 -330z" />
<glyph unicode="&#x118;" horiz-adv-x="1259" d="M1157 0q-85 -65 -121.5 -110.5t-36.5 -88.5q0 -38 34.5 -59.5t115.5 -36.5l-27 -51q-98 14 -140 49.5t-42 89.5q0 95 139 207h-882v1454h942v-65h-871v-613h762v-65h-762v-645h889v-66z" />
<glyph unicode="&#x119;" horiz-adv-x="1185" d="M1118 532q0 -22 -2 -32h-954q15 -195 144 -328t306 -133q117 0 219.5 60t145.5 155l63 -16q-33 -85 -114.5 -149.5t-186.5 -92.5q-83 -63 -118 -107.5t-35 -87.5q0 -38 34 -59.5t115 -36.5l-26 -51q-183 27 -183 139q0 87 117 189q-12 -2 -35 -2q-106 0 -202.5 45 t-165.5 120t-109.5 178t-40.5 216q0 110 39.5 210.5t107.5 173t162.5 115.5t200.5 43q108 0 204 -43.5t164.5 -117.5t108.5 -175.5t41 -212.5zM160 559h889q-13 201 -140 331t-307 130t-306 -131t-136 -330z" />
<glyph unicode="&#x11a;" horiz-adv-x="1259" d="M526 1878l174 -129l174 129l48 -29l-195 -159h-53l-193 159zM1157 66v-66h-960v1454h942v-65h-871v-613h762v-65h-762v-645h889z" />
<glyph unicode="&#x11b;" horiz-adv-x="1185" d="M426 1495l174 -129l174 129l47 -29l-194 -159h-54l-192 159zM608 -20q-106 0 -202.5 45t-165.5 120t-109.5 178t-40.5 216q0 110 39.5 210.5t107.5 173t162.5 115.5t200.5 43q108 0 204 -43.5t164.5 -117.5t108.5 -175.5t41 -212.5q0 -22 -2 -32h-954q15 -195 144 -328 t306 -133q117 0 219.5 60t145.5 155l63 -16q-44 -112 -166.5 -185t-265.5 -73zM160 559h889q-13 201 -140 331t-307 130t-306 -131t-136 -330z" />
<glyph unicode="&#x11c;" horiz-adv-x="1472" d="M758 1819l-174 -129l-45 30l192 158h53l195 -158l-47 -30zM950 698h402v-698h-66v238q-217 -248 -508 -248q-145 0 -274.5 64.5t-218 169t-140 236.5t-51.5 267q0 143 50.5 277t137 235.5t212 163t266.5 61.5q396 0 555 -317l-62 -31q-147 281 -495 281 q-132 0 -245.5 -58t-188 -152.5t-116.5 -214.5t-42 -245q0 -175 81.5 -329t224 -247.5t310.5 -93.5q277 0 504 265v315h-336v61z" />
<glyph unicode="&#x11d;" horiz-adv-x="1243" d="M397 1337l193 158h53l195 -158l-47 -30l-175 129l-174 -129zM90 528q0 145 62 271t177 204t257 78q246 0 426 -258v242h65v-1098q0 -104 -39.5 -186t-107.5 -133.5t-154 -78t-184 -26.5q-178 0 -287.5 64.5t-177.5 185.5l53 29q60 -109 169.5 -163t242.5 -54 q116 0 208.5 39.5t150 123t57.5 199.5v250q-67 -105 -179 -170t-231 -65q-142 0 -260.5 79.5t-183 204.5t-64.5 262zM1008 352v367q-49 129 -167 213t-249 84q-98 0 -181 -43.5t-136.5 -113.5t-83 -156t-29.5 -175q0 -127 59 -238t163 -178t226 -67q92 0 182.5 46.5 t149 117.5t66.5 143z" />
<glyph unicode="&#x11e;" horiz-adv-x="1472" d="M758 1706q-68 0 -117 51t-49 121h53q0 -47 35 -87t78 -40q41 0 74.5 37t39.5 90h52q0 -70 -50 -121t-116 -51zM950 698h402v-698h-66v238q-217 -248 -508 -248q-145 0 -274.5 64.5t-218 169t-140 236.5t-51.5 267q0 143 50.5 277t137 235.5t212 163t266.5 61.5 q396 0 555 -317l-62 -31q-147 281 -495 281q-132 0 -245.5 -58t-188 -152.5t-116.5 -214.5t-42 -245q0 -175 81.5 -329t224 -247.5t310.5 -93.5q277 0 504 265v315h-336v61z" />
<glyph unicode="&#x11f;" horiz-adv-x="1243" d="M731 1495h51q0 -70 -50 -121t-116 -51q-68 0 -116.5 51t-48.5 121h53q0 -48 34.5 -87.5t77.5 -39.5q41 0 75 37.5t40 89.5zM90 528q0 145 62 271t177 204t257 78q246 0 426 -258v242h65v-1098q0 -104 -39.5 -186t-107.5 -133.5t-154 -78t-184 -26.5q-178 0 -287.5 64.5 t-177.5 185.5l53 29q60 -109 169.5 -163t242.5 -54q116 0 208.5 39.5t150 123t57.5 199.5v250q-67 -105 -179 -170t-231 -65q-142 0 -260.5 79.5t-183 204.5t-64.5 262zM1008 352v367q-49 129 -167 213t-249 84q-98 0 -181 -43.5t-136.5 -113.5t-83 -156t-29.5 -175 q0 -127 59 -238t163 -178t226 -67q92 0 182.5 46.5t149 117.5t66.5 143z" />
<glyph unicode="&#x120;" horiz-adv-x="1472" d="M791 1878v-170h-66v170h66zM950 698h402v-698h-66v238q-217 -248 -508 -248q-145 0 -274.5 64.5t-218 169t-140 236.5t-51.5 267q0 143 50.5 277t137 235.5t212 163t266.5 61.5q396 0 555 -317l-62 -31q-147 281 -495 281q-132 0 -245.5 -58t-188 -152.5t-116.5 -214.5 t-42 -245q0 -175 81.5 -329t224 -247.5t310.5 -93.5q277 0 504 265v315h-336v61z" />
<glyph unicode="&#x121;" horiz-adv-x="1243" d="M584 1325v170h65v-170h-65zM90 528q0 145 62 271t177 204t257 78q246 0 426 -258v242h65v-1098q0 -104 -39.5 -186t-107.5 -133.5t-154 -78t-184 -26.5q-178 0 -287.5 64.5t-177.5 185.5l53 29q60 -109 169.5 -163t242.5 -54q116 0 208.5 39.5t150 123t57.5 199.5v250 q-67 -105 -179 -170t-231 -65q-142 0 -260.5 79.5t-183 204.5t-64.5 262zM1008 352v367q-49 129 -167 213t-249 84q-98 0 -181 -43.5t-136.5 -113.5t-83 -156t-29.5 -175q0 -127 59 -238t163 -178t226 -67q92 0 182.5 46.5t149 117.5t66.5 143z" />
<glyph unicode="&#x122;" horiz-adv-x="1472" d="M950 698h402v-698h-66v238q-217 -248 -508 -248q-145 0 -274.5 64.5t-218 169t-140 236.5t-51.5 267q0 143 50.5 277t137 235.5t212 163t266.5 61.5q396 0 555 -317l-62 -31q-147 281 -495 281q-132 0 -245.5 -58t-188 -152.5t-116.5 -214.5t-42 -245q0 -175 81.5 -329 t224 -247.5t310.5 -93.5q277 0 504 265v315h-336v61zM737 -233v131h76v-131l-35 -127h-41l25 127h-25z" />
<glyph unicode="&#x123;" horiz-adv-x="1243" d="M651 1495l-24 -123h24v-127h-76v127l35 123h41zM90 528q0 145 62 271t177 204t257 78q246 0 426 -258v242h65v-1098q0 -104 -39.5 -186t-107.5 -133.5t-154 -78t-184 -26.5q-178 0 -287.5 64.5t-177.5 185.5l53 29q60 -109 169.5 -163t242.5 -54q116 0 208.5 39.5 t150 123t57.5 199.5v250q-67 -105 -179 -170t-231 -65q-142 0 -260.5 79.5t-183 204.5t-64.5 262zM1008 352v367q-49 129 -167 213t-249 84q-98 0 -181 -43.5t-136.5 -113.5t-83 -156t-29.5 -175q0 -127 59 -238t163 -178t226 -67q92 0 182.5 46.5t149 117.5t66.5 143z" />
<glyph unicode="&#x124;" horiz-adv-x="1501" d="M535 1720l192 158h53l195 -158l-47 -30l-174 129l-174 -129zM1305 1454v-1454h-70v711h-967v-711h-71v1454h71v-678h967v678h70z" />
<glyph unicode="&#x125;" horiz-adv-x="1167" d="M414 1726l192 158h53l195 -158l-47 -30l-174 129l-174 -129zM1014 0h-70v594q0 209 -71 315.5t-209 106.5q-141 0 -264 -100.5t-164 -249.5v-666h-70v1495h70v-696q66 129 185.5 205.5t254.5 76.5q168 0 253 -123.5t85 -355.5v-602z" />
<glyph unicode="&#x126;" horiz-adv-x="1521" d="M1417 1184v-60h-102v-1124h-70v711h-966v-711h-72v1124h-103v60h103v270h72v-270h966v270h70v-270h102zM1245 776v348h-966v-348h966z" />
<glyph unicode="&#x127;" horiz-adv-x="1167" d="M676 1081q168 0 253 -123.5t85 -355.5v-602h-70v594q0 209 -71 315.5t-209 106.5q-141 0 -264 -100.5t-164 -249.5v-666h-70v1286h-143v57h143v152h70v-152h258v-57h-258v-487q66 129 185.5 205.5t254.5 76.5z" />
<glyph unicode="&#x128;" horiz-adv-x="464" d="M92 1804q-30 0 -52.5 -13t-32.5 -32t-14.5 -32.5t-4.5 -20.5h-54q0 8 3 23t13 38.5t26.5 43.5t47 34.5t70.5 14.5q55 0 131 -40t127 -40q31 0 54.5 9.5t35.5 22.5t19 28.5t8.5 24t1.5 13.5h55q0 -9 -3 -24t-14.5 -38t-29.5 -42.5t-52 -33.5t-77 -14q-52 0 -99 19.5 t-86 39t-73 19.5zM197 0v1454h71v-1454h-71z" />
<glyph unicode="&#x129;" horiz-adv-x="403" d="M61 1421q-30 0 -52.5 -13t-32.5 -32t-14.5 -32.5t-4.5 -20.5h-53q0 8 2.5 23t13 39t26.5 43.5t46.5 34t70.5 14.5q55 0 131.5 -40t127.5 -40q31 0 54.5 9.5t35 22.5t18.5 28.5t8.5 24t1.5 13.5h56q0 -9 -3.5 -24t-15 -38t-29.5 -42.5t-52 -33.5t-77 -14q-52 0 -99 19.5 t-86 39t-73 19.5zM166 0v1065h70v-1065h-70z" />
<glyph unicode="&#x12a;" horiz-adv-x="464" d="M-57 1774v57h579v-57h-579zM197 0v1454h71v-1454h-71z" />
<glyph unicode="&#x12b;" horiz-adv-x="403" d="M-88 1391v57h580v-57h-580zM166 0v1065h70v-1065h-70z" />
<glyph unicode="&#x12c;" horiz-adv-x="464" d="M346 1878h51q0 -70 -50 -121t-116 -51q-68 0 -116.5 51t-48.5 121h53q0 -48 34.5 -87.5t77.5 -39.5q41 0 75 37.5t40 89.5zM197 0v1454h71v-1454h-71z" />
<glyph unicode="&#x12d;" horiz-adv-x="403" d="M315 1495h52q0 -70 -50 -121t-116 -51q-68 0 -117 51t-49 121h53q0 -47 35 -87t78 -40q41 0 74.5 37t39.5 90zM166 0v1065h70v-1065h-70z" />
<glyph unicode="&#x12e;" horiz-adv-x="464" d="M268 0q-85 -64 -121 -110t-36 -89q0 -38 34 -59.5t115 -36.5l-27 -51q-98 14 -140 49.5t-42 89.5q0 51 36 101.5t110 109.5v1450h71v-1454z" />
<glyph unicode="&#x12f;" horiz-adv-x="403" d="M166 1495h70v-172h-70v172zM166 6v1059h70v-1065q-85 -65 -121.5 -110.5t-36.5 -88.5q0 -38 34 -59.5t115 -36.5l-26 -51q-183 27 -183 139q0 51 36.5 101.5t111.5 111.5z" />
<glyph unicode="&#x130;" horiz-adv-x="464" d="M199 1708v170h65v-170h-65zM197 0v1454h71v-1454h-71z" />
<glyph unicode="&#x131;" horiz-adv-x="403" d="M166 0v1065h70v-1065h-70z" />
<glyph unicode="&#x134;" horiz-adv-x="972" d="M541 1720l192 158h53l195 -158l-47 -30l-174 129l-174 -129zM63 125q118 -80 289 -80q70 0 124.5 15.5t94 42t67 71.5t44.5 95.5t26.5 123.5t13 144.5t3.5 169.5v747h70v-739q0 -103 -4 -180t-15.5 -158t-31 -138t-53 -109.5t-80 -84t-111.5 -50t-148 -18.5 q-182 0 -315 91z" />
<glyph unicode="&#x135;" horiz-adv-x="403" d="M-18 1337l192 158h53l195 -158l-47 -30l-174 129l-174 -129zM-262 -283l43 45q58 -51 166 -51q83 0 151 65t68 156v1133h70v-1131q0 -121 -88.5 -204.5t-196.5 -83.5q-139 0 -213 71z" />
<glyph unicode="&#x136;" horiz-adv-x="1284" d="M197 0v1454h71v-915l889 915h88l-612 -637l641 -817h-84l-606 772l-316 -321v-451h-71zM610 -360l25 127h-25v131h76v-131l-35 -127h-41z" />
<glyph unicode="&#x137;" horiz-adv-x="1052" d="M942 0l-434 590l-272 -248v-342h-70v1495h70v-1069l690 635h84l-453 -426l465 -635h-80zM506 -360l24 127h-24v131h76v-131l-35 -127h-41z" />
<glyph unicode="&#x138;" horiz-adv-x="1052" d="M942 0l-434 590l-272 -248v-342h-70v1065h70v-641l690 637h84l-453 -426l465 -635h-80z" />
<glyph unicode="&#x139;" horiz-adv-x="1187" d="M254 1696l-49 26l127 162h92zM197 0v1454h71v-1388h891v-66h-962z" />
<glyph unicode="&#x13a;" horiz-adv-x="507" d="M236 1696l-50 26l127 162h93zM176 1495h72v-1313q0 -64 33 -96.5t90 -32.5q47 0 121 21l16 -58q-76 -26 -156 -26q-79 0 -127.5 48.5t-48.5 129.5v1327z" />
<glyph unicode="&#x13b;" horiz-adv-x="1187" d="M197 0v1454h71v-1388h891v-66h-962zM637 -360l25 127h-25v131h76v-131l-35 -127h-41z" />
<glyph unicode="&#x13c;" horiz-adv-x="507" d="M176 1495h72v-1313q0 -64 33 -96.5t90 -32.5q47 0 121 21l16 -58q-76 -26 -156 -26q-79 0 -127.5 48.5t-48.5 129.5v1327zM297 -360l25 127h-25v131h76v-131l-35 -127h-41z" />
<glyph unicode="&#x13d;" horiz-adv-x="1187" d="M836 1319l-50 27l127 161h93zM197 0v1454h71v-1388h891v-66h-962z" />
<glyph unicode="&#x13e;" horiz-adv-x="507" d="M176 1495h72v-1313q0 -64 33 -96.5t90 -32.5q47 0 121 21l16 -58q-76 -26 -156 -26q-79 0 -127.5 48.5t-48.5 129.5v1327zM399 1307l-49 26l127 162h92z" />
<glyph unicode="&#x13f;" horiz-adv-x="1187" d="M197 0v1454h71v-1388h891v-66h-962zM750 731v187h63v-187h-63z" />
<glyph unicode="&#x140;" horiz-adv-x="557" d="M176 1495h72v-1313q0 -64 33 -96.5t90 -32.5q47 0 121 21l16 -58q-76 -26 -156 -26q-79 0 -127.5 48.5t-48.5 129.5v1327zM457 510v186h63v-186h-63z" />
<glyph unicode="&#x141;" horiz-adv-x="1202" d="M283 66h891v-66h-963v575l-125 -118l-35 47l160 151v799h72v-731l364 344l33 -45l-397 -379v-577z" />
<glyph unicode="&#x142;" horiz-adv-x="540" d="M522 74l17 -58q-76 -26 -156 -26q-79 0 -127.5 48.5t-48.5 129.5v577l-141 -131l-37 43l178 166v672h72v-606l186 174l37 -43l-223 -207v-631q0 -64 32.5 -96.5t89.5 -32.5q47 0 121 21z" />
<glyph unicode="&#x143;" horiz-adv-x="1587" d="M825 1690l-49 26l127 162h92zM268 1321v-1321h-71v1454h57l1065 -1341v1341h72v-1454h-74z" />
<glyph unicode="&#x144;" horiz-adv-x="1167" d="M606 1307l-49 26l127 162h92zM1014 0h-70v594q0 218 -62.5 320t-197.5 102q-146 0 -276 -100.5t-172 -249.5v-666h-70v1065h67v-266q65 126 193 204t270 78q165 0 241.5 -119t76.5 -360v-602z" />
<glyph unicode="&#x145;" horiz-adv-x="1587" d="M268 1321v-1321h-71v1454h57l1065 -1341v1341h72v-1454h-74zM762 -360l24 127h-24v131h76v-131l-35 -127h-41z" />
<glyph unicode="&#x146;" horiz-adv-x="1167" d="M1014 0h-70v594q0 218 -62.5 320t-197.5 102q-146 0 -276 -100.5t-172 -249.5v-666h-70v1065h67v-266q65 126 193 204t270 78q165 0 241.5 -119t76.5 -360v-602zM537 -360l24 127h-24v131h75v-131l-34 -127h-41z" />
<glyph unicode="&#x147;" horiz-adv-x="1587" d="M629 1878l174 -129l174 129l47 -29l-195 -159h-53l-192 159zM268 1321v-1321h-71v1454h57l1065 -1341v1341h72v-1454h-74z" />
<glyph unicode="&#x148;" horiz-adv-x="1167" d="M410 1495l174 -129l174 129l47 -29l-195 -159h-53l-192 159zM1014 0h-70v594q0 218 -62.5 320t-197.5 102q-146 0 -276 -100.5t-172 -249.5v-666h-70v1065h67v-266q65 126 193 204t270 78q165 0 241.5 -119t76.5 -360v-602z" />
<glyph unicode="&#x14a;" horiz-adv-x="1583" d="M268 1319v-1319h-71v1454h53l1067 -1339v1337h69v-1520q0 -121 -88.5 -203.5t-195.5 -82.5q-139 0 -213 71l43 45q58 -51 164 -51q83 0 152 65t69 156v68z" />
<glyph unicode="&#x14b;" horiz-adv-x="1167" d="M516 -283l43 45q58 -51 164 -51q83 0 152 65t69 156v662q0 218 -62.5 320t-197.5 102q-146 0 -276 -100.5t-172 -249.5v-666h-70v1065h67v-266q65 126 193 204t270 78q165 0 241.5 -119t76.5 -360v-668q0 -121 -89 -204.5t-196 -83.5q-139 0 -213 71z" />
<glyph unicode="&#x14c;" horiz-adv-x="1546" d="M485 1774v57h580v-57h-580zM94 727q0 192 88.5 361t246.5 272.5t345 103.5q146 0 275 -64.5t216 -168.5t137 -236t50 -268q0 -145 -52.5 -280t-142 -235.5t-216.5 -161t-267 -60.5q-147 1 -275.5 64t-216 165.5t-138 235.5t-50.5 272zM774 57q132 0 247.5 58t193 153 t121.5 215t44 244q0 129 -46.5 251t-126 214.5t-193.5 148.5t-240 56q-132 0 -248 -58t-193.5 -152.5t-122 -214.5t-44.5 -245q0 -130 46 -251.5t125 -214t193.5 -148.5t243.5 -56z" />
<glyph unicode="&#x14d;" horiz-adv-x="1206" d="M313 1391v57h580v-57h-580zM90 528q0 147 68.5 274.5t186.5 203t257 75.5q140 0 258.5 -75.5t187 -203t68.5 -274.5t-67.5 -273t-186.5 -200.5t-260 -74.5t-259.5 74.5t-185.5 200.5t-67 273zM600 45q90 0 172 39t141.5 104.5t95 155t35.5 186.5q0 130 -59.5 242 t-161.5 178t-221 66q-118 0 -220 -66.5t-162 -179.5t-60 -244q0 -198 129.5 -339.5t310.5 -141.5z" />
<glyph unicode="&#x14e;" horiz-adv-x="1546" d="M889 1878h51q0 -70 -50 -121t-116 -51q-68 0 -117 51t-49 121h54q0 -48 34.5 -87.5t77.5 -39.5q41 0 75 37.5t40 89.5zM94 727q0 192 88.5 361t246.5 272.5t345 103.5q146 0 275 -64.5t216 -168.5t137 -236t50 -268q0 -145 -52.5 -280t-142 -235.5t-216.5 -161 t-267 -60.5q-147 1 -275.5 64t-216 165.5t-138 235.5t-50.5 272zM774 57q132 0 247.5 58t193 153t121.5 215t44 244q0 129 -46.5 251t-126 214.5t-193.5 148.5t-240 56q-132 0 -248 -58t-193.5 -152.5t-122 -214.5t-44.5 -245q0 -130 46 -251.5t125 -214t193.5 -148.5 t243.5 -56z" />
<glyph unicode="&#x14f;" horiz-adv-x="1206" d="M717 1495h51q0 -70 -50 -121t-116 -51q-68 0 -117 51t-49 121h53q0 -47 35 -87t78 -40q41 0 75 37.5t40 89.5zM90 528q0 147 68.5 274.5t186.5 203t257 75.5q140 0 258.5 -75.5t187 -203t68.5 -274.5t-67.5 -273t-186.5 -200.5t-260 -74.5t-259.5 74.5t-185.5 200.5 t-67 273zM600 45q90 0 172 39t141.5 104.5t95 155t35.5 186.5q0 130 -59.5 242t-161.5 178t-221 66q-118 0 -220 -66.5t-162 -179.5t-60 -244q0 -198 129.5 -339.5t310.5 -141.5z" />
<glyph unicode="&#x150;" horiz-adv-x="1546" d="M643 1692l-45 26l127 162h88zM864 1692l-47 26l127 162h88zM94 727q0 192 88.5 361t246.5 272.5t345 103.5q146 0 275 -64.5t216 -168.5t137 -236t50 -268q0 -145 -52.5 -280t-142 -235.5t-216.5 -161t-267 -60.5q-147 1 -275.5 64t-216 165.5t-138 235.5t-50.5 272z M774 57q132 0 247.5 58t193 153t121.5 215t44 244q0 129 -46.5 251t-126 214.5t-193.5 148.5t-240 56q-132 0 -248 -58t-193.5 -152.5t-122 -214.5t-44.5 -245q0 -130 46 -251.5t125 -214t193.5 -148.5t243.5 -56z" />
<glyph unicode="&#x151;" horiz-adv-x="1206" d="M471 1309l-45 26l127 162h88zM692 1309l-47 26l127 162h88zM90 528q0 147 68.5 274.5t186.5 203t257 75.5q140 0 258.5 -75.5t187 -203t68.5 -274.5t-67.5 -273t-186.5 -200.5t-260 -74.5t-259.5 74.5t-185.5 200.5t-67 273zM600 45q90 0 172 39t141.5 104.5t95 155 t35.5 186.5q0 130 -59.5 242t-161.5 178t-221 66q-118 0 -220 -66.5t-162 -179.5t-60 -244q0 -198 129.5 -339.5t310.5 -141.5z" />
<glyph unicode="&#x152;" horiz-adv-x="2439" d="M2339 66v-66h-957v446q-73 -199 -237 -327.5t-367 -128.5q-148 0 -277.5 63t-217.5 166t-138.5 235.5t-50.5 272.5q0 192 88.5 361t246.5 272.5t345 103.5q211 0 374 -130t234 -328v448h938v-65h-868v-613h758v-65h-758v-645h887zM1380 729q0 128 -46.5 250t-126 214 t-193.5 148t-240 56q-132 0 -248 -58t-193.5 -152.5t-122 -214.5t-44.5 -245q0 -130 46 -251.5t125 -214t193.5 -148.5t243.5 -56q132 0 247.5 58t193 153t121.5 215.5t44 245.5z" />
<glyph unicode="&#x153;" horiz-adv-x="2140" d="M90 526q0 113 40.5 216t109.5 177t164.5 118t201.5 44q164 0 294 -104.5t177 -276.5q46 177 175 279t304 102q215 0 354 -148.5t161 -402.5q0 -4 1 -14.5t1 -15.5h-957q15 -193 151 -327t318 -134q123 0 226 60t141 155l61 -16q-47 -113 -169.5 -185.5t-262.5 -72.5 q-167 0 -306.5 106t-193.5 274q-56 -174 -186.5 -277t-296.5 -103q-139 0 -256 73t-184.5 198.5t-67.5 274.5zM2003 557q-13 202 -140 332.5t-307 130.5t-304.5 -131.5t-135.5 -331.5h887zM1044 528q0 100 -34.5 190t-93.5 155.5t-140.5 104t-171.5 38.5t-172 -39 t-141.5 -105t-95 -157.5t-35.5 -190.5q0 -201 128.5 -340t311.5 -139q122 0 224 64.5t161 175.5t59 243z" />
<glyph unicode="&#x154;" horiz-adv-x="1320" d="M633 1696l-49 26l127 162h92zM197 0v1454h598q88 0 166.5 -38.5t132 -101t85 -142.5t31.5 -162q0 -169 -100 -296.5t-256 -144.5l365 -569h-82l-361 561h-508v-561h-71zM268 627h539q99 0 176.5 56t117.5 142.5t40 184.5t-46 185t-127 140.5t-175 53.5h-525v-762z" />
<glyph unicode="&#x155;" horiz-adv-x="677" d="M397 1307l-49 26l127 162h92zM643 999q-147 -6 -255.5 -93.5t-151.5 -235.5v-670h-70v1065h67v-270q55 112 148.5 184t196.5 84q27 2 65 2v-66z" />
<glyph unicode="&#x156;" horiz-adv-x="1320" d="M197 0v1454h598q88 0 166.5 -38.5t132 -101t85 -142.5t31.5 -162q0 -169 -100 -296.5t-256 -144.5l365 -569h-82l-361 561h-508v-561h-71zM268 627h539q99 0 176.5 56t117.5 142.5t40 184.5t-46 185t-127 140.5t-175 53.5h-525v-762zM610 -360l25 127h-25v131h76v-131 l-35 -127h-41z" />
<glyph unicode="&#x157;" horiz-adv-x="677" d="M643 999q-147 -6 -255.5 -93.5t-151.5 -235.5v-670h-70v1065h67v-270q55 112 148.5 184t196.5 84q27 2 65 2v-66zM158 -360l24 127h-24v131h75v-131l-34 -127h-41z" />
<glyph unicode="&#x158;" horiz-adv-x="1320" d="M436 1884l174 -129l174 129l47 -29l-194 -159h-53l-193 159zM197 0v1454h598q88 0 166.5 -38.5t132 -101t85 -142.5t31.5 -162q0 -169 -100 -296.5t-256 -144.5l365 -569h-82l-361 561h-508v-561h-71zM268 627h539q99 0 176.5 56t117.5 142.5t40 184.5t-46 185 t-127 140.5t-175 53.5h-525v-762z" />
<glyph unicode="&#x159;" horiz-adv-x="677" d="M201 1495l174 -129l174 129l47 -29l-195 -159h-53l-192 159zM643 999q-147 -6 -255.5 -93.5t-151.5 -235.5v-670h-70v1065h67v-270q55 112 148.5 184t196.5 84q27 2 65 2v-66z" />
<glyph unicode="&#x15a;" horiz-adv-x="1234" d="M664 1731l-50 26l127 162h93zM1040 1239q-78 86 -173.5 123t-227.5 37q-224 0 -332 -85t-108 -239q0 -60 17 -103.5t48 -75t88.5 -56t122 -42t166.5 -38.5q88 -18 150 -34.5t125.5 -40t105 -52t75 -66.5t49 -88.5t15.5 -113.5q0 -181 -137.5 -278t-376.5 -97 q-338 0 -571 221l43 53q204 -213 530 -213q208 0 324.5 77t116.5 226q0 77 -27 131t-90 93t-145 65t-212 53q-73 15 -126.5 28t-107.5 30.5t-91 37.5t-70 47t-52.5 59t-30.5 74t-11 93q0 190 138 294.5t372 104.5q140 0 247.5 -41.5t194.5 -130.5z" />
<glyph unicode="&#x15b;" horiz-adv-x="972" d="M518 1307l-49 26l127 162h92zM487 -20q-257 0 -413 172l37 49q85 -82 175.5 -121t198.5 -39q150 0 242 64t92 176q0 31 -8.5 56t-21.5 44t-39.5 36t-50 28.5t-66.5 24.5t-76.5 21.5t-91.5 22.5q-54 14 -87.5 23.5t-73 23t-62 26.5t-46 31.5t-35 41t-19 51.5t-7.5 65 q0 149 108 227t275 78q123 0 216.5 -41.5t135.5 -109.5l-45 -39q-42 61 -127 95t-188 34q-86 0 -153 -23t-110.5 -77t-43.5 -134q0 -40 12 -68.5t29.5 -47.5t58 -36.5t75 -27.5t103.5 -28q51 -12 80.5 -20t71 -19.5t65.5 -21t54.5 -23.5t48 -28t36.5 -33t28 -40t15.5 -47 t6.5 -57q0 -142 -109.5 -225.5t-290.5 -83.5z" />
<glyph unicode="&#x15c;" horiz-adv-x="1234" d="M422 1761l192 158h54l194 -158l-47 -30l-174 129l-174 -129zM1040 1239q-78 86 -173.5 123t-227.5 37q-224 0 -332 -85t-108 -239q0 -60 17 -103.5t48 -75t88.5 -56t122 -42t166.5 -38.5q88 -18 150 -34.5t125.5 -40t105 -52t75 -66.5t49 -88.5t15.5 -113.5 q0 -181 -137.5 -278t-376.5 -97q-338 0 -571 221l43 53q204 -213 530 -213q208 0 324.5 77t116.5 226q0 77 -27 131t-90 93t-145 65t-212 53q-73 15 -126.5 28t-107.5 30.5t-91 37.5t-70 47t-52.5 59t-30.5 74t-11 93q0 190 138 294.5t372 104.5q140 0 247.5 -41.5 t194.5 -130.5z" />
<glyph unicode="&#x15d;" horiz-adv-x="972" d="M276 1337l193 158h53l195 -158l-47 -30l-174 129l-174 -129zM487 -20q-257 0 -413 172l37 49q85 -82 175.5 -121t198.5 -39q150 0 242 64t92 176q0 31 -8.5 56t-21.5 44t-39.5 36t-50 28.5t-66.5 24.5t-76.5 21.5t-91.5 22.5q-54 14 -87.5 23.5t-73 23t-62 26.5t-46 31.5 t-35 41t-19 51.5t-7.5 65q0 149 108 227t275 78q123 0 216.5 -41.5t135.5 -109.5l-45 -39q-42 61 -127 95t-188 34q-86 0 -153 -23t-110.5 -77t-43.5 -134q0 -40 12 -68.5t29.5 -47.5t58 -36.5t75 -27.5t103.5 -28q51 -12 80.5 -20t71 -19.5t65.5 -21t54.5 -23.5t48 -28 t36.5 -33t28 -40t15.5 -47t6.5 -57q0 -142 -109.5 -225.5t-290.5 -83.5z" />
<glyph unicode="&#x15e;" horiz-adv-x="1234" d="M1161 365q0 -169 -119.5 -265t-332.5 -108q56 -39 84 -80.5t28 -97.5q0 -79 -55 -119.5t-148 -40.5q-121 0 -227 53l27 49q106 -49 188 -49q158 0 158 113q0 52 -32.5 91t-102.5 79q-324 6 -553 221l43 53q204 -213 530 -213q208 0 324.5 77t116.5 226q0 77 -27 131 t-90 93t-145 65t-212 53q-73 15 -126.5 28t-107.5 30.5t-91 37.5t-70 47t-52.5 59t-30.5 74t-11 93q0 190 138 294.5t372 104.5q140 0 247.5 -41.5t194.5 -130.5l-39 -53q-78 86 -173.5 123t-227.5 37q-224 0 -332 -85t-108 -239q0 -60 17 -103.5t48 -75t88.5 -56t122 -42 t166.5 -38.5q88 -18 150 -34.5t125.5 -40t105 -52t75 -66.5t49 -88.5t15.5 -113.5z" />
<glyph unicode="&#x15f;" horiz-adv-x="972" d="M887 289q0 -125 -86 -205.5t-234 -99.5q103 -74 103 -170q0 -79 -55 -119.5t-148 -40.5q-121 0 -227 53l26 49q106 -49 189 -49q157 0 157 113q0 48 -29 86t-89 74h-7q-257 0 -413 172l37 49q85 -82 175.5 -121t198.5 -39q150 0 242 64t92 176q0 31 -8.5 56t-21.5 44 t-39.5 36t-50 28.5t-66.5 24.5t-76.5 21.5t-91.5 22.5q-54 14 -87.5 23.5t-73 23t-62 26.5t-46 31.5t-35 41t-19 51.5t-7.5 65q0 149 108 227t275 78q123 0 216.5 -41.5t135.5 -109.5l-45 -39q-42 61 -127 95t-188 34q-86 0 -153 -23t-110.5 -77t-43.5 -134q0 -40 12 -68.5 t29.5 -47.5t58 -36.5t75 -27.5t103.5 -28q51 -12 80.5 -20t71 -19.5t65.5 -21t54.5 -23.5t48 -28t36.5 -33t28 -40t15.5 -47t6.5 -57z" />
<glyph unicode="&#x160;" horiz-adv-x="1234" d="M467 1919l174 -129l174 129l47 -29l-194 -159h-54l-192 159zM1040 1239q-78 86 -173.5 123t-227.5 37q-224 0 -332 -85t-108 -239q0 -60 17 -103.5t48 -75t88.5 -56t122 -42t166.5 -38.5q88 -18 150 -34.5t125.5 -40t105 -52t75 -66.5t49 -88.5t15.5 -113.5 q0 -181 -137.5 -278t-376.5 -97q-338 0 -571 221l43 53q204 -213 530 -213q208 0 324.5 77t116.5 226q0 77 -27 131t-90 93t-145 65t-212 53q-73 15 -126.5 28t-107.5 30.5t-91 37.5t-70 47t-52.5 59t-30.5 74t-11 93q0 190 138 294.5t372 104.5q140 0 247.5 -41.5 t194.5 -130.5z" />
<glyph unicode="&#x161;" horiz-adv-x="972" d="M322 1495l174 -129l174 129l47 -29l-195 -159h-53l-193 159zM487 -20q-257 0 -413 172l37 49q85 -82 175.5 -121t198.5 -39q150 0 242 64t92 176q0 31 -8.5 56t-21.5 44t-39.5 36t-50 28.5t-66.5 24.5t-76.5 21.5t-91.5 22.5q-54 14 -87.5 23.5t-73 23t-62 26.5t-46 31.5 t-35 41t-19 51.5t-7.5 65q0 149 108 227t275 78q123 0 216.5 -41.5t135.5 -109.5l-45 -39q-42 61 -127 95t-188 34q-86 0 -153 -23t-110.5 -77t-43.5 -134q0 -40 12 -68.5t29.5 -47.5t58 -36.5t75 -27.5t103.5 -28q51 -12 80.5 -20t71 -19.5t65.5 -21t54.5 -23.5t48 -28 t36.5 -33t28 -40t15.5 -47t6.5 -57q0 -142 -109.5 -225.5t-290.5 -83.5z" />
<glyph unicode="&#x162;" horiz-adv-x="1234" d="M1198 1389h-545v-1377q73 -43 110.5 -89.5t37.5 -108.5q0 -79 -55 -119.5t-148 -40.5q-121 0 -227 53l26 49q106 -49 189 -49q157 0 157 113q0 55 -37 95.5t-116 84.5h-8v1389h-545v65h1161v-65z" />
<glyph unicode="&#x163;" horiz-adv-x="628" d="M463 -4q59 -39 89 -82t30 -100q0 -79 -55 -119.5t-148 -40.5q-121 0 -227 53l26 49q106 -49 189 -49q157 0 157 113q0 52 -32.5 91t-102.5 79q-79 5 -131.5 52t-52.5 124v838h-152v61h152v367h69v-367h252v-61h-252v-828q4 -57 44 -89t96 -32q40 0 80.5 12t61.5 23t26 16 l26 -57q-1 0 -8 -4.5t-15 -8.5t-22 -10.5t-28.5 -11.5t-33.5 -10t-38 -8z" />
<glyph unicode="&#x164;" horiz-adv-x="1234" d="M444 1878l174 -129l175 129l47 -29l-195 -159h-53l-193 159zM1198 1389h-545v-1389h-71v1389h-545v65h1161v-65z" />
<glyph unicode="&#x165;" horiz-adv-x="628" d="M481 1307l-49 26l127 162h92zM608 49q-1 0 -14 -7.5t-31 -15.5t-42.5 -16.5t-56 -14t-63.5 -5.5q-83 0 -139.5 47.5t-56.5 128.5v838h-152v61h152v367h69v-367h252v-61h-252v-828q4 -57 44 -89t96 -32q40 0 80.5 12t61.5 23t26 16z" />
<glyph unicode="&#x166;" horiz-adv-x="1310" d="M1237 1389h-545v-699h461v-61h-461v-629h-71v629h-463v61h463v699h-545v65h1161v-65z" />
<glyph unicode="&#x167;" horiz-adv-x="632" d="M584 106l26 -57q-1 0 -14 -7.5t-31 -15.5t-42.5 -16.5t-56 -14t-63.5 -5.5q-83 0 -139.5 47.5t-56.5 128.5v434h-148v57h148v347h-152v61h152v367h69v-367h252v-61h-252v-347h232v-57h-232v-424q4 -57 44 -89t96 -32q40 0 80.5 12t61.5 23t26 16z" />
<glyph unicode="&#x168;" horiz-adv-x="1548" d="M637 1804q-30 0 -53 -13t-33 -32t-14.5 -32.5t-4.5 -20.5h-53q0 8 3 23t13 38.5t26.5 43.5t47 34.5t70.5 14.5q55 0 131 -40t127 -40q31 0 54.5 9.5t35.5 22.5t19 28.5t8.5 24t1.5 13.5h55q0 -9 -3 -24t-14.5 -38t-29.5 -42.5t-52 -33.5t-77 -14q-52 0 -99 19.5t-86 39 t-73 19.5zM776 -10q-96 0 -178 21.5t-143 59.5t-109.5 92.5t-80 118t-52.5 137.5t-30 149.5t-9 156.5v729h72v-729q0 -88 11 -166.5t34.5 -155.5t65 -138.5t98 -108.5t138 -73t181.5 -26q121 0 215 38.5t152.5 101.5t96.5 151.5t52.5 180.5t14.5 196v729h69v-729 q0 -120 -19 -225t-63.5 -200.5t-112 -163t-170.5 -107t-233 -39.5z" />
<glyph unicode="&#x169;" horiz-adv-x="1189" d="M442 1421q-30 0 -52.5 -13t-32.5 -32t-14.5 -32.5t-4.5 -20.5h-53q0 8 2.5 23t13 39t26.5 43.5t46.5 34t70.5 14.5q55 0 131 -40t127 -40q31 0 54.5 9.5t35.5 22.5t19 28.5t8.5 24t1.5 13.5h56q0 -9 -3.5 -24t-15 -38t-29.5 -42.5t-52 -33.5t-77 -14q-52 0 -99 19.5 t-86 39t-73 19.5zM156 459v606h69v-598q0 -214 70 -318t215 -104t269 96t171 248v676h70v-959q0 -45 37 -45v-61q-27 -3 -39 2q-26 6 -44 30t-18 54l-2 176q-69 -130 -192 -206t-266 -76q-167 0 -253.5 121.5t-86.5 357.5z" />
<glyph unicode="&#x16a;" horiz-adv-x="1548" d="M487 1774v57h580v-57h-580zM776 -10q-96 0 -178 21.5t-143 59.5t-109.5 92.5t-80 118t-52.5 137.5t-30 149.5t-9 156.5v729h72v-729q0 -88 11 -166.5t34.5 -155.5t65 -138.5t98 -108.5t138 -73t181.5 -26q121 0 215 38.5t152.5 101.5t96.5 151.5t52.5 180.5t14.5 196v729 h69v-729q0 -120 -19 -225t-63.5 -200.5t-112 -163t-170.5 -107t-233 -39.5z" />
<glyph unicode="&#x16b;" horiz-adv-x="1189" d="M293 1391v57h579v-57h-579zM156 459v606h69v-598q0 -214 70 -318t215 -104t269 96t171 248v676h70v-959q0 -45 37 -45v-61q-27 -3 -39 2q-26 6 -44 30t-18 54l-2 176q-69 -130 -192 -206t-266 -76q-167 0 -253.5 121.5t-86.5 357.5z" />
<glyph unicode="&#x16c;" horiz-adv-x="1548" d="M891 1878h51q0 -70 -50 -121t-116 -51q-68 0 -117 51t-49 121h54q0 -48 34.5 -87.5t77.5 -39.5q41 0 75 37.5t40 89.5zM776 -10q-96 0 -178 21.5t-143 59.5t-109.5 92.5t-80 118t-52.5 137.5t-30 149.5t-9 156.5v729h72v-729q0 -88 11 -166.5t34.5 -155.5t65 -138.5 t98 -108.5t138 -73t181.5 -26q121 0 215 38.5t152.5 101.5t96.5 151.5t52.5 180.5t14.5 196v729h69v-729q0 -120 -19 -225t-63.5 -200.5t-112 -163t-170.5 -107t-233 -39.5z" />
<glyph unicode="&#x16d;" horiz-adv-x="1189" d="M696 1495h52q0 -70 -50 -121t-116 -51q-68 0 -117 51t-49 121h53q0 -47 35 -87t78 -40q41 0 74.5 37t39.5 90zM156 459v606h69v-598q0 -214 70 -318t215 -104t269 96t171 248v676h70v-959q0 -45 37 -45v-61q-27 -3 -39 2q-26 6 -44 30t-18 54l-2 176q-69 -130 -192 -206 t-266 -76q-167 0 -253.5 121.5t-86.5 357.5z" />
<glyph unicode="&#x16e;" horiz-adv-x="1548" d="M776 1929q69 0 116.5 -45t47.5 -112t-47.5 -113.5t-116.5 -46.5q-68 0 -115 46.5t-47 113.5t47 112t115 45zM670 1772q0 -46 31 -77.5t75 -31.5q42 0 75.5 31.5t33.5 77.5q0 48 -31.5 77t-77.5 29q-44 0 -75 -29t-31 -77zM776 -10q-96 0 -178 21.5t-143 59.5t-109.5 92.5 t-80 118t-52.5 137.5t-30 149.5t-9 156.5v729h72v-729q0 -88 11 -166.5t34.5 -155.5t65 -138.5t98 -108.5t138 -73t181.5 -26q121 0 215 38.5t152.5 101.5t96.5 151.5t52.5 180.5t14.5 196v729h69v-729q0 -120 -19 -225t-63.5 -200.5t-112 -163t-170.5 -107t-233 -39.5z" />
<glyph unicode="&#x16f;" horiz-adv-x="1189" d="M582 1546q69 0 116 -45t47 -112q0 -68 -47 -114t-116 -46q-68 0 -115 46.5t-47 113.5t47 112t115 45zM475 1389q0 -46 31.5 -77.5t75.5 -31.5q41 0 74.5 31.5t33.5 77.5q0 48 -31 77t-77 29q-44 0 -75.5 -29t-31.5 -77zM156 459v606h69v-598q0 -214 70 -318t215 -104 t269 96t171 248v676h70v-959q0 -45 37 -45v-61q-27 -3 -39 2q-26 6 -44 30t-18 54l-2 176q-69 -130 -192 -206t-266 -76q-167 0 -253.5 121.5t-86.5 357.5z" />
<glyph unicode="&#x170;" horiz-adv-x="1548" d="M645 1692l-45 26l127 162h88zM866 1692l-47 26l127 162h88zM776 -10q-96 0 -178 21.5t-143 59.5t-109.5 92.5t-80 118t-52.5 137.5t-30 149.5t-9 156.5v729h72v-729q0 -88 11 -166.5t34.5 -155.5t65 -138.5t98 -108.5t138 -73t181.5 -26q121 0 215 38.5t152.5 101.5 t96.5 151.5t52.5 180.5t14.5 196v729h69v-729q0 -120 -19 -225t-63.5 -200.5t-112 -163t-170.5 -107t-233 -39.5z" />
<glyph unicode="&#x171;" horiz-adv-x="1189" d="M451 1309l-45 26l126 162h89zM672 1309l-47 26l127 162h88zM156 459v606h69v-598q0 -214 70 -318t215 -104t269 96t171 248v676h70v-959q0 -45 37 -45v-61q-27 -3 -39 2q-26 6 -44 30t-18 54l-2 176q-69 -130 -192 -206t-266 -76q-167 0 -253.5 121.5t-86.5 357.5z" />
<glyph unicode="&#x172;" horiz-adv-x="1548" d="M1305 1454h69v-729q0 -137 -26 -254.5t-80.5 -218t-150 -167t-224.5 -87.5q-84 -63 -120 -108.5t-36 -88.5q0 -38 34.5 -59.5t115.5 -36.5l-27 -51q-98 14 -140 49.5t-42 89.5q0 91 127 197h-29q-96 0 -178 21.5t-143 59.5t-109.5 92.5t-80 118t-52.5 137.5t-30 149.5 t-9 156.5v729h72v-729q0 -88 11 -166.5t34.5 -155.5t65 -138.5t98 -108.5t138 -73t181.5 -26q121 0 215 38.5t152.5 101.5t96.5 151.5t52.5 180.5t14.5 196v729z" />
<glyph unicode="&#x173;" horiz-adv-x="1189" d="M1057 0q-85 -65 -121.5 -110.5t-36.5 -88.5q0 -38 34.5 -59.5t115.5 -36.5l-27 -51q-98 14 -140 49.5t-42 89.5q0 53 38 105t117 114q-39 24 -39 74l-2 176q-69 -130 -192 -206t-266 -76q-167 0 -253.5 121.5t-86.5 357.5v606h69v-598q0 -214 70 -318t215 -104t269 96 t171 248v676h70v-959q0 -45 37 -45v-61z" />
<glyph unicode="&#x174;" horiz-adv-x="2129" d="M844 1720l192 158h54l194 -158l-47 -30l-174 129l-174 -129zM766 1442h72l225 -537l229 537h72l-258 -602l328 -756l585 1370h78l-629 -1454h-69l-334 774l-334 -774h-69l-627 1454h76l587 -1370l326 756z" />
<glyph unicode="&#x175;" horiz-adv-x="1638" d="M600 1337l193 158h53l194 -158l-47 -30l-174 129l-174 -129zM1520 1065h71l-463 -1065h-61l-248 578l-250 -578h-61l-463 1065h72l424 -981l237 557l-178 422h68l151 -356l152 356h65l-178 -422l240 -557z" />
<glyph unicode="&#x176;" horiz-adv-x="1318" d="M438 1720l193 158h53l195 -158l-48 -30l-174 129l-174 -129zM123 1454l534 -825l539 825h80l-582 -897v-557h-71v561l-580 893h80z" />
<glyph unicode="&#x177;" horiz-adv-x="1101" d="M342 1337l193 158h53l194 -158l-47 -30l-174 129l-174 -129zM248 -389q79 -3 96 14q18 10 49 74.5t131 300.5l-485 1065h76l446 -987l420 987h72l-609 -1425q-33 -81 -112 -89q-38 -9 -84 -6v66z" />
<glyph unicode="&#x178;" horiz-adv-x="1318" d="M496 1710v168h63v-168h-63zM754 1710v168h63v-168h-63zM123 1454l534 -825l539 825h80l-582 -897v-557h-71v561l-580 893h80z" />
<glyph unicode="&#x179;" horiz-adv-x="1280" d="M698 1690l-49 26l127 162h92zM59 61l1076 1328h-1063v65h1147v-61l-1072 -1327h1065v-66h-1153v61z" />
<glyph unicode="&#x17a;" horiz-adv-x="1001" d="M551 1307l-49 26l127 162h92zM66 57l784 949h-772v59h854v-57l-780 -949h774v-59h-860v57z" />
<glyph unicode="&#x17b;" horiz-adv-x="1280" d="M643 1708v170h66v-170h-66zM59 61l1076 1328h-1063v65h1147v-61l-1072 -1327h1065v-66h-1153v61z" />
<glyph unicode="&#x17c;" horiz-adv-x="1001" d="M496 1325v170h65v-170h-65zM66 57l784 949h-772v59h854v-57l-780 -949h774v-59h-860v57z" />
<glyph unicode="&#x17d;" horiz-adv-x="1280" d="M502 1878l174 -129l174 129l47 -29l-195 -159h-53l-192 159zM59 61l1076 1328h-1063v65h1147v-61l-1072 -1327h1065v-66h-1153v61z" />
<glyph unicode="&#x17e;" horiz-adv-x="1001" d="M354 1495l174 -129l174 129l48 -29l-195 -159h-53l-193 159zM66 57l784 949h-772v59h854v-57l-780 -949h774v-59h-860v57z" />
<glyph unicode="&#x18f;" horiz-adv-x="1511" d="M66 719v35h1273q-10 135 -62 254.5t-132.5 204t-188 133.5t-225.5 49q-160 0 -299 -86t-192 -222l-70 31q62 150 222.5 248t346.5 98q137 0 262.5 -60t216.5 -161t145 -240.5t54 -291.5q0 -149 -52.5 -283.5t-141.5 -232.5t-212.5 -155.5t-260.5 -57.5q-142 0 -269.5 58 t-218 157t-143.5 235t-53 287zM1341 686h-1198q19 -277 188.5 -456t413.5 -179q120 0 227 48t186 132t127.5 202t55.5 253z" />
<glyph unicode="&#x192;" horiz-adv-x="1050" d="M61 -283l43 45q58 -51 164 -51q85 0 153 65t68 156v947h-151v61h151v164q0 193 77 302.5t214 109.5q58 0 114.5 -19.5t88.5 -50.5l-35 -47q-26 24 -70 38.5t-90 14.5q-110 0 -169.5 -90t-59.5 -258v-164h311v-61h-311v-947q0 -121 -88.5 -203.5t-196.5 -82.5 q-139 0 -213 71z" />
<glyph unicode="&#x1a0;" horiz-adv-x="1546" d="M1020 1413q130 -55 229 -164t151 -244.5t52 -277.5q0 -145 -52.5 -280t-142 -235.5t-216.5 -161t-267 -60.5q-147 1 -275.5 64t-216 165.5t-138 235.5t-50.5 272q0 192 88.5 361t246.5 272.5t345 103.5q55 0 117 -10q125 0 166 47q30 35 33 125h67q-5 -66 -14 -99 t-37 -65q-27 -30 -86 -49zM774 57q132 0 247.5 58t193 153t121.5 215t44 244q0 129 -46.5 251t-126 214.5t-193.5 148.5t-240 56q-132 0 -248 -58t-193.5 -152.5t-122 -214.5t-44.5 -245q0 -130 46 -251.5t125 -214t193.5 -148.5t243.5 -56z" />
<glyph unicode="&#x1a1;" horiz-adv-x="1206" d="M836 1020q127 -70 203.5 -202.5t76.5 -289.5q0 -147 -67.5 -273t-186.5 -200.5t-260 -74.5t-259.5 74.5t-185.5 200.5t-67 273t68.5 274.5t186.5 203t257 75.5q61 0 123 -16q123 0 164 47q30 35 33 125h67q-5 -66 -14 -99t-37 -65q-29 -34 -102 -53zM600 45q90 0 172 39 t141.5 104.5t95 155t35.5 186.5q0 130 -59.5 242t-161.5 178t-221 66q-118 0 -220 -66.5t-162 -179.5t-60 -244q0 -198 129.5 -339.5t310.5 -141.5z" />
<glyph unicode="&#x1af;" horiz-adv-x="1548" d="M1524 1628h67q-5 -66 -14 -99t-37 -65q-49 -52 -166 -65v-674q0 -120 -19 -225t-63.5 -200.5t-112 -163t-170.5 -107t-233 -39.5q-96 0 -178 21.5t-143 59.5t-109.5 92.5t-80 118t-52.5 137.5t-30 149.5t-9 156.5v729h72v-729q0 -88 11 -166.5t34.5 -155.5t65 -138.5 t98 -108.5t138 -73t181.5 -26q121 0 215 38.5t152.5 101.5t96.5 151.5t52.5 180.5t14.5 196v729h20v2q125 0 166 47q30 35 33 125z" />
<glyph unicode="&#x1b0;" horiz-adv-x="1189" d="M1163 1237h68q-5 -66 -14 -99t-37 -65q-44 -50 -160 -63v-904q0 -45 37 -45v-61q-27 -3 -39 2q-26 6 -44 30t-18 54l-2 176q-69 -130 -192 -206t-266 -76q-167 0 -253.5 121.5t-86.5 357.5v606h69v-598q0 -214 70 -318t215 -104t269 96t171 248v676h15q124 0 165 47 q30 35 33 125z" />
<glyph unicode="&#x1e6;" horiz-adv-x="1472" d="M784 1690h-53l-192 159l45 29l174 -129l174 129l47 -29zM950 698h402v-698h-66v238q-217 -248 -508 -248q-145 0 -274.5 64.5t-218 169t-140 236.5t-51.5 267q0 143 50.5 277t137 235.5t212 163t266.5 61.5q396 0 555 -317l-62 -31q-147 281 -495 281q-132 0 -245.5 -58 t-188 -152.5t-116.5 -214.5t-42 -245q0 -175 81.5 -329t224 -247.5t310.5 -93.5q277 0 504 265v315h-336v61z" />
<glyph unicode="&#x1e7;" horiz-adv-x="1243" d="M442 1495l174 -129l175 129l47 -29l-195 -159h-53l-193 159zM90 528q0 145 62 271t177 204t257 78q246 0 426 -258v242h65v-1098q0 -104 -39.5 -186t-107.5 -133.5t-154 -78t-184 -26.5q-178 0 -287.5 64.5t-177.5 185.5l53 29q60 -109 169.5 -163t242.5 -54 q116 0 208.5 39.5t150 123t57.5 199.5v250q-67 -105 -179 -170t-231 -65q-142 0 -260.5 79.5t-183 204.5t-64.5 262zM1008 352v367q-49 129 -167 213t-249 84q-98 0 -181 -43.5t-136.5 -113.5t-83 -156t-29.5 -175q0 -127 59 -238t163 -178t226 -67q92 0 182.5 46.5 t149 117.5t66.5 143z" />
<glyph unicode="&#x1ea;" horiz-adv-x="1546" d="M883 0q-83 -66 -118.5 -110.5t-35.5 -86.5q0 -38 34.5 -59.5t115.5 -36.5l-27 -51q-98 14 -140 49.5t-42 89.5q0 88 125 195h-21q-147 1 -275.5 64t-216 165.5t-138 235.5t-50.5 272q0 192 88.5 361t246.5 272.5t345 103.5q146 0 275 -64.5t216 -168.5t137 -236t50 -268 q0 -174 -72.5 -330.5t-203.5 -262.5t-293 -134zM166 727q0 -130 46 -251.5t125 -214t193.5 -148.5t243.5 -56q132 0 247.5 58t193 153t121.5 215t44 244q0 129 -46.5 251t-126 214.5t-193.5 148.5t-240 56q-132 0 -248 -58t-193.5 -152.5t-122 -214.5t-44.5 -245z" />
<glyph unicode="&#x1eb;" horiz-adv-x="1206" d="M713 -8q-79 -62 -113.5 -106t-34.5 -85q0 -38 34.5 -59.5t115.5 -36.5l-27 -51q-98 14 -140 49.5t-42 89.5q0 88 117 187h-21q-141 0 -259.5 74.5t-185.5 200.5t-67 273t68.5 274.5t186.5 203t257 75.5q140 0 258.5 -75.5t187 -203t68.5 -274.5q0 -193 -114 -344 t-289 -192zM600 45q90 0 172 39t141.5 104.5t95 155t35.5 186.5q0 130 -59.5 242t-161.5 178t-221 66q-118 0 -220 -66.5t-162 -179.5t-60 -244q0 -198 129.5 -339.5t310.5 -141.5z" />
<glyph unicode="&#x1fa;" horiz-adv-x="1382" d="M725 1444l621 -1444h-76l-215 502h-729l-215 -502h-78l622 1444q-56 11 -91.5 54t-35.5 101q0 67 47 112.5t115 45.5l117 148h92l-145 -160q45 -18 72.5 -57t27.5 -89q0 -58 -36 -101t-93 -54zM584 1599q0 -46 31 -77t75 -31q42 0 75.5 31t33.5 77q0 48 -31.5 77.5 t-77.5 29.5q-44 0 -75 -29.5t-31 -77.5zM346 563h686l-342 801z" />
<glyph unicode="&#x1fb;" horiz-adv-x="1085" d="M567 1692l-49 26l127 162h92zM530 1546q69 0 116.5 -45t47.5 -112t-47.5 -113.5t-116.5 -46.5q-68 0 -114.5 46.5t-46.5 113.5t46.5 112t114.5 45zM424 1389q0 -46 31 -77.5t75 -31.5q42 0 75.5 31.5t33.5 77.5q0 48 -31.5 77t-77.5 29q-44 0 -75 -29t-31 -77zM76 305 q0 138 123.5 224.5t318.5 86.5q184 0 344 -57v113q0 157 -92 251.5t-244 94.5q-159 0 -342 -129l-34 51q205 141 380 141q185 0 293.5 -111.5t108.5 -301.5v-562q0 -45 37 -45v-61q-29 -3 -39 2q-28 6 -45 29.5t-19 54.5v92q-73 -94 -189.5 -146t-250.5 -52 q-149 0 -249.5 94t-100.5 231zM825 213q37 46 37 90v195q-158 61 -340 61q-170 0 -274.5 -68.5t-104.5 -181.5q0 -112 83.5 -191t207.5 -79q125 0 231.5 48t159.5 126z" />
<glyph unicode="&#x1fc;" horiz-adv-x="1970" d="M1161 1690l-49 26l127 162h92zM895 1454h956v-65h-868v-613h758v-65h-758v-645h887v-66h-957v502h-563l-325 -502h-82zM909 567v791l-522 -791h522z" />
<glyph unicode="&#x1fd;" horiz-adv-x="1902" d="M928 1307l-49 26l127 162h92zM76 307q0 135 123.5 222t316.5 87q147 0 291 -41q6 102 43 189q-25 119 -111 188.5t-213 69.5q-158 0 -344 -131l-30 51q204 139 378 139q134 0 229.5 -63.5t135.5 -177.5q68 110 179.5 175.5t242.5 65.5q107 0 203 -43.5t164.5 -117.5 t109 -175.5t41.5 -214.5q0 -4 -1 -14.5t-1 -15.5h-959q9 -128 72 -234t164.5 -166.5t218.5 -60.5t219.5 60t145.5 155l63 -16q-46 -112 -167.5 -185t-264.5 -73q-132 0 -245 65.5t-183 177.5q-62 -120 -196.5 -181.5t-278.5 -61.5q-145 0 -245.5 94.5t-100.5 232.5z M1765 557q-13 202 -139.5 332.5t-308.5 130.5t-308 -132t-135 -331h891zM829 217q28 44 33 72q-52 101 -55 229q-133 43 -285 43q-169 0 -274 -69t-105 -183t83.5 -192t205.5 -78q129 0 236 48t161 130z" />
<glyph unicode="&#x1fe;" horiz-adv-x="1546" d="M967 1878l-170 -188l-49 26l126 162h93zM1190 1307q123 -107 192.5 -262t69.5 -318q0 -145 -52.5 -280t-142 -235.5t-216.5 -161t-267 -60.5q-202 0 -364 114l-68 -104h-82l96 147q-123 106 -192.5 260t-69.5 320q0 192 88.5 361t246.5 272.5t345 103.5q200 0 361 -114 l67 104h84zM166 727q0 -151 60 -288.5t167 -233.5l705 1087q-146 105 -324 105q-132 0 -248 -58t-193.5 -152.5t-122 -214.5t-44.5 -245zM774 57q132 0 247.5 58t193 153t121.5 215t44 244q0 149 -61 287t-166 233l-707 -1085q146 -105 328 -105z" />
<glyph unicode="&#x1ff;" horiz-adv-x="1206" d="M680 1495l-170 -188l-49 26l127 162h92zM915 965q93 -77 147 -192.5t54 -244.5q0 -147 -67.5 -273t-186.5 -200.5t-260 -74.5t-264 77l-39 -57h-72l64 92q-94 78 -147.5 192.5t-53.5 243.5q0 147 68.5 274.5t186.5 203t257 75.5q142 0 264 -80l41 64h76zM160 526 q0 -113 46 -212t124 -167l497 799q-107 70 -225 70t-220 -66.5t-162 -179.5t-60 -244zM600 45q90 0 172 39t141.5 104.5t95 155t35.5 186.5q0 112 -44.5 211t-122.5 168l-502 -796q108 -68 225 -68z" />
<glyph unicode="&#x200;" horiz-adv-x="1382" d="M410 1880h88l127 -162l-45 -26zM631 1880h86l127 -162l-45 -26zM659 1454h62l625 -1454h-76l-215 502h-729l-215 -502h-78zM1032 563l-342 801l-344 -801h686z" />
<glyph unicode="&#x201;" horiz-adv-x="1085" d="M250 1497h88l127 -162l-45 -26zM471 1497h86l127 -162l-45 -26zM76 305q0 138 123.5 224.5t318.5 86.5q184 0 344 -57v113q0 157 -92 251.5t-244 94.5q-159 0 -342 -129l-34 51q205 141 380 141q185 0 293.5 -111.5t108.5 -301.5v-562q0 -45 37 -45v-61q-29 -3 -39 2 q-28 6 -45 29.5t-19 54.5v92q-73 -94 -189.5 -146t-250.5 -52q-149 0 -249.5 94t-100.5 231zM825 213q37 46 37 90v195q-158 61 -340 61q-170 0 -274.5 -68.5t-104.5 -181.5q0 -112 83.5 -191t207.5 -79q125 0 231.5 48t159.5 126z" />
<glyph unicode="&#x202;" horiz-adv-x="1382" d="M578 1706h-54q0 70 49 121t117 51q66 0 116 -51t50 -121h-51q-6 52 -40 89.5t-75 37.5q-43 0 -77.5 -39.5t-34.5 -87.5zM659 1454h62l625 -1454h-76l-215 502h-729l-215 -502h-78zM1032 563l-342 801l-344 -801h686z" />
<glyph unicode="&#x203;" horiz-adv-x="1085" d="M418 1323h-53q0 70 48.5 121t116.5 51q66 0 116 -51t50 -121h-51q-6 52 -40 89.5t-75 37.5q-43 0 -77.5 -39.5t-34.5 -87.5zM76 305q0 138 123.5 224.5t318.5 86.5q184 0 344 -57v113q0 157 -92 251.5t-244 94.5q-159 0 -342 -129l-34 51q205 141 380 141 q185 0 293.5 -111.5t108.5 -301.5v-562q0 -45 37 -45v-61q-29 -3 -39 2q-28 6 -45 29.5t-19 54.5v92q-73 -94 -189.5 -146t-250.5 -52q-149 0 -249.5 94t-100.5 231zM825 213q37 46 37 90v195q-158 61 -340 61q-170 0 -274.5 -68.5t-104.5 -181.5q0 -112 83.5 -191 t207.5 -79q125 0 231.5 48t159.5 126z" />
<glyph unicode="&#x204;" horiz-adv-x="1259" d="M420 1880h88l127 -162l-45 -26zM641 1880h86l127 -162l-45 -26zM1157 66v-66h-960v1454h942v-65h-871v-613h762v-65h-762v-645h889z" />
<glyph unicode="&#x205;" horiz-adv-x="1185" d="M319 1497h89l127 -162l-46 -26zM541 1497h86l127 -162l-45 -26zM608 -20q-106 0 -202.5 45t-165.5 120t-109.5 178t-40.5 216q0 110 39.5 210.5t107.5 173t162.5 115.5t200.5 43q108 0 204 -43.5t164.5 -117.5t108.5 -175.5t41 -212.5q0 -22 -2 -32h-954 q15 -195 144 -328t306 -133q117 0 219.5 60t145.5 155l63 -16q-44 -112 -166.5 -185t-265.5 -73zM160 559h889q-13 201 -140 331t-307 130t-306 -131t-136 -330z" />
<glyph unicode="&#x206;" horiz-adv-x="1259" d="M588 1706h-53q0 70 48.5 121t116.5 51q66 0 116 -51t50 -121h-51q-6 52 -40 89.5t-75 37.5q-43 0 -77.5 -39.5t-34.5 -87.5zM1157 66v-66h-960v1454h942v-65h-871v-613h762v-65h-762v-645h889z" />
<glyph unicode="&#x207;" horiz-adv-x="1185" d="M487 1323h-53q0 70 49 121t117 51q66 0 116 -51t50 -121h-51q-6 52 -40 89.5t-75 37.5q-43 0 -78 -40t-35 -87zM608 -20q-106 0 -202.5 45t-165.5 120t-109.5 178t-40.5 216q0 110 39.5 210.5t107.5 173t162.5 115.5t200.5 43q108 0 204 -43.5t164.5 -117.5t108.5 -175.5 t41 -212.5q0 -22 -2 -32h-954q15 -195 144 -328t306 -133q117 0 219.5 60t145.5 155l63 -16q-44 -112 -166.5 -185t-265.5 -73zM160 559h889q-13 201 -140 331t-307 130t-306 -131t-136 -330z" />
<glyph unicode="&#x208;" horiz-adv-x="464" d="M-49 1880h88l127 -162l-45 -26zM172 1880h86l127 -162l-45 -26zM197 0v1454h71v-1454h-71z" />
<glyph unicode="&#x209;" horiz-adv-x="403" d="M-80 1497h88l127 -162l-45 -26zM141 1497h86l127 -162l-45 -26zM166 0v1065h70v-1065h-70z" />
<glyph unicode="&#x20a;" horiz-adv-x="464" d="M119 1706h-53q0 70 48.5 121t116.5 51q66 0 116 -51t50 -121h-51q-6 52 -40 89.5t-75 37.5q-43 0 -77.5 -39.5t-34.5 -87.5zM197 0v1454h71v-1454h-71z" />
<glyph unicode="&#x20b;" horiz-adv-x="403" d="M88 1323h-53q0 70 49 121t117 51q66 0 116 -51t50 -121h-52q-6 53 -39.5 90t-74.5 37q-43 0 -78 -40t-35 -87zM166 0v1065h70v-1065h-70z" />
<glyph unicode="&#x20c;" horiz-adv-x="1546" d="M494 1880h88l127 -162l-45 -26zM715 1880h86l127 -162l-45 -26zM94 727q0 192 88.5 361t246.5 272.5t345 103.5q146 0 275 -64.5t216 -168.5t137 -236t50 -268q0 -145 -52.5 -280t-142 -235.5t-216.5 -161t-267 -60.5q-147 1 -275.5 64t-216 165.5t-138 235.5t-50.5 272z M774 57q132 0 247.5 58t193 153t121.5 215t44 244q0 129 -46.5 251t-126 214.5t-193.5 148.5t-240 56q-132 0 -248 -58t-193.5 -152.5t-122 -214.5t-44.5 -245q0 -130 46 -251.5t125 -214t193.5 -148.5t243.5 -56z" />
<glyph unicode="&#x20d;" horiz-adv-x="1206" d="M322 1497h88l127 -162l-45 -26zM543 1497h86l127 -162l-45 -26zM90 528q0 147 68.5 274.5t186.5 203t257 75.5q140 0 258.5 -75.5t187 -203t68.5 -274.5t-67.5 -273t-186.5 -200.5t-260 -74.5t-259.5 74.5t-185.5 200.5t-67 273zM600 45q90 0 172 39t141.5 104.5t95 155 t35.5 186.5q0 130 -59.5 242t-161.5 178t-221 66q-118 0 -220 -66.5t-162 -179.5t-60 -244q0 -198 129.5 -339.5t310.5 -141.5z" />
<glyph unicode="&#x20e;" horiz-adv-x="1546" d="M662 1706h-54q0 70 49 121t117 51q66 0 116 -51t50 -121h-51q-6 52 -40 89.5t-75 37.5q-43 0 -77.5 -39.5t-34.5 -87.5zM94 727q0 192 88.5 361t246.5 272.5t345 103.5q146 0 275 -64.5t216 -168.5t137 -236t50 -268q0 -145 -52.5 -280t-142 -235.5t-216.5 -161 t-267 -60.5q-147 1 -275.5 64t-216 165.5t-138 235.5t-50.5 272zM774 57q132 0 247.5 58t193 153t121.5 215t44 244q0 129 -46.5 251t-126 214.5t-193.5 148.5t-240 56q-132 0 -248 -58t-193.5 -152.5t-122 -214.5t-44.5 -245q0 -130 46 -251.5t125 -214t193.5 -148.5 t243.5 -56z" />
<glyph unicode="&#x20f;" horiz-adv-x="1206" d="M489 1323h-53q0 70 49 121t117 51q66 0 116 -51t50 -121h-51q-6 52 -40 89.5t-75 37.5q-43 0 -78 -40t-35 -87zM90 528q0 147 68.5 274.5t186.5 203t257 75.5q140 0 258.5 -75.5t187 -203t68.5 -274.5t-67.5 -273t-186.5 -200.5t-260 -74.5t-259.5 74.5t-185.5 200.5 t-67 273zM600 45q90 0 172 39t141.5 104.5t95 155t35.5 186.5q0 130 -59.5 242t-161.5 178t-221 66q-118 0 -220 -66.5t-162 -179.5t-60 -244q0 -198 129.5 -339.5t310.5 -141.5z" />
<glyph unicode="&#x210;" horiz-adv-x="1320" d="M330 1886h88l127 -162l-45 -26zM551 1886h86l127 -162l-45 -26zM197 0v1454h598q88 0 166.5 -38.5t132 -101t85 -142.5t31.5 -162q0 -169 -100 -296.5t-256 -144.5l365 -569h-82l-361 561h-508v-561h-71zM268 627h539q99 0 176.5 56t117.5 142.5t40 184.5t-46 185 t-127 140.5t-175 53.5h-525v-762z" />
<glyph unicode="&#x211;" horiz-adv-x="677" d="M94 1497h88l127 -162l-45 -26zM315 1497h86l127 -162l-45 -26zM643 999q-147 -6 -255.5 -93.5t-151.5 -235.5v-670h-70v1065h67v-270q55 112 148.5 184t196.5 84q27 2 65 2v-66z" />
<glyph unicode="&#x212;" horiz-adv-x="1320" d="M498 1712h-54q0 70 49 121t117 51q66 0 116 -51t50 -121h-51q-6 52 -40 89.5t-75 37.5q-43 0 -77.5 -39.5t-34.5 -87.5zM197 0v1454h598q88 0 166.5 -38.5t132 -101t85 -142.5t31.5 -162q0 -169 -100 -296.5t-256 -144.5l365 -569h-82l-361 561h-508v-561h-71zM268 627 h539q99 0 176.5 56t117.5 142.5t40 184.5t-46 185t-127 140.5t-175 53.5h-525v-762z" />
<glyph unicode="&#x213;" horiz-adv-x="677" d="M262 1323h-53q0 70 49 121t117 51q66 0 116 -51t50 -121h-52q-6 53 -39.5 90t-74.5 37q-43 0 -78 -40t-35 -87zM643 999q-147 -6 -255.5 -93.5t-151.5 -235.5v-670h-70v1065h67v-270q55 112 148.5 184t196.5 84q27 2 65 2v-66z" />
<glyph unicode="&#x214;" horiz-adv-x="1548" d="M496 1880h88l127 -162l-45 -26zM717 1880h86l127 -162l-45 -26zM776 -10q-96 0 -178 21.5t-143 59.5t-109.5 92.5t-80 118t-52.5 137.5t-30 149.5t-9 156.5v729h72v-729q0 -88 11 -166.5t34.5 -155.5t65 -138.5t98 -108.5t138 -73t181.5 -26q121 0 215 38.5t152.5 101.5 t96.5 151.5t52.5 180.5t14.5 196v729h69v-729q0 -120 -19 -225t-63.5 -200.5t-112 -163t-170.5 -107t-233 -39.5z" />
<glyph unicode="&#x215;" horiz-adv-x="1189" d="M301 1497h88l127 -162l-45 -26zM522 1497h86l127 -162l-45 -26zM156 459v606h69v-598q0 -214 70 -318t215 -104t269 96t171 248v676h70v-959q0 -45 37 -45v-61q-27 -3 -39 2q-26 6 -44 30t-18 54l-2 176q-69 -130 -192 -206t-266 -76q-167 0 -253.5 121.5t-86.5 357.5z " />
<glyph unicode="&#x216;" horiz-adv-x="1548" d="M664 1706h-54q0 70 49 121t117 51q66 0 116 -51t50 -121h-51q-6 52 -40 89.5t-75 37.5q-43 0 -77.5 -39.5t-34.5 -87.5zM776 -10q-96 0 -178 21.5t-143 59.5t-109.5 92.5t-80 118t-52.5 137.5t-30 149.5t-9 156.5v729h72v-729q0 -88 11 -166.5t34.5 -155.5t65 -138.5 t98 -108.5t138 -73t181.5 -26q121 0 215 38.5t152.5 101.5t96.5 151.5t52.5 180.5t14.5 196v729h69v-729q0 -120 -19 -225t-63.5 -200.5t-112 -163t-170.5 -107t-233 -39.5z" />
<glyph unicode="&#x217;" horiz-adv-x="1189" d="M469 1323h-53q0 70 49 121t117 51q66 0 116 -51t50 -121h-52q-6 53 -39.5 90t-74.5 37q-43 0 -78 -40t-35 -87zM156 459v606h69v-598q0 -214 70 -318t215 -104t269 96t171 248v676h70v-959q0 -45 37 -45v-61q-27 -3 -39 2q-26 6 -44 30t-18 54l-2 176q-69 -130 -192 -206 t-266 -76q-167 0 -253.5 121.5t-86.5 357.5z" />
<glyph unicode="&#x218;" horiz-adv-x="1234" d="M1040 1239q-78 86 -173.5 123t-227.5 37q-224 0 -332 -85t-108 -239q0 -60 17 -103.5t48 -75t88.5 -56t122 -42t166.5 -38.5q88 -18 150 -34.5t125.5 -40t105 -52t75 -66.5t49 -88.5t15.5 -113.5q0 -181 -137.5 -278t-376.5 -97q-338 0 -571 221l43 53q204 -213 530 -213 q208 0 324.5 77t116.5 226q0 77 -27 131t-90 93t-145 65t-212 53q-73 15 -126.5 28t-107.5 30.5t-91 37.5t-70 47t-52.5 59t-30.5 74t-11 93q0 190 138 294.5t372 104.5q140 0 247.5 -41.5t194.5 -130.5zM596 -360l25 127h-25v131h76v-131l-35 -127h-41z" />
<glyph unicode="&#x219;" horiz-adv-x="972" d="M487 -20q-257 0 -413 172l37 49q85 -82 175.5 -121t198.5 -39q150 0 242 64t92 176q0 31 -8.5 56t-21.5 44t-39.5 36t-50 28.5t-66.5 24.5t-76.5 21.5t-91.5 22.5q-54 14 -87.5 23.5t-73 23t-62 26.5t-46 31.5t-35 41t-19 51.5t-7.5 65q0 149 108 227t275 78 q123 0 216.5 -41.5t135.5 -109.5l-45 -39q-42 61 -127 95t-188 34q-86 0 -153 -23t-110.5 -77t-43.5 -134q0 -40 12 -68.5t29.5 -47.5t58 -36.5t75 -27.5t103.5 -28q51 -12 80.5 -20t71 -19.5t65.5 -21t54.5 -23.5t48 -28t36.5 -33t28 -40t15.5 -47t6.5 -57 q0 -142 -109.5 -225.5t-290.5 -83.5zM444 -360l25 127h-25v131h76v-131l-35 -127h-41z" />
<glyph unicode="&#x21a;" horiz-adv-x="1234" d="M1198 1389h-545v-1389h-71v1389h-545v65h1161v-65zM575 -360l25 127h-25v131h76v-131l-35 -127h-41z" />
<glyph unicode="&#x21b;" horiz-adv-x="628" d="M608 49q-1 0 -14 -7.5t-31 -15.5t-42.5 -16.5t-56 -14t-63.5 -5.5q-83 0 -139.5 47.5t-56.5 128.5v838h-152v61h152v367h69v-367h252v-61h-252v-828q4 -57 44 -89t96 -32q40 0 80.5 12t61.5 23t26 16zM356 -360l25 127h-25v131h76v-131l-35 -127h-41z" />
<glyph unicode="&#x22a;" horiz-adv-x="1546" d="M485 2185v58h580v-58h-580zM612 1710v168h64v-168h-64zM870 1710v168h64v-168h-64zM94 727q0 192 88.5 361t246.5 272.5t345 103.5q146 0 275 -64.5t216 -168.5t137 -236t50 -268q0 -145 -52.5 -280t-142 -235.5t-216.5 -161t-267 -60.5q-147 1 -275.5 64t-216 165.5 t-138 235.5t-50.5 272zM774 57q132 0 247.5 58t193 153t121.5 215t44 244q0 129 -46.5 251t-126 214.5t-193.5 148.5t-240 56q-132 0 -248 -58t-193.5 -152.5t-122 -214.5t-44.5 -245q0 -130 46 -251.5t125 -214t193.5 -148.5t243.5 -56z" />
<glyph unicode="&#x22b;" horiz-adv-x="1206" d="M313 1802v58h580v-58h-580zM440 1327v168h64v-168h-64zM698 1327v168h64v-168h-64zM90 528q0 147 68.5 274.5t186.5 203t257 75.5q140 0 258.5 -75.5t187 -203t68.5 -274.5t-67.5 -273t-186.5 -200.5t-260 -74.5t-259.5 74.5t-185.5 200.5t-67 273zM600 45q90 0 172 39 t141.5 104.5t95 155t35.5 186.5q0 130 -59.5 242t-161.5 178t-221 66q-118 0 -220 -66.5t-162 -179.5t-60 -244q0 -198 129.5 -339.5t310.5 -141.5z" />
<glyph unicode="&#x22c;" horiz-adv-x="1546" d="M485 2204v57h580v-57h-580zM635 1804q-30 0 -53 -13t-33 -32t-14.5 -32.5t-4.5 -20.5h-53q0 8 3 23t13 38.5t26.5 43.5t47 34.5t70.5 14.5q55 0 131 -40t127 -40q31 0 54.5 9.5t35.5 22.5t19 28.5t8.5 24t1.5 13.5h55q0 -9 -3 -24t-14.5 -38t-29.5 -42.5t-52 -33.5 t-77 -14q-52 0 -99 19.5t-86 39t-73 19.5zM94 727q0 192 88.5 361t246.5 272.5t345 103.5q146 0 275 -64.5t216 -168.5t137 -236t50 -268q0 -145 -52.5 -280t-142 -235.5t-216.5 -161t-267 -60.5q-147 1 -275.5 64t-216 165.5t-138 235.5t-50.5 272zM774 57q132 0 247.5 58 t193 153t121.5 215t44 244q0 129 -46.5 251t-126 214.5t-193.5 148.5t-240 56q-132 0 -248 -58t-193.5 -152.5t-122 -214.5t-44.5 -245q0 -130 46 -251.5t125 -214t193.5 -148.5t243.5 -56z" />
<glyph unicode="&#x22d;" horiz-adv-x="1206" d="M313 1821v57h580v-57h-580zM463 1421q-30 0 -53 -13t-33 -32t-14.5 -32.5t-4.5 -20.5h-53q0 8 3 23t13 38.5t26.5 43.5t47 34.5t70.5 14.5q55 0 131 -40t127 -40q31 0 54.5 9.5t35.5 22.5t19 28.5t8.5 24t1.5 13.5h55q0 -9 -3 -24t-14.5 -38t-29.5 -42.5t-52 -33.5 t-77 -14q-52 0 -99 19.5t-86 39t-73 19.5zM90 528q0 147 68.5 274.5t186.5 203t257 75.5q140 0 258.5 -75.5t187 -203t68.5 -274.5t-67.5 -273t-186.5 -200.5t-260 -74.5t-259.5 74.5t-185.5 200.5t-67 273zM600 45q90 0 172 39t141.5 104.5t95 155t35.5 186.5 q0 130 -59.5 242t-161.5 178t-221 66q-118 0 -220 -66.5t-162 -179.5t-60 -244q0 -198 129.5 -339.5t310.5 -141.5z" />
<glyph unicode="&#x230;" horiz-adv-x="1546" d="M485 2204v57h580v-57h-580zM741 1708v170h66v-170h-66zM94 727q0 192 88.5 361t246.5 272.5t345 103.5q146 0 275 -64.5t216 -168.5t137 -236t50 -268q0 -145 -52.5 -280t-142 -235.5t-216.5 -161t-267 -60.5q-147 1 -275.5 64t-216 165.5t-138 235.5t-50.5 272zM774 57 q132 0 247.5 58t193 153t121.5 215t44 244q0 129 -46.5 251t-126 214.5t-193.5 148.5t-240 56q-132 0 -248 -58t-193.5 -152.5t-122 -214.5t-44.5 -245q0 -130 46 -251.5t125 -214t193.5 -148.5t243.5 -56z" />
<glyph unicode="&#x231;" horiz-adv-x="1206" d="M313 1821v57h580v-57h-580zM569 1325v170h66v-170h-66zM90 528q0 147 68.5 274.5t186.5 203t257 75.5q140 0 258.5 -75.5t187 -203t68.5 -274.5t-67.5 -273t-186.5 -200.5t-260 -74.5t-259.5 74.5t-185.5 200.5t-67 273zM600 45q90 0 172 39t141.5 104.5t95 155 t35.5 186.5q0 130 -59.5 242t-161.5 178t-221 66q-118 0 -220 -66.5t-162 -179.5t-60 -244q0 -198 129.5 -339.5t310.5 -141.5z" />
<glyph unicode="&#x232;" horiz-adv-x="1318" d="M369 1774v57h579v-57h-579zM123 1454l534 -825l539 825h80l-582 -897v-557h-71v561l-580 893h80z" />
<glyph unicode="&#x233;" horiz-adv-x="1101" d="M272 1391v57h580v-57h-580zM248 -389q79 -3 96 14q18 10 49 74.5t131 300.5l-485 1065h76l446 -987l420 987h72l-609 -1425q-33 -81 -112 -89q-38 -9 -84 -6v66z" />
<glyph unicode="&#x237;" horiz-adv-x="403" d="M-262 -283l43 45q58 -51 166 -51q83 0 151 65t68 156v1133h70v-1131q0 -121 -88.5 -204.5t-196.5 -83.5q-139 0 -213 71z" />
<glyph unicode="&#x259;" horiz-adv-x="1185" d="M586 -20q-142 0 -261 73.5t-187.5 199.5t-69.5 275q0 5 1 16t1 15h954q-13 196 -143.5 328.5t-307.5 132.5q-117 0 -219 -59.5t-145 -153.5l-64 16q46 111 168.5 184.5t264.5 73.5q106 0 202.5 -45t165.5 -120t109.5 -178t40.5 -216q0 -148 -66.5 -272t-184 -197 t-259.5 -73zM586 39q179 0 304 132t136 331h-887q12 -200 139.5 -331.5t307.5 -131.5z" />
<glyph unicode="&#x2b9;" horiz-adv-x="358" d="M147 1137v321h64l-27 -321h-37z" />
<glyph unicode="&#x2ba;" horiz-adv-x="716" d="M147 1137v321h64l-27 -321h-37zM506 1137v321h63l-26 -321h-37z" />
<glyph unicode="&#x2bb;" horiz-adv-x="266" d="M154 1495l-25 -123h25v-127h-76v127l35 123h41z" />
<glyph unicode="&#x2bc;" horiz-adv-x="419" d="M152 1307l-50 26l127 162h93z" />
<glyph unicode="&#x2be;" horiz-adv-x="331" d="M84 1229v51q42 0 75.5 31.5t33.5 77.5q0 48 -31.5 77t-77.5 29v51q69 0 115.5 -45t46.5 -112q0 -68 -46.5 -114t-115.5 -46z" />
<glyph unicode="&#x2bf;" horiz-adv-x="331" d="M246 1229q-68 0 -115 46.5t-47 113.5t47 112t115 45v-51q-44 0 -75.5 -29t-31.5 -77q0 -46 31.5 -77.5t75.5 -31.5v-51z" />
<glyph unicode="&#x2c6;" horiz-adv-x="634" d="M98 1337l193 158h53l195 -158l-47 -30l-175 129l-174 -129z" />
<glyph unicode="&#x2c7;" horiz-adv-x="634" d="M143 1495l174 -129l175 129l47 -29l-195 -159h-53l-193 159z" />
<glyph unicode="&#x2c8;" horiz-adv-x="450" d="M258 1587v-846h-65v846h65z" />
<glyph unicode="&#x2c9;" horiz-adv-x="788" d="M104 1391v57h580v-57h-580z" />
<glyph unicode="&#x2ca;" horiz-adv-x="358" d="M147 1137v321h64l-27 -321h-37z" />
<glyph unicode="&#x2cb;" horiz-adv-x="358" d="M174 1137l-27 321h64v-321h-37z" />
<glyph unicode="&#x2cc;" horiz-adv-x="450" d="M258 580v-846h-65v846h65z" />
<glyph unicode="&#x2d8;" horiz-adv-x="528" d="M379 1495h51q0 -70 -50 -121t-116 -51q-68 0 -117 51t-49 121h54q0 -48 34.5 -87.5t77.5 -39.5q41 0 75 37.5t40 89.5z" />
<glyph unicode="&#x2d9;" horiz-adv-x="270" d="M102 1325v170h66v-170h-66z" />
<glyph unicode="&#x2da;" horiz-adv-x="493" d="M246 1546q69 0 116.5 -45t47.5 -112t-47.5 -113.5t-116.5 -46.5q-68 0 -115 46.5t-47 113.5t47 112t115 45zM139 1389q0 -46 31.5 -77.5t75.5 -31.5q41 0 74.5 31.5t33.5 77.5q0 48 -31 77t-77 29q-44 0 -75.5 -29t-31.5 -77z" />
<glyph unicode="&#x2db;" horiz-adv-x="438" d="M106 -207q0 55 43 111t132 123h18l25 -27q-85 -65 -121.5 -110.5t-36.5 -88.5q0 -38 34 -59.5t115 -36.5l-26 -51q-183 27 -183 139z" />
<glyph unicode="&#x2dc;" horiz-adv-x="798" d="M262 1421q-31 0 -53.5 -13t-32.5 -32t-14 -32.5t-4 -20.5h-56q0 8 3 23t13.5 38.5t27 43.5t47.5 34.5t71 14.5q55 0 131 -40t127 -40q31 0 54.5 9.5t35.5 22.5t19 28.5t8.5 24t1.5 13.5h53q0 -9 -3 -23.5t-14.5 -38t-29 -43t-51.5 -33.5t-78 -14q-51 0 -97.5 19.5 t-85.5 39t-73 19.5z" />
<glyph unicode="&#x2dd;" horiz-adv-x="626" d="M143 1307l-45 26l127 162h88zM365 1307l-48 26l127 162h88z" />
<glyph unicode="&#x300;" d="M-317 1495h90l129 -162l-49 -26z" />
<glyph unicode="&#x301;" d="M-268 1307l-49 26l127 162h92z" />
<glyph unicode="&#x302;" d="M-537 1337l193 158h53l195 -158l-47 -30l-174 129l-175 -129z" />
<glyph unicode="&#x303;" d="M-612 1421q-30 0 -53 -13t-33 -32t-14.5 -32.5t-4.5 -20.5h-53q0 8 3 23t13 38.5t26.5 43.5t47 34.5t70.5 14.5q55 0 131 -40t127 -40q31 0 54.5 9.5t35.5 22.5t19 28.5t8.5 24t1.5 13.5h55q0 -9 -3 -24t-14.5 -38t-29.5 -42.5t-52 -33.5t-77 -14q-52 0 -99 19.5t-86 39 t-73 19.5z" />
<glyph unicode="&#x304;" d="M-684 1391v57h580v-57h-580z" />
<glyph unicode="&#x306;" d="M-150 1495h52q0 -70 -50 -121t-116 -51q-68 0 -117 51t-49 121h53q0 -47 35 -87t78 -40q41 0 74.5 37t39.5 90z" />
<glyph unicode="&#x307;" d="M-168 1325v170h66v-170h-66z" />
<glyph unicode="&#x308;" d="M-430 1325v168h63v-168h-63zM-172 1325v168h63v-168h-63z" />
<glyph unicode="&#x309;" d="M-713 1403l-35 35q69 63 138 63q56 0 89.5 -33t33.5 -88q0 -36 -20 -65.5t-68 -79.5l-31 31q67 70 67 112q0 33 -19 53.5t-58 20.5q-26 0 -46 -10.5t-51 -38.5z" />
<glyph unicode="&#x30a;" d="M-248 1546q69 0 116.5 -45t47.5 -112t-47.5 -113.5t-116.5 -46.5q-68 0 -115 46.5t-47 113.5t47 112t115 45zM-354 1389q0 -46 31 -77.5t75 -31.5q42 0 75.5 31.5t33.5 77.5q0 48 -31.5 77t-77.5 29q-44 0 -75 -29t-31 -77z" />
<glyph unicode="&#x30b;" d="M-483 1307l-45 26l127 162h88zM-262 1307l-47 26l127 162h88z" />
<glyph unicode="&#x30c;" d="M-492 1495l175 -129l174 129l47 -29l-195 -159h-53l-193 159z" />
<glyph unicode="&#x30f;" d="M-532 1495h88l127 -162l-45 -26zM-311 1495h86l127 -162l-45 -26z" />
<glyph unicode="&#x311;" d="M-377 1323h-53q0 70 49 121t117 51q66 0 116 -51t50 -121h-52q-6 53 -39.5 90t-74.5 37q-43 0 -78 -40t-35 -87z" />
<glyph unicode="&#x312;" d="M-113 1495l-24 -123h24v-127h-75v127l34 123h41z" />
<glyph unicode="&#x31b;" d="M-369 1081v60q125 0 166 47q30 35 33 125h68q-5 -65 -14.5 -98t-37.5 -66q-28 -31 -87.5 -49.5t-127.5 -18.5z" />
<glyph unicode="&#x323;" d="M-168 -285v170h66v-170h-66z" />
<glyph unicode="&#x324;" d="M-430 -285v168h63v-168h-63zM-172 -285v168h63v-168h-63z" />
<glyph unicode="&#x326;" d="M-154 -360l25 127h-25v131h76v-131l-35 -127h-41z" />
<glyph unicode="&#x327;" d="M-303 -346q-121 0 -227 53l26 49q106 -49 189 -49q157 0 157 113q0 55 -37 95.5t-116 84.5l47 23q82 -47 123 -95t41 -114q0 -79 -55 -119.5t-148 -40.5z" />
<glyph unicode="&#x328;" d="M-332 -207q0 56 42.5 112t131.5 122h19l24 -27q-85 -64 -121 -110t-36 -89q0 -38 34 -59.5t115 -36.5l-27 -51q-98 14 -140 49.5t-42 89.5z" />
<glyph unicode="&#x32e;" d="M-150 -92h52q0 -69 -50 -120.5t-116 -51.5q-67 0 -116.5 51.5t-49.5 120.5h53q0 -47 35 -86t78 -39q41 0 74.5 36.5t39.5 88.5z" />
<glyph unicode="&#x331;" d="M-684 -215v57h580v-57h-580z" />
<glyph unicode="&#x335;" d="M-551 600v57h449v-57h-449z" />
<glyph unicode="&#x3c0;" horiz-adv-x="1136" d="M283 997v-997h-68v997h-164v68h1002v-68h-226v-815q0 -59 36.5 -94t97.5 -35q51 0 112 21l17 -58q-76 -26 -156 -26q-78 0 -126 48.5t-48 129.5v829h-477z" />
<glyph unicode="&#x400;" horiz-adv-x="1259" d="M547 1880h90l129 -162l-49 -26zM1157 66v-66h-960v1454h942v-65h-871v-613h762v-65h-762v-645h889z" />
<glyph unicode="&#x401;" horiz-adv-x="1259" d="M539 1710v168h63v-168h-63zM797 1710v168h63v-168h-63zM1157 66v-66h-960v1454h942v-65h-871v-613h762v-65h-762v-645h889z" />
<glyph unicode="&#x402;" horiz-adv-x="1464" d="M930 -12q-77 0 -148 14l9 61q82 -14 133 -14q171 0 262.5 95t91.5 282q0 192 -109.5 296.5t-281.5 104.5q-199 0 -400 -127v-700h-69v1389h-381v65h1018v-65h-568v-621q203 123 406 123q200 0 327.5 -123.5t127.5 -341.5q0 -220 -111 -329t-307 -109z" />
<glyph unicode="&#x403;" horiz-adv-x="1030" d="M659 1696l-49 26l127 162h92zM197 0v1454h790v-65h-719v-1389h-71z" />
<glyph unicode="&#x404;" horiz-adv-x="1443" d="M772 -12q-133 0 -257.5 59t-217 158.5t-148 239t-55.5 292.5q0 133 47 261t132 232t218.5 168t292.5 64q187 0 326.5 -86.5t208.5 -230.5l-59 -29q-77 146 -204.5 212.5t-279.5 66.5q-111 0 -210 -37.5t-169.5 -100t-122.5 -143t-79 -167t-29 -171.5h758v-65h-758 q3 -172 84.5 -323t222.5 -242t307 -91q150 0 293 76t217 219l62 -24q-47 -105 -143 -183.5t-209 -116.5t-228 -38z" />
<glyph unicode="&#x405;" horiz-adv-x="1234" d="M1040 1239q-78 86 -173.5 123t-227.5 37q-224 0 -332 -85t-108 -239q0 -60 17 -103.5t48 -75t88.5 -56t122 -42t166.5 -38.5q88 -18 150 -34.5t125.5 -40t105 -52t75 -66.5t49 -88.5t15.5 -113.5q0 -181 -137.5 -278t-376.5 -97q-338 0 -571 221l43 53q204 -213 530 -213 q208 0 324.5 77t116.5 226q0 77 -27 131t-90 93t-145 65t-212 53q-73 15 -126.5 28t-107.5 30.5t-91 37.5t-70 47t-52.5 59t-30.5 74t-11 93q0 190 138 294.5t372 104.5q140 0 247.5 -41.5t194.5 -130.5z" />
<glyph unicode="&#x406;" horiz-adv-x="464" d="M197 0v1454h71v-1454h-71z" />
<glyph unicode="&#x407;" horiz-adv-x="464" d="M70 1710v168h63v-168h-63zM328 1710v168h63v-168h-63zM197 0v1454h71v-1454h-71z" />
<glyph unicode="&#x408;" horiz-adv-x="972" d="M63 125q118 -80 289 -80q70 0 124.5 15.5t94 42t67 71.5t44.5 95.5t26.5 123.5t13 144.5t3.5 169.5v747h70v-739q0 -103 -4 -180t-15.5 -158t-31 -138t-53 -109.5t-80 -84t-111.5 -50t-148 -18.5q-182 0 -315 91z" />
<glyph unicode="&#x409;" horiz-adv-x="2050" d="M88 -2v68q112 1 182.5 98.5t108.5 330.5t39 621l2 338h760v-592h311q225 0 340 -117t115 -313q0 -88 -28 -165t-82 -137t-141 -95t-196 -35h-389v1389h-625v-369q0 -183 -12 -331t-31.5 -253t-49 -183.5t-62 -126.5t-74 -77t-81 -40t-87.5 -11zM1180 63h313 q99 0 174.5 31t119.5 84t65.5 117t21.5 137q0 75 -18.5 137.5t-60.5 116t-120 83.5t-186 30h-309v-736z" />
<glyph unicode="&#x40a;" horiz-adv-x="2041" d="M197 0v1454h71v-649h832v649h71v-647h310q225 0 340.5 -108t115.5 -287q0 -84 -28 -157t-82.5 -130.5t-141.5 -91t-196 -33.5h-389v739h-832v-739h-71zM1171 63h314q98 0 173.5 29.5t119.5 79.5t66 110.5t22 129.5q0 68 -19 124t-61 103.5t-120 74.5t-187 27h-308v-678z " />
<glyph unicode="&#x40b;" horiz-adv-x="1458" d="M418 0v1389h-381v65h1016v-65h-566v-594q191 84 406 84q227 0 333.5 -102.5t106.5 -325.5v-451h-69v442q0 194 -89.5 281.5t-287.5 87.5q-110 0 -222.5 -26t-177.5 -66v-719h-69z" />
<glyph unicode="&#x40c;" horiz-adv-x="1241" d="M645 1696l-49 26l127 162h92zM197 0v1454h71v-678h264l535 678h84l-557 -706l588 -748h-90l-555 709h-269v-709h-71z" />
<glyph unicode="&#x40d;" horiz-adv-x="1538" d="M616 1886h91l129 -162l-50 -26zM199 0v1454h71v-1360l1002 1360h67v-1454h-71v1337l-992 -1337h-77z" />
<glyph unicode="&#x40e;" horiz-adv-x="1241" d="M635 1653q-117 0 -175.5 40t-58.5 101h50q0 -42 44.5 -70t139.5 -28q93 0 131.5 25t52.5 73h47q0 -61 -58 -101t-173 -40zM365 -2v65h92q19 0 32 5.5t27 24t22 31.5t27 50l78 166l-643 1114h80l598 -1040l491 1040h76l-624 -1317q-37 -77 -68.5 -108t-87.5 -31h-100z" />
<glyph unicode="&#x40f;" horiz-adv-x="1413" d="M674 -279v279h-477v1454h71v-1388h879v1388h70v-1454h-478v-279h-65z" />
<glyph unicode="&#x410;" horiz-adv-x="1382" d="M659 1454h62l625 -1454h-76l-215 502h-729l-215 -502h-78zM1032 563l-342 801l-344 -801h686z" />
<glyph unicode="&#x411;" horiz-adv-x="1318" d="M197 0v1454h936v-65h-865v-586h525q226 0 341 -106.5t115 -284.5q0 -84 -28 -157.5t-82 -131t-141 -90.5t-197 -33h-604zM268 66h529q99 0 174.5 29t119.5 79t65.5 110t21.5 128t-18.5 123.5t-60.5 103t-120.5 74t-187.5 26.5h-523v-673z" />
<glyph unicode="&#x412;" horiz-adv-x="1347" d="M874 0h-677v1454h659q98 0 176 -55.5t117 -139t39 -176.5q0 -111 -56.5 -203.5t-152.5 -134.5q123 -36 196.5 -138t73.5 -230q0 -155 -110.5 -266t-264.5 -111zM268 1389v-623h563q122 0 204.5 94.5t82.5 216.5q0 128 -77.5 220t-196.5 92h-576zM889 702h-621v-636h606 q125 0 215.5 97t90.5 220q0 127 -84.5 223t-206.5 96z" />
<glyph unicode="&#x413;" horiz-adv-x="1030" d="M197 0v1454h790v-65h-719v-1389h-71z" />
<glyph unicode="&#x414;" horiz-adv-x="1507" d="M88 -279v345h53q62 1 106 48t78.5 159.5t54 306t28.5 481.5l10 393h817v-1388h168v-345h-68v279h-1181v-279h-66zM276 66h889v1323h-682l-8 -334q-12 -461 -59.5 -691.5t-139.5 -297.5z" />
<glyph unicode="&#x415;" horiz-adv-x="1259" d="M1157 66v-66h-960v1454h942v-65h-871v-613h762v-65h-762v-645h889z" />
<glyph unicode="&#x416;" horiz-adv-x="1923" d="M59 0l568 748l-537 706h84l516 -678h236v678h71v-678h236l516 678h84l-539 -706l570 -748h-86l-541 709h-240v-709h-71v709h-240l-543 -709h-84z" />
<glyph unicode="&#x417;" horiz-adv-x="1048" d="M502 -20q-134 0 -242 60t-168 169l60 33q51 -94 142 -145.5t208 -51.5q171 0 275 93t104 249q0 150 -95.5 245t-253.5 95h-120v61h123q119 0 201.5 90t82.5 218q0 135 -89.5 223t-227.5 88q-102 0 -182.5 -49t-126.5 -137l-56 30q55 106 150 165t217 59q166 0 275.5 -106 t109.5 -267q0 -115 -58.5 -206.5t-156.5 -133.5q128 -35 202 -137.5t74 -241.5q0 -182 -124.5 -292.5t-323.5 -110.5z" />
<glyph unicode="&#x418;" horiz-adv-x="1538" d="M199 0v1454h71v-1360l1002 1360h67v-1454h-71v1337l-992 -1337h-77z" />
<glyph unicode="&#x419;" horiz-adv-x="1538" d="M770 1653q-116 0 -174.5 40t-58.5 101h49q0 -42 44.5 -70t139.5 -28q93 0 131.5 25t52.5 73h47q0 -61 -58 -101t-173 -40zM199 0v1454h71v-1360l1002 1360h67v-1454h-71v1337l-992 -1337h-77z" />
<glyph unicode="&#x41a;" horiz-adv-x="1241" d="M197 0v1454h71v-678h264l535 678h84l-557 -706l588 -748h-90l-555 709h-269v-709h-71z" />
<glyph unicode="&#x41b;" horiz-adv-x="1478" d="M1212 0v1389h-682l-8 -338q-9 -304 -39 -509t-86 -324t-130 -168.5t-179 -49.5v68q86 0 147 45.5t108.5 156.5t74 306t35.5 485l12 393h817v-1454h-70z" />
<glyph unicode="&#x41c;" horiz-adv-x="1806" d="M1538 0v1311l-610 -1030h-49l-611 1030v-1311h-71v1454h65l641 -1081l641 1081h66v-1454h-72z" />
<glyph unicode="&#x41d;" horiz-adv-x="1501" d="M1305 1454v-1454h-70v711h-967v-711h-71v1454h71v-678h967v678h70z" />
<glyph unicode="&#x41e;" horiz-adv-x="1546" d="M94 727q0 192 88.5 361t246.5 272.5t345 103.5q146 0 275 -64.5t216 -168.5t137 -236t50 -268q0 -145 -52.5 -280t-142 -235.5t-216.5 -161t-267 -60.5q-147 1 -275.5 64t-216 165.5t-138 235.5t-50.5 272zM774 57q132 0 247.5 58t193 153t121.5 215t44 244 q0 129 -46.5 251t-126 214.5t-193.5 148.5t-240 56q-132 0 -248 -58t-193.5 -152.5t-122 -214.5t-44.5 -245q0 -130 46 -251.5t125 -214t193.5 -148.5t243.5 -56z" />
<glyph unicode="&#x41f;" horiz-adv-x="1447" d="M197 0v1454h1054v-1454h-71v1389h-912v-1389h-71z" />
<glyph unicode="&#x420;" horiz-adv-x="1269" d="M197 0v1454h596q87 0 165.5 -38.5t132.5 -101t85.5 -142.5t31.5 -162q0 -116 -50 -218t-143.5 -166.5t-209.5 -64.5h-537v-561h-71zM268 627h535q99 0 177 56.5t117.5 143t39.5 183.5q0 151 -102.5 265t-243.5 114h-523v-762z" />
<glyph unicode="&#x421;" horiz-adv-x="1421" d="M782 1462q187 0 325.5 -86.5t207.5 -230.5l-62 -29q-38 75 -93.5 130.5t-119.5 87t-130 46.5t-136 15q-113 0 -212 -38t-170.5 -102.5t-123 -149.5t-77 -180.5t-25.5 -193.5q0 -176 81 -331.5t223 -250t310 -94.5q96 0 188.5 30t178.5 98.5t137 166.5l64 -24 q-47 -105 -143 -183.5t-208 -116.5t-225 -38q-144 0 -272.5 65t-216 171t-138.5 240.5t-51 272.5q0 105 29 209t88 197t140 164t192.5 113t238.5 42z" />
<glyph unicode="&#x422;" horiz-adv-x="1234" d="M1198 1389h-545v-1389h-71v1389h-545v65h1161v-65z" />
<glyph unicode="&#x423;" horiz-adv-x="1241" d="M365 -2v65h92q19 0 32 5.5t27 24t22 31.5t27 50l78 166l-643 1114h80l598 -1040l491 1040h76l-624 -1317q-37 -77 -68.5 -108t-87.5 -31h-100z" />
<glyph unicode="&#x424;" horiz-adv-x="1638" d="M784 0v137q-143 3 -269.5 51t-220 130t-147.5 200t-53 254q1 143 57 263t150.5 200t219 125.5t263.5 48.5v109h70v-109q141 -3 267.5 -50.5t220 -129.5t148 -201t54.5 -256q0 -141 -57 -260.5t-153 -199.5t-220 -126t-260 -49v-137h-70zM786 201v1145q-172 -4 -312 -74 t-224 -201t-84 -299q0 -128 51 -236t137 -179.5t197.5 -112t234.5 -43.5zM852 201q172 4 313.5 75t225.5 201t84 295q0 169 -87.5 300.5t-228 200.5t-307.5 73v-1145z" />
<glyph unicode="&#x425;" horiz-adv-x="1277" d="M104 1454l537 -684l535 684h84l-580 -737l563 -717h-84l-518 664l-520 -664h-86l563 717l-580 737h86z" />
<glyph unicode="&#x426;" horiz-adv-x="1486" d="M1317 -276v276h-1120v1454h71v-1388h877v1388h69v-1388h168v-342h-65z" />
<glyph unicode="&#x427;" horiz-adv-x="1302" d="M1036 0v657q-196 -86 -418 -86q-241 0 -350.5 101t-109.5 323v459h69v-450q0 -192 92.5 -278.5t301.5 -86.5q123 0 234 25t181 65v725h70v-1454h-70z" />
<glyph unicode="&#x428;" horiz-adv-x="1869" d="M197 0v1454h71v-1388h631v1388h72v-1388h633v1388h69v-1454h-1476z" />
<glyph unicode="&#x429;" horiz-adv-x="1945" d="M1774 -276v276h-1577v1454h71v-1388h631v1388h72v-1388h633v1388h69v-1388h168v-342h-67z" />
<glyph unicode="&#x42a;" horiz-adv-x="1484" d="M453 0v1389h-420v65h489v-588h402q227 0 341.5 -117.5t114.5 -316.5q0 -88 -28 -165t-82.5 -137t-141.5 -95t-196 -35h-479zM522 63h404q80 0 145.5 20.5t109 55.5t73 83t42.5 100.5t13 109.5q0 61 -11 113t-38.5 100t-70.5 82t-111 54t-156 20h-400v-738z" />
<glyph unicode="&#x42b;" horiz-adv-x="1667" d="M197 0v1454h71v-588h404q227 0 341.5 -117.5t114.5 -316.5q0 -88 -28 -165t-82.5 -137t-141.5 -95t-196 -35h-483zM1401 0v1452h69v-1452h-69zM268 63h406q100 0 176 31t120.5 84t66.5 117t22 137q0 77 -19 140t-61.5 116.5t-121 83t-187.5 29.5h-402v-738z" />
<glyph unicode="&#x42c;" horiz-adv-x="1232" d="M197 0v1454h71v-588h404q227 0 341.5 -117.5t114.5 -316.5q0 -88 -28 -165t-82.5 -137t-141.5 -95t-196 -35h-483zM268 63h406q100 0 176 31t120.5 84t66.5 117t22 137q0 77 -19 140t-61.5 116.5t-121 83t-187.5 29.5h-402v-738z" />
<glyph unicode="&#x42d;" horiz-adv-x="1462" d="M686 -12q-178 0 -340.5 90.5t-236.5 247.5l63 24q51 -97 137 -165.5t179.5 -99t191.5 -30.5q166 0 307 91t223 241.5t86 323.5h-759v65h755q-6 118 -50 227.5t-119 197.5t-189 141t-248 53q-97 0 -183 -26.5t-167 -90.5t-133 -162l-62 29q72 145 210 231t327 86 q127 0 239 -41.5t193.5 -113t140.5 -164.5t88 -197.5t29 -210.5q0 -139 -51 -273.5t-139 -239.5t-217 -169.5t-275 -64.5z" />
<glyph unicode="&#x42e;" horiz-adv-x="1974" d="M1223 -10q-184 1 -327.5 89.5t-225.5 248t-88 366.5h-314v-694h-71v1454h71v-692h314q5 157 56.5 289.5t137 222.5t201 140t246.5 50q192 0 342.5 -95t232.5 -263t82 -379q0 -167 -50.5 -306.5t-138.5 -233t-208.5 -145.5t-259.5 -52zM1223 57q173 0 307 86t206 238.5 t72 345.5q0 151 -44.5 277t-122.5 212t-185.5 133.5t-232.5 47.5q-168 0 -299 -85.5t-202 -238t-71 -346.5q0 -304 160 -487t412 -183z" />
<glyph unicode="&#x42f;" horiz-adv-x="1251" d="M133 0l406 633q-164 30 -256.5 143t-92.5 273q0 171 129.5 288t344.5 117h391v-1454h-72v623h-315q-38 0 -56 2l-397 -625h-82zM655 688h328v701h-315q-183 0 -294.5 -94.5t-111.5 -245.5q0 -157 102 -259t291 -102z" />
<glyph unicode="&#x430;" horiz-adv-x="1085" d="M76 305q0 138 123.5 224.5t318.5 86.5q184 0 344 -57v113q0 157 -92 251.5t-244 94.5q-159 0 -342 -129l-34 51q205 141 380 141q185 0 293.5 -111.5t108.5 -301.5v-562q0 -45 37 -45v-61q-29 -3 -39 2q-28 6 -45 29.5t-19 54.5v92q-73 -94 -189.5 -146t-250.5 -52 q-149 0 -249.5 94t-100.5 231zM825 213q37 46 37 90v195q-158 61 -340 61q-170 0 -274.5 -68.5t-104.5 -181.5q0 -112 83.5 -191t207.5 -79q125 0 231.5 48t159.5 126z" />
<glyph unicode="&#x431;" horiz-adv-x="1228" d="M635 -20q-246 0 -375 153.5t-129 421.5q0 159 21.5 281t58.5 206.5t99 147.5t131.5 103t166.5 75l443 164l14 -64l-420 -151q-147 -54 -235.5 -124t-140 -184t-64.5 -288q52 131 167.5 203.5t270.5 72.5q237 0 366.5 -139t129.5 -369q0 -237 -132 -373t-372 -136zM635 45 q206 0 319 119t113 323t-112 325.5t-320 121.5q-124 0 -220.5 -50t-154 -152.5t-57.5 -244.5q0 -196 112.5 -319t319.5 -123z" />
<glyph unicode="&#x432;" horiz-adv-x="1062" d="M166 0v1065h500q114 0 185 -80.5t71 -183.5q0 -83 -43 -152.5t-115 -103.5q92 -26 147.5 -99t55.5 -167q0 -117 -84 -198t-205 -81h-512zM233 563h412q88 0 147.5 70.5t59.5 159.5q0 88 -56.5 151.5t-142.5 63.5h-420v-445zM233 57h445q90 0 155.5 69t65.5 157 q0 91 -62 158t-151 67h-453v-451z" />
<glyph unicode="&#x433;" horiz-adv-x="811" d="M166 0v1065h598v-66h-528v-999h-70z" />
<glyph unicode="&#x434;" horiz-adv-x="1146" d="M47 -242v308h14q52 0 91 32.5t71.5 111t52 222.5t25.5 354l8 279h637v-999h141v-308h-65v242h-911v-242h-64zM203 66h674v933h-502l-6 -215q-9 -321 -50 -490.5t-116 -227.5z" />
<glyph unicode="&#x435;" horiz-adv-x="1185" d="M608 -20q-106 0 -202.5 45t-165.5 120t-109.5 178t-40.5 216q0 110 39.5 210.5t107.5 173t162.5 115.5t200.5 43q108 0 204 -43.5t164.5 -117.5t108.5 -175.5t41 -212.5q0 -22 -2 -32h-954q15 -195 144 -328t306 -133q117 0 219.5 60t145.5 155l63 -16 q-44 -112 -166.5 -185t-265.5 -73zM160 559h889q-13 201 -140 331t-307 130t-306 -131t-136 -330z" />
<glyph unicode="&#x436;" horiz-adv-x="1558" d="M88 0l412 547l-367 518h84l344 -490h182v490h72v-490h184l340 490h84l-366 -518l413 -547h-84l-387 512h-184v-512h-72v512h-180l-391 -512h-84z" />
<glyph unicode="&#x437;" horiz-adv-x="905" d="M434 -10q-135 0 -235.5 54.5t-147.5 152.5l60 26q41 -82 124.5 -127t196.5 -45q142 0 227.5 67.5t85.5 182.5q0 102 -67.5 166t-181.5 65h-109v58h119q72 0 125 63t53 152q0 98 -65.5 154.5t-186.5 56.5q-197 0 -272 -160l-58 29q45 93 129.5 143.5t200.5 50.5 q144 0 232 -73.5t88 -196.5q0 -78 -38.5 -143.5t-99.5 -98.5q94 -29 146.5 -101.5t52.5 -170.5q0 -139 -105 -222t-274 -83z" />
<glyph unicode="&#x438;" horiz-adv-x="1198" d="M166 0v1063h70v-967l733 969h63v-1065h-69v952l-723 -952h-74z" />
<glyph unicode="&#x439;" horiz-adv-x="1198" d="M600 1264q-116 0 -174.5 40t-58.5 101h49q0 -42 44.5 -70t139.5 -28q93 0 131.5 25t52.5 73h47q0 -61 -58 -101t-173 -40zM166 0v1063h70v-967l733 969h63v-1065h-69v952l-723 -952h-74z" />
<glyph unicode="&#x43a;" horiz-adv-x="985" d="M166 0v1065h70v-487h149l393 487h84l-420 -518l480 -547h-88l-449 512h-149v-512h-70z" />
<glyph unicode="&#x43b;" horiz-adv-x="1134" d="M51 -2v65q47 1 84.5 20.5t71 69.5t57 130.5t39.5 207t21 295.5l8 279h637v-1065h-70v999h-504l-4 -215q-7 -226 -31.5 -380.5t-69 -242.5t-102 -125.5t-137.5 -37.5z" />
<glyph unicode="&#x43c;" horiz-adv-x="1404" d="M166 0v1065h67l469 -795l472 795h65v-1065h-68v942l-444 -752h-47l-447 750v-940h-67z" />
<glyph unicode="&#x43d;" horiz-adv-x="1171" d="M166 0v1065h70v-490h700v490h70v-1065h-70v512h-700v-512h-70z" />
<glyph unicode="&#x43e;" horiz-adv-x="1206" d="M90 528q0 147 68.5 274.5t186.5 203t257 75.5q140 0 258.5 -75.5t187 -203t68.5 -274.5t-67.5 -273t-186.5 -200.5t-260 -74.5t-259.5 74.5t-185.5 200.5t-67 273zM600 45q90 0 172 39t141.5 104.5t95 155t35.5 186.5q0 130 -59.5 242t-161.5 178t-221 66 q-118 0 -220 -66.5t-162 -179.5t-60 -244q0 -198 129.5 -339.5t310.5 -141.5z" />
<glyph unicode="&#x43f;" horiz-adv-x="1140" d="M166 0v1065h807v-1065h-70v999h-667v-999h-70z" />
<glyph unicode="&#x440;" horiz-adv-x="1243" d="M236 238v-674h-70v1501h65v-221q69 106 180.5 171.5t231.5 65.5q143 0 262 -81t183.5 -206.5t64.5 -263.5q0 -148 -60.5 -273t-174 -201t-256.5 -76q-131 0 -242 72t-184 186zM1083 530q0 126 -59.5 237.5t-164 180t-226.5 68.5q-78 0 -167.5 -42t-156 -115t-73.5 -150 v-367q57 -129 170.5 -213t244.5 -84q95 0 177.5 41.5t137.5 110t86 155.5t31 178z" />
<glyph unicode="&#x441;" horiz-adv-x="1107" d="M610 -20q-106 0 -202.5 44.5t-166 119.5t-110.5 178t-41 215q0 151 67 275.5t186 196.5t265 72q138 0 247 -64t163 -177l-68 -25q-51 94 -143.5 147.5t-204.5 53.5q-186 0 -314 -138.5t-128 -340.5q0 -201 131.5 -346.5t312.5 -145.5q119 0 226.5 63t132.5 148l69 -20 q-38 -110 -158.5 -183t-263.5 -73z" />
<glyph unicode="&#x442;" horiz-adv-x="956" d="M444 0v999h-403v66h874v-66h-401v-999h-70z" />
<glyph unicode="&#x443;" horiz-adv-x="1101" d="M248 -389q79 -3 96 14q18 10 49 74.5t131 300.5l-485 1065h76l446 -987l420 987h72l-609 -1425q-33 -81 -112 -89q-38 -9 -84 -6v66z" />
<glyph unicode="&#x444;" horiz-adv-x="1378" d="M653 -436v436h-53q-149 0 -266.5 72t-180.5 192.5t-63 263.5q0 144 64 265.5t181.5 194.5t264.5 73h53v434h70v-434h55q146 0 263.5 -73t182 -194.5t64.5 -265.5q0 -143 -63 -263.5t-180.5 -192.5t-266.5 -72h-55v-436h-70zM600 63h55v934h-55q-126 0 -227.5 -64.5 t-157 -172t-55.5 -234.5q0 -196 123.5 -329.5t316.5 -133.5zM721 63h57q193 0 317 134t124 329t-125.5 333t-315.5 138h-57v-934z" />
<glyph unicode="&#x445;" horiz-adv-x="999" d="M121 1065l362 -463l17 -27l16 27l363 463h84l-420 -537l415 -528h-81l-361 459l-16 24l-17 -24l-358 -459h-84l416 528l-418 537h82z" />
<glyph unicode="&#x446;" horiz-adv-x="1159" d="M1032 -242v242h-866v1065h70v-1002h651v1002h69v-1002h142v-305h-66z" />
<glyph unicode="&#x447;" horiz-adv-x="1019" d="M782 0v477q-130 -65 -303 -65q-181 0 -265.5 89.5t-84.5 280.5v283h70v-274q0 -168 67 -244t215 -76q84 0 168.5 20t132.5 50v524h70v-1065h-70z" />
<glyph unicode="&#x448;" horiz-adv-x="1570" d="M166 0v1065h70v-1002h514v1002h71v-1002h514v1002h70v-1065h-1239z" />
<glyph unicode="&#x449;" horiz-adv-x="1607" d="M1481 -242v242h-1315v1065h70v-1002h514v1002h71v-1002h514v1002h70v-1002h141v-305h-65z" />
<glyph unicode="&#x44a;" horiz-adv-x="1177" d="M387 0v1001h-348v64h418v-397h293q168 0 256 -89t88 -239q0 -147 -88.5 -243.5t-249.5 -96.5h-369zM457 59h293q71 0 125.5 23.5t86 64t47 89t15.5 104.5q0 55 -14 100.5t-44.5 84t-86.5 60t-134 21.5h-288v-547z" />
<glyph unicode="&#x44b;" horiz-adv-x="1310" d="M166 0v1065h70v-397h282q168 0 256 -89t88 -239q0 -147 -88.5 -243.5t-249.5 -96.5h-358zM1073 0v1063h70v-1063h-70zM236 59h282q137 0 206 81.5t69 199.5q0 55 -14 100.5t-44.5 84t-86.5 60t-134 21.5h-278v-547z" />
<glyph unicode="&#x44c;" horiz-adv-x="956" d="M166 0v1065h70v-397h292q168 0 256 -89t88 -239q0 -147 -88 -243.5t-249 -96.5h-369zM236 59h292q137 0 206 81.5t69 199.5q0 55 -14 100.5t-44.5 84t-86.5 60t-134 21.5h-288v-547z" />
<glyph unicode="&#x44d;" horiz-adv-x="1128" d="M524 -18q-135 0 -258 67t-178 184l59 25q55 -106 157.5 -160.5t213.5 -54.5q120 0 222.5 65.5t162.5 174t64 233.5h-557v55h555q-5 85 -37.5 164t-87.5 142.5t-137.5 102t-180.5 38.5q-244 0 -352 -203l-59 27q57 111 160 175t247 64q120 0 220.5 -47.5t164.5 -125.5 t99.5 -173.5t35.5 -195.5q0 -82 -24 -163.5t-69.5 -152t-107.5 -125t-143 -85.5t-170 -31z" />
<glyph unicode="&#x44e;" horiz-adv-x="1540" d="M952 -20q-206 0 -338.5 145t-140.5 375h-237v-500h-70v1065h70v-502h237q9 232 144 375t335 143q222 0 360 -156.5t138 -396.5q0 -246 -140.5 -397t-357.5 -151zM952 45q191 0 308.5 135.5t117.5 347.5q0 220 -120.5 354t-305.5 134q-183 0 -297 -136t-114 -352 q0 -219 115 -351t296 -132z" />
<glyph unicode="&#x44f;" horiz-adv-x="1026" d="M86 0l342 444q-119 9 -189.5 92t-70.5 222q0 130 92.5 218.5t243.5 88.5h356v-1065h-69v436h-287l-336 -436h-82zM479 496h312v510h-281q-121 0 -196.5 -70.5t-75.5 -177.5q0 -114 62 -188t179 -74z" />
<glyph unicode="&#x450;" horiz-adv-x="1185" d="M446 1497h91l129 -162l-50 -26zM608 -20q-106 0 -202.5 45t-165.5 120t-109.5 178t-40.5 216q0 110 39.5 210.5t107.5 173t162.5 115.5t200.5 43q108 0 204 -43.5t164.5 -117.5t108.5 -175.5t41 -212.5q0 -22 -2 -32h-954q15 -195 144 -328t306 -133q117 0 219.5 60 t145.5 155l63 -16q-44 -112 -166.5 -185t-265.5 -73zM160 559h889q-13 201 -140 331t-307 130t-306 -131t-136 -330z" />
<glyph unicode="&#x451;" horiz-adv-x="1185" d="M438 1327v168h64v-168h-64zM696 1327v168h64v-168h-64zM608 -20q-106 0 -202.5 45t-165.5 120t-109.5 178t-40.5 216q0 110 39.5 210.5t107.5 173t162.5 115.5t200.5 43q108 0 204 -43.5t164.5 -117.5t108.5 -175.5t41 -212.5q0 -22 -2 -32h-954q15 -195 144 -328 t306 -133q117 0 219.5 60t145.5 155l63 -16q-44 -112 -166.5 -185t-265.5 -73zM160 559h889q-13 201 -140 331t-307 130t-306 -131t-136 -330z" />
<glyph unicode="&#x452;" horiz-adv-x="1163" d="M655 -356q-142 0 -219 77l53 37q29 -26 75.5 -38.5t86.5 -12.5q87 0 149.5 40t100.5 119.5t56.5 186t21.5 250.5q5 298 -73.5 433.5t-260.5 135.5q-143 0 -242.5 -73.5t-150.5 -204.5v-594h-70v1167h-151v56h151v272h70v-272h498v-56h-498v-458q140 231 407 231 q206 0 298 -141.5t92 -440.5q0 -358 -90 -536t-304 -178z" />
<glyph unicode="&#x453;" horiz-adv-x="811" d="M516 1307l-49 26l127 162h92zM166 0v1065h598v-66h-528v-999h-70z" />
<glyph unicode="&#x454;" horiz-adv-x="1128" d="M608 -18q-112 0 -210.5 48t-165 127t-104.5 179t-38 203q0 100 35.5 195.5t99.5 173.5t164.5 125.5t220.5 47.5q142 0 245 -64t161 -175l-58 -27q-115 203 -348 203q-98 0 -182 -38.5t-139.5 -102t-88.5 -142.5t-38 -164h557v-55h-557q4 -126 63.5 -234t161.5 -172.5 t223 -64.5q111 0 212.5 53.5t158.5 159.5l59 -25q-58 -118 -177.5 -184.5t-254.5 -66.5z" />
<glyph unicode="&#x455;" horiz-adv-x="972" d="M487 -20q-257 0 -413 172l37 49q85 -82 175.5 -121t198.5 -39q150 0 242 64t92 176q0 31 -8.5 56t-21.5 44t-39.5 36t-50 28.5t-66.5 24.5t-76.5 21.5t-91.5 22.5q-54 14 -87.5 23.5t-73 23t-62 26.5t-46 31.5t-35 41t-19 51.5t-7.5 65q0 149 108 227t275 78 q123 0 216.5 -41.5t135.5 -109.5l-45 -39q-42 61 -127 95t-188 34q-86 0 -153 -23t-110.5 -77t-43.5 -134q0 -40 12 -68.5t29.5 -47.5t58 -36.5t75 -27.5t103.5 -28q51 -12 80.5 -20t71 -19.5t65.5 -21t54.5 -23.5t48 -28t36.5 -33t28 -40t15.5 -47t6.5 -57 q0 -142 -109.5 -225.5t-290.5 -83.5z" />
<glyph unicode="&#x456;" horiz-adv-x="403" d="M166 1323v172h70v-172h-70zM166 0v1065h70v-1065h-70z" />
<glyph unicode="&#x457;" horiz-adv-x="403" d="M39 1327v168h63v-168h-63zM297 1327v168h63v-168h-63zM166 0v1065h70v-1065h-70z" />
<glyph unicode="&#x458;" horiz-adv-x="417" d="M182 1323v172h70v-172h-70zM-246 -283l43 45q58 -51 164 -51q85 0 153 65t68 156v1133h70v-1131q0 -121 -88.5 -204.5t-196.5 -83.5q-139 0 -213 71z" />
<glyph unicode="&#x459;" horiz-adv-x="1601" d="M51 -2v65q47 1 84.5 20.5t71 69.5t57 130.5t39.5 207t21 295.5l8 279h598v-455h244q168 0 256 -81t88 -216t-88.5 -224t-249.5 -89h-320v999h-465l-4 -215q-6 -226 -30.5 -380.5t-69 -242.5t-102.5 -125.5t-138 -37.5zM930 59h244q138 0 206 72.5t68 179.5q0 50 -14 91 t-44.5 75.5t-86 54t-132.5 19.5h-241v-492z" />
<glyph unicode="&#x45a;" horiz-adv-x="1626" d="M166 0v1065h70v-459h608v459h69v-455h285q168 0 256 -81t88 -216t-88.5 -224t-249.5 -89h-360v543h-608v-543h-70zM913 59h285q138 0 206.5 72.5t68.5 179.5q0 50 -14 91t-44.5 75.5t-86 54t-132.5 19.5h-283v-492z" />
<glyph unicode="&#x45b;" horiz-adv-x="1185" d="M182 0v1167h-151v56h151v272h70v-272h498v-56h-498v-460q135 233 418 233q189 0 274.5 -106t85.5 -318v-516h-69v508q0 186 -70 275t-232 89q-150 0 -253.5 -71t-153.5 -207v-594h-70z" />
<glyph unicode="&#x45c;" horiz-adv-x="985" d="M492 1307l-50 26l127 162h93zM166 0v1065h70v-487h149l393 487h84l-420 -518l480 -547h-88l-449 512h-149v-512h-70z" />
<glyph unicode="&#x45d;" horiz-adv-x="1198" d="M446 1497h91l129 -162l-50 -26zM166 0v1063h70v-967l733 969h63v-1065h-69v952l-723 -952h-74z" />
<glyph unicode="&#x45e;" horiz-adv-x="1101" d="M551 1264q-117 0 -175.5 40t-58.5 101h50q0 -42 44.5 -70t139.5 -28q93 0 131.5 25t52.5 73h47q0 -61 -58 -101t-173 -40zM248 -389q79 -3 96 14q18 10 49 74.5t131 300.5l-485 1065h76l446 -987l420 987h72l-609 -1425q-33 -81 -112 -89q-38 -9 -84 -6v66z" />
<glyph unicode="&#x45f;" horiz-adv-x="1128" d="M530 -242v242h-364v1065h70v-1002h655v1002h70v-1065h-365v-242h-66z" />
<glyph unicode="&#x462;" horiz-adv-x="1286" d="M725 866q226 0 341.5 -118t115.5 -316q0 -88 -28.5 -165t-83 -137t-142 -95t-197.5 -35h-483v1139h-256v61h256v254h71v-254h451v-61h-451v-273h406zM727 63q99 0 175 31t120 84t66 117.5t22 136.5q0 77 -19 140t-61.5 116.5t-121 83t-187.5 29.5h-402v-738h408z" />
<glyph unicode="&#x463;" horiz-adv-x="1038" d="M250 0v1073h-262v55h262v367h69v-367h420v-55h-420v-405h291q168 0 256 -89t88 -239q0 -147 -88 -243.5t-250 -96.5h-366zM319 59h293q137 0 205 81.5t68 199.5q0 55 -14 100.5t-44.5 84t-86 60t-132.5 21.5h-289v-547z" />
<glyph unicode="&#x46a;" horiz-adv-x="1921" d="M59 0l568 748l-537 706h1741l-539 -706l570 -748h-84l-541 709h-242v-709h-69v709h-242l-541 -709h-84zM688 774h543l475 623h-1491z" />
<glyph unicode="&#x46b;" horiz-adv-x="1499" d="M88 0l418 547l-371 518h1229l-371 -518l418 -547h-86l-391 512h-148v-512h-71v512h-148l-391 -512h-88zM569 573h363l307 439h-981z" />
<glyph unicode="&#x472;" horiz-adv-x="1552" d="M774 1464q146 0 275 -64.5t216 -168.5t137 -236t50 -268q0 -145 -52.5 -280t-142 -235.5t-216.5 -161t-267 -60.5q-147 1 -275.5 64t-216 165.5t-138 235.5t-50.5 272q0 192 88.5 361t246.5 272.5t345 103.5zM774 1397q-126 0 -238 -53.5t-189.5 -141.5t-124.5 -200.5 t-54 -231.5h1210q-10 166 -90 309t-216.5 230.5t-297.5 87.5zM774 57q131 0 245.5 57.5t192 150.5t122 211.5t46.5 240.5h-1214q1 -128 48 -248t126 -211t192.5 -146t241.5 -55z" />
<glyph unicode="&#x473;" horiz-adv-x="1204" d="M602 1081q140 0 258.5 -75.5t187 -203t68.5 -274.5t-67.5 -273t-186.5 -200.5t-260 -74.5t-259.5 74.5t-185.5 200.5t-67 273t68.5 274.5t186.5 203t257 75.5zM602 1016q-170 0 -298 -131.5t-142 -317.5h880q-12 186 -140.5 317.5t-299.5 131.5zM600 45q179 0 309 139.5 t135 335.5h-884q2 -129 61.5 -238.5t160 -173t218.5 -63.5z" />
<glyph unicode="&#x474;" horiz-adv-x="1495" d="M659 0l-624 1454h76l583 -1364l504 1170q45 108 93.5 151t138.5 43h63v-65h-57q-67 0 -104 -35.5t-75 -122.5l-530 -1231h-68z" />
<glyph unicode="&#x475;" horiz-adv-x="1081" d="M469 0l-422 1065h74l383 -983l307 795q36 101 85.5 144.5t137.5 43.5h49v-61h-43q-68 0 -104 -34t-66 -120l-331 -850h-70z" />
<glyph unicode="&#x490;" horiz-adv-x="1030" d="M197 0v1454h725v281h65v-346h-719v-1389h-71z" />
<glyph unicode="&#x491;" horiz-adv-x="811" d="M166 0v1065h532v242h66v-308h-528v-999h-70z" />
<glyph unicode="&#x492;" horiz-adv-x="1087" d="M1042 1389h-718v-639h452v-58h-452v-692h-72v692h-252v58h252v704h790v-65z" />
<glyph unicode="&#x493;" horiz-adv-x="813" d="M766 999h-528v-454h340v-58h-340v-487h-70v487h-188v58h188v520h598v-66z" />
<glyph unicode="&#x494;" horiz-adv-x="1251" d="M670 803q221 0 338.5 -136.5t117.5 -390.5q0 -252 -110 -376.5t-307 -124.5q-64 0 -146 16l8 62q88 -15 134 -15q171 0 261.5 110t90.5 328q0 227 -100.5 344t-292.5 117q-195 0 -396 -106v-631h-71v1454h790v-65h-719v-691q202 105 402 105z" />
<glyph unicode="&#x495;" horiz-adv-x="1030" d="M537 723q199 0 293 -119t94 -356v-29q-3 -285 -96 -430t-298 -145q-123 0 -192 53l43 45q50 -33 143 -33q88 0 151.5 33t101.5 96.5t56.5 148t20.5 195.5v37q0 228 -80.5 334t-253.5 106q-89 0 -155 -25.5t-129 -80.5v-553h-70v1065h598v-66h-528v-372q131 96 301 96z " />
<glyph unicode="&#x496;" horiz-adv-x="1943" d="M1815 66h124v-342h-67v276h-103v10l-532 699h-240v-709h-71v709h-240l-543 -709h-84l568 748l-537 706h84l516 -678h236v678h71v-678h236l516 678h84l-539 -706z" />
<glyph unicode="&#x497;" horiz-adv-x="1542" d="M1423 63h117v-305h-65v242h-89l-387 512h-184v-512h-72v512h-180l-391 -512h-84l412 547l-367 518h84l344 -490h182v490h72v-490h184l340 490h84l-366 -518z" />
<glyph unicode="&#x498;" horiz-adv-x="1048" d="M950 383q0 -155 -91.5 -259t-246.5 -134q111 -75 111 -176q0 -79 -55 -119.5t-148 -40.5q-121 0 -227 53l26 49q106 -49 189 -49q158 0 158 113q0 49 -29 86.5t-92 75.5q-14 -2 -43 -2q-134 0 -242 60t-168 169l60 33q51 -94 142 -145.5t208 -51.5q171 0 275 93t104 249 q0 150 -95.5 245t-253.5 95h-120v61h123q119 0 201.5 90t82.5 218q0 135 -89.5 223t-227.5 88q-102 0 -182.5 -49t-126.5 -137l-56 30q55 106 150 165t217 59q166 0 275.5 -106t109.5 -267q0 -115 -58.5 -206.5t-156.5 -133.5q128 -35 202 -137.5t74 -241.5z" />
<glyph unicode="&#x499;" horiz-adv-x="905" d="M813 295q0 -123 -82 -202.5t-221 -98.5q60 -39 89.5 -81t29.5 -99q0 -79 -55 -119.5t-148 -40.5q-121 0 -227 53l26 49q106 -49 189 -49q157 0 157 113q0 52 -32.5 91t-102.5 79h-2q-135 0 -235.5 54.5t-147.5 152.5l60 26q41 -82 124.5 -127t196.5 -45q142 0 227.5 67.5 t85.5 182.5q0 102 -67.5 166t-181.5 65h-109v58h119q72 0 125 63t53 152q0 98 -65.5 154.5t-186.5 56.5q-197 0 -272 -160l-58 29q45 93 129.5 143.5t200.5 50.5q144 0 232 -73.5t88 -196.5q0 -78 -38.5 -143.5t-99.5 -98.5q94 -29 146.5 -101.5t52.5 -170.5z" />
<glyph unicode="&#x49a;" horiz-adv-x="1267" d="M1130 66h134v-342h-66v276h-106l-555 709h-269v-709h-71v1454h71v-678h264l535 678h84l-557 -706z" />
<glyph unicode="&#x49b;" horiz-adv-x="989" d="M866 63h119v-305h-65v242h-86l-449 512h-149v-512h-70v1065h70v-487h149l393 487h84l-420 -518z" />
<glyph unicode="&#x49c;" horiz-adv-x="1198" d="M651 748l537 -748h-84l-508 711h-66v-305h-51v305h-213v-711h-69v1454h69v-680h213v283h51v-283h62l485 680h80z" />
<glyph unicode="&#x49d;" horiz-adv-x="1052" d="M555 547l434 -547h-82l-411 512h-45v-238h-52v238h-163v-512h-70v1065h70v-490h163v218h52v-218h45l352 490h82z" />
<glyph unicode="&#x4a0;" horiz-adv-x="1415" d="M819 748l588 -748h-90l-555 709h-268v-709h-72v1389h-420v65h492v-678h264l534 678h84z" />
<glyph unicode="&#x4a1;" horiz-adv-x="1136" d="M627 547l479 -547h-88l-449 512h-149v-512h-70v1001h-348v64h418v-487h149l394 487h84z" />
<glyph unicode="&#x4a2;" horiz-adv-x="1579" d="M1305 66h170v-342h-66v276h-174v711h-967v-711h-71v1454h71v-678h967v678h70v-1388z" />
<glyph unicode="&#x4a3;" horiz-adv-x="1210" d="M1006 63h143v-305h-64v242h-149v512h-700v-512h-70v1065h70v-490h700v490h70v-1002z" />
<glyph unicode="&#x4a4;" horiz-adv-x="2066" d="M2023 1454v-65h-718v-1389h-70v711h-967v-711h-71v1454h71v-678h967v676l-2 2h790z" />
<glyph unicode="&#x4a5;" horiz-adv-x="1581" d="M1534 1065v-66h-528v-999h-70v512h-700v-512h-70v1065h70v-490h700v490h598z" />
<glyph unicode="&#x4aa;" horiz-adv-x="1421" d="M1348 326q-45 -101 -135 -177.5t-195.5 -116t-214.5 -44.5v-275h-64v275q-111 6 -212.5 51t-179 118.5t-135.5 166.5t-88 199.5t-30 213.5q0 105 29 209t88 197t140 164t192.5 113t238.5 42q187 0 325.5 -86.5t207.5 -230.5l-62 -29q-38 75 -93.5 130.5t-119.5 87 t-130 46.5t-136 15q-113 0 -212 -38t-170.5 -102.5t-123 -149.5t-77 -180.5t-25.5 -193.5q0 -176 81 -331.5t223 -250t310 -94.5q96 0 188.5 30t178.5 98.5t137 166.5z" />
<glyph unicode="&#x4ab;" horiz-adv-x="1107" d="M1032 236q-37 -104 -147 -175.5t-244 -80.5v-222h-63v224q-134 8 -246 84.5t-177 201.5t-65 269q0 151 67 275.5t186 196.5t265 72q138 0 247 -64t163 -177l-68 -25q-51 94 -143.5 147.5t-204.5 53.5q-186 0 -314 -138.5t-128 -340.5q0 -201 131.5 -346.5t312.5 -145.5 q119 0 226.5 63t132.5 148z" />
<glyph unicode="&#x4ae;" horiz-adv-x="1318" d="M123 1454l534 -825l539 825h80l-582 -897v-557h-71v561l-580 893h80z" />
<glyph unicode="&#x4af;" horiz-adv-x="1073" d="M502 -436v440l-455 1061h76l416 -985l415 985h72l-455 -1061v-440h-69z" />
<glyph unicode="&#x4b0;" horiz-adv-x="1302" d="M614 0v453h-282v57h282v51l-579 893h80l534 -825l539 825h80l-582 -897v-47h285v-57h-285v-453h-72z" />
<glyph unicode="&#x4b1;" horiz-adv-x="1144" d="M539 -436v385h-240v51h240v4l-455 1061h74l415 -989l418 989h72l-455 -1061v-4h240v-51h-240v-385h-69z" />
<glyph unicode="&#x4b6;" horiz-adv-x="1386" d="M1106 66h176v-342h-65v276h-181v657q-196 -86 -418 -86q-241 0 -350.5 101t-109.5 323v459h69v-450q0 -192 92.5 -278.5t301.5 -86.5q123 0 234 25t181 65v725h70v-1388z" />
<glyph unicode="&#x4b7;" horiz-adv-x="1042" d="M852 63h129v-305h-63v242h-150v63h14v414q-130 -65 -303 -65q-181 0 -265.5 89.5t-84.5 280.5v283h70v-274q0 -168 67 -244t215 -76q84 0 168.5 20t132.5 50v524h70v-1002z" />
<glyph unicode="&#x4b8;" horiz-adv-x="1302" d="M1036 1454h70v-1454h-70v657q-191 -83 -403 -86v-278h-51v278q-221 7 -322.5 109t-101.5 315v459h69v-450q0 -184 84 -271t271 -94v305h51v-305q120 1 227 26t176 64v725z" />
<glyph unicode="&#x4b9;" horiz-adv-x="1019" d="M780 1065h72v-1065h-72v477q-118 -59 -270 -65v-203h-51v203q-170 4 -250 94.5t-80 275.5v283h70v-274q0 -162 62 -238t198 -82v256h51v-256q78 4 152.5 23.5t117.5 46.5v524z" />
<glyph unicode="&#x4ba;" horiz-adv-x="1302" d="M266 1454v-657q196 86 418 86q241 0 351 -101.5t110 -322.5v-459h-70v451q0 192 -92 278t-301 86q-123 0 -234.5 -25t-181.5 -65v-725h-69v1454h69z" />
<glyph unicode="&#x4bb;" horiz-adv-x="1167" d="M1014 0h-70v594q0 209 -71 315.5t-209 106.5q-141 0 -264 -100.5t-164 -249.5v-666h-70v1495h70v-696q66 129 185.5 205.5t254.5 76.5q168 0 253 -123.5t85 -355.5v-602z" />
<glyph unicode="&#x4c0;" horiz-adv-x="464" d="M197 0v1454h71v-1454h-71z" />
<glyph unicode="&#x4c1;" horiz-adv-x="1923" d="M961 1653q-117 0 -175.5 40t-58.5 101h49q0 -41 45 -69.5t140 -28.5q93 0 131.5 25t52.5 73h47q0 -61 -58 -101t-173 -40zM59 0l568 748l-537 706h84l516 -678h236v678h71v-678h236l516 678h84l-539 -706l570 -748h-86l-541 709h-240v-709h-71v709h-240l-543 -709h-84z " />
<glyph unicode="&#x4c2;" horiz-adv-x="1558" d="M780 1264q-116 0 -174.5 40t-58.5 101h49q0 -42 44.5 -70t139.5 -28q93 0 132 25t53 73h47q0 -61 -58.5 -101t-173.5 -40zM88 0l412 547l-367 518h84l344 -490h182v490h72v-490h184l340 490h84l-366 -518l413 -547h-84l-387 512h-184v-512h-72v512h-180l-391 -512h-84z " />
<glyph unicode="&#x4cb;" horiz-adv-x="1302" d="M1036 1454h70v-1454h-191v-276h-65v342h186v591q-196 -86 -418 -86q-241 0 -350.5 101t-109.5 323v459h69v-450q0 -192 92.5 -278.5t301.5 -86.5q123 0 234 25t181 65v725z" />
<glyph unicode="&#x4cc;" horiz-adv-x="1015" d="M637 -242v291h141v432q-136 -65 -297 -65q-182 0 -267 91t-85 281v277h68v-268q0 -169 67.5 -245.5t216.5 -76.5q84 0 166.5 20.5t130.5 51.5v518h72v-1065h-148v-242h-65z" />
<glyph unicode="&#x4cf;" horiz-adv-x="403" d="M166 0v1065h70v-1065h-70z" />
<glyph unicode="&#x4d0;" horiz-adv-x="1382" d="M690 1653q-116 0 -174.5 40t-58.5 101h49q0 -42 44.5 -70t139.5 -28q93 0 131.5 25t52.5 73h48q0 -61 -58.5 -101t-173.5 -40zM659 1454h62l625 -1454h-76l-215 502h-729l-215 -502h-78zM1032 563l-342 801l-344 -801h686z" />
<glyph unicode="&#x4d1;" horiz-adv-x="1085" d="M543 1264q-117 0 -175.5 40t-58.5 101h49q0 -41 45 -69.5t140 -28.5q93 0 131.5 25t52.5 73h47q0 -61 -58 -101t-173 -40zM76 305q0 138 123.5 224.5t318.5 86.5q184 0 344 -57v113q0 157 -92 251.5t-244 94.5q-159 0 -342 -129l-34 51q205 141 380 141 q185 0 293.5 -111.5t108.5 -301.5v-562q0 -45 37 -45v-61q-29 -3 -39 2q-28 6 -45 29.5t-19 54.5v92q-73 -94 -189.5 -146t-250.5 -52q-149 0 -249.5 94t-100.5 231zM825 213q37 46 37 90v195q-158 61 -340 61q-170 0 -274.5 -68.5t-104.5 -181.5q0 -112 83.5 -191 t207.5 -79q125 0 231.5 48t159.5 126z" />
<glyph unicode="&#x4d2;" horiz-adv-x="1382" d="M528 1716v168h64v-168h-64zM786 1716v168h64v-168h-64zM659 1454h62l625 -1454h-76l-215 502h-729l-215 -502h-78zM1032 563l-342 801l-344 -801h686z" />
<glyph unicode="&#x4d3;" horiz-adv-x="1085" d="M381 1327v168h63v-168h-63zM639 1327v168h63v-168h-63zM76 305q0 138 123.5 224.5t318.5 86.5q184 0 344 -57v113q0 157 -92 251.5t-244 94.5q-159 0 -342 -129l-34 51q205 141 380 141q185 0 293.5 -111.5t108.5 -301.5v-562q0 -45 37 -45v-61q-29 -3 -39 2 q-28 6 -45 29.5t-19 54.5v92q-73 -94 -189.5 -146t-250.5 -52q-149 0 -249.5 94t-100.5 231zM825 213q37 46 37 90v195q-158 61 -340 61q-170 0 -274.5 -68.5t-104.5 -181.5q0 -112 83.5 -191t207.5 -79q125 0 231.5 48t159.5 126z" />
<glyph unicode="&#x4d4;" horiz-adv-x="1970" d="M895 1454h956v-65h-868v-613h758v-65h-758v-645h887v-66h-957v502h-563l-325 -502h-82zM909 567v791l-522 -791h522z" />
<glyph unicode="&#x4d5;" horiz-adv-x="1902" d="M76 307q0 135 123.5 222t316.5 87q147 0 291 -41q6 102 43 189q-25 119 -111 188.5t-213 69.5q-158 0 -344 -131l-30 51q204 139 378 139q134 0 229.5 -63.5t135.5 -177.5q68 110 179.5 175.5t242.5 65.5q107 0 203 -43.5t164.5 -117.5t109 -175.5t41.5 -214.5 q0 -4 -1 -14.5t-1 -15.5h-959q9 -128 72 -234t164.5 -166.5t218.5 -60.5t219.5 60t145.5 155l63 -16q-46 -112 -167.5 -185t-264.5 -73q-132 0 -245 65.5t-183 177.5q-62 -120 -196.5 -181.5t-278.5 -61.5q-145 0 -245.5 94.5t-100.5 232.5zM1765 557q-13 202 -139.5 332.5 t-308.5 130.5t-308 -132t-135 -331h891zM829 217q28 44 33 72q-52 101 -55 229q-133 43 -285 43q-169 0 -274 -69t-105 -183t83.5 -192t205.5 -78q129 0 236 48t161 130z" />
<glyph unicode="&#x4d6;" horiz-adv-x="1259" d="M700 1647q-116 0 -174.5 40t-58.5 101h49q0 -42 44.5 -70t139.5 -28q93 0 132 25t53 73h47q0 -61 -58.5 -101t-173.5 -40zM1157 66v-66h-960v1454h942v-65h-871v-613h762v-65h-762v-645h889z" />
<glyph unicode="&#x4d7;" horiz-adv-x="1185" d="M600 1264q-116 0 -174.5 40t-58.5 101h49q0 -42 44.5 -70t139.5 -28q93 0 131.5 25t52.5 73h47q0 -61 -58 -101t-173 -40zM608 -20q-106 0 -202.5 45t-165.5 120t-109.5 178t-40.5 216q0 110 39.5 210.5t107.5 173t162.5 115.5t200.5 43q108 0 204 -43.5t164.5 -117.5 t108.5 -175.5t41 -212.5q0 -22 -2 -32h-954q15 -195 144 -328t306 -133q117 0 219.5 60t145.5 155l63 -16q-44 -112 -166.5 -185t-265.5 -73zM160 559h889q-13 201 -140 331t-307 130t-306 -131t-136 -330z" />
<glyph unicode="&#x4d8;" horiz-adv-x="1511" d="M66 719v35h1273q-10 135 -62 254.5t-132.5 204t-188 133.5t-225.5 49q-160 0 -299 -86t-192 -222l-70 31q62 150 222.5 248t346.5 98q137 0 262.5 -60t216.5 -161t145 -240.5t54 -291.5q0 -149 -52.5 -283.5t-141.5 -232.5t-212.5 -155.5t-260.5 -57.5q-142 0 -269.5 58 t-218 157t-143.5 235t-53 287zM1341 686h-1198q19 -277 188.5 -456t413.5 -179q120 0 227 48t186 132t127.5 202t55.5 253z" />
<glyph unicode="&#x4d9;" horiz-adv-x="1185" d="M586 -20q-142 0 -261 73.5t-187.5 199.5t-69.5 275q0 5 1 16t1 15h954q-13 196 -143.5 328.5t-307.5 132.5q-117 0 -219 -59.5t-145 -153.5l-64 16q46 111 168.5 184.5t264.5 73.5q106 0 202.5 -45t165.5 -120t109.5 -178t40.5 -216q0 -148 -66.5 -272t-184 -197 t-259.5 -73zM586 39q179 0 304 132t136 331h-887q12 -200 139.5 -331.5t307.5 -131.5z" />
<glyph unicode="&#x4dc;" horiz-adv-x="1923" d="M799 1716v168h63v-168h-63zM1057 1716v168h63v-168h-63zM59 0l568 748l-537 706h84l516 -678h236v678h71v-678h236l516 678h84l-539 -706l570 -748h-86l-541 709h-240v-709h-71v709h-240l-543 -709h-84z" />
<glyph unicode="&#x4dd;" horiz-adv-x="1558" d="M618 1327v168h64v-168h-64zM877 1327v168h63v-168h-63zM88 0l412 547l-367 518h84l344 -490h182v490h72v-490h184l340 490h84l-366 -518l413 -547h-84l-387 512h-184v-512h-72v512h-180l-391 -512h-84z" />
<glyph unicode="&#x4de;" horiz-adv-x="1048" d="M379 1716v168h63v-168h-63zM637 1716v168h63v-168h-63zM502 -20q-134 0 -242 60t-168 169l60 33q51 -94 142 -145.5t208 -51.5q171 0 275 93t104 249q0 150 -95.5 245t-253.5 95h-120v61h123q119 0 201.5 90t82.5 218q0 135 -89.5 223t-227.5 88q-102 0 -182.5 -49 t-126.5 -137l-56 30q55 106 150 165t217 59q166 0 275.5 -106t109.5 -267q0 -115 -58.5 -206.5t-156.5 -133.5q128 -35 202 -137.5t74 -241.5q0 -182 -124.5 -292.5t-323.5 -110.5z" />
<glyph unicode="&#x4df;" horiz-adv-x="905" d="M266 1327v168h64v-168h-64zM524 1327v168h64v-168h-64zM434 -10q-135 0 -235.5 54.5t-147.5 152.5l60 26q41 -82 124.5 -127t196.5 -45q142 0 227.5 67.5t85.5 182.5q0 102 -67.5 166t-181.5 65h-109v58h119q72 0 125 63t53 152q0 98 -65.5 154.5t-186.5 56.5 q-197 0 -272 -160l-58 29q45 93 129.5 143.5t200.5 50.5q144 0 232 -73.5t88 -196.5q0 -78 -38.5 -143.5t-99.5 -98.5q94 -29 146.5 -101.5t52.5 -170.5q0 -139 -105 -222t-274 -83z" />
<glyph unicode="&#x4e2;" horiz-adv-x="1538" d="M481 1780v57h580v-57h-580zM199 0v1454h71v-1360l1002 1360h67v-1454h-71v1337l-992 -1337h-77z" />
<glyph unicode="&#x4e3;" horiz-adv-x="1198" d="M311 1391v57h580v-57h-580zM166 0v1063h70v-967l733 969h63v-1065h-69v952l-723 -952h-74z" />
<glyph unicode="&#x4e4;" horiz-adv-x="1538" d="M608 1716v168h64v-168h-64zM866 1716v168h64v-168h-64zM199 0v1454h71v-1360l1002 1360h67v-1454h-71v1337l-992 -1337h-77z" />
<glyph unicode="&#x4e5;" horiz-adv-x="1198" d="M438 1327v168h64v-168h-64zM696 1327v168h64v-168h-64zM166 0v1063h70v-967l733 969h63v-1065h-69v952l-723 -952h-74z" />
<glyph unicode="&#x4e6;" horiz-adv-x="1546" d="M612 1710v168h64v-168h-64zM870 1710v168h64v-168h-64zM94 727q0 192 88.5 361t246.5 272.5t345 103.5q146 0 275 -64.5t216 -168.5t137 -236t50 -268q0 -145 -52.5 -280t-142 -235.5t-216.5 -161t-267 -60.5q-147 1 -275.5 64t-216 165.5t-138 235.5t-50.5 272zM774 57 q132 0 247.5 58t193 153t121.5 215t44 244q0 129 -46.5 251t-126 214.5t-193.5 148.5t-240 56q-132 0 -248 -58t-193.5 -152.5t-122 -214.5t-44.5 -245q0 -130 46 -251.5t125 -214t193.5 -148.5t243.5 -56z" />
<glyph unicode="&#x4e7;" horiz-adv-x="1206" d="M440 1327v168h64v-168h-64zM698 1327v168h64v-168h-64zM90 528q0 147 68.5 274.5t186.5 203t257 75.5q140 0 258.5 -75.5t187 -203t68.5 -274.5t-67.5 -273t-186.5 -200.5t-260 -74.5t-259.5 74.5t-185.5 200.5t-67 273zM600 45q90 0 172 39t141.5 104.5t95 155 t35.5 186.5q0 130 -59.5 242t-161.5 178t-221 66q-118 0 -220 -66.5t-162 -179.5t-60 -244q0 -198 129.5 -339.5t310.5 -141.5z" />
<glyph unicode="&#x4e8;" horiz-adv-x="1552" d="M774 1464q146 0 275 -64.5t216 -168.5t137 -236t50 -268q0 -145 -52.5 -280t-142 -235.5t-216.5 -161t-267 -60.5q-147 1 -275.5 64t-216 165.5t-138 235.5t-50.5 272q0 192 88.5 361t246.5 272.5t345 103.5zM774 1397q-126 0 -238 -53.5t-189.5 -141.5t-124.5 -200.5 t-54 -231.5h1210q-10 166 -90 309t-216.5 230.5t-297.5 87.5zM774 57q131 0 245.5 57.5t192 150.5t122 211.5t46.5 240.5h-1214q1 -128 48 -248t126 -211t192.5 -146t241.5 -55z" />
<glyph unicode="&#x4e9;" horiz-adv-x="1204" d="M602 1081q140 0 258.5 -75.5t187 -203t68.5 -274.5t-67.5 -273t-186.5 -200.5t-260 -74.5t-259.5 74.5t-185.5 200.5t-67 273t68.5 274.5t186.5 203t257 75.5zM602 1016q-170 0 -298 -131.5t-142 -317.5h880q-12 186 -140.5 317.5t-299.5 131.5zM600 45q179 0 309 139.5 t135 335.5h-884q2 -129 61.5 -238.5t160 -173t218.5 -63.5z" />
<glyph unicode="&#x4ee;" horiz-adv-x="1241" d="M346 1780v57h580v-57h-580zM365 -2v65h92q19 0 32 5.5t27 24t22 31.5t27 50l78 166l-643 1114h80l598 -1040l491 1040h76l-624 -1317q-37 -77 -68.5 -108t-87.5 -31h-100z" />
<glyph unicode="&#x4ef;" horiz-adv-x="1101" d="M262 1391v57h580v-57h-580zM248 -389q79 -3 96 14q18 10 49 74.5t131 300.5l-485 1065h76l446 -987l420 987h72l-609 -1425q-33 -81 -112 -89q-38 -9 -84 -6v66z" />
<glyph unicode="&#x4f0;" horiz-adv-x="1241" d="M473 1716v168h64v-168h-64zM731 1716v168h64v-168h-64zM365 -2v65h92q19 0 32 5.5t27 24t22 31.5t27 50l78 166l-643 1114h80l598 -1040l491 1040h76l-624 -1317q-37 -77 -68.5 -108t-87.5 -31h-100z" />
<glyph unicode="&#x4f1;" horiz-adv-x="1101" d="M389 1327v168h64v-168h-64zM647 1327v168h64v-168h-64zM248 -389q79 -3 96 14q18 10 49 74.5t131 300.5l-485 1065h76l446 -987l420 987h72l-609 -1425q-33 -81 -112 -89q-38 -9 -84 -6v66z" />
<glyph unicode="&#x4f2;" horiz-adv-x="1241" d="M504 1698l-45 26l127 162h88zM725 1698l-47 26l127 162h88zM365 -2v65h92q19 0 32 5.5t27 24t22 31.5t27 50l78 166l-643 1114h80l598 -1040l491 1040h76l-624 -1317q-37 -77 -68.5 -108t-87.5 -31h-100z" />
<glyph unicode="&#x4f3;" horiz-adv-x="1101" d="M420 1309l-45 26l127 162h88zM641 1309l-47 26l127 162h88zM248 -389q79 -3 96 14q18 10 49 74.5t131 300.5l-485 1065h76l446 -987l420 987h72l-609 -1425q-33 -81 -112 -89q-38 -9 -84 -6v66z" />
<glyph unicode="&#x4f4;" horiz-adv-x="1302" d="M498 1716v168h63v-168h-63zM756 1716v168h63v-168h-63zM1036 0v657q-196 -86 -418 -86q-241 0 -350.5 101t-109.5 323v459h69v-450q0 -192 92.5 -278.5t301.5 -86.5q123 0 234 25t181 65v725h70v-1454h-70z" />
<glyph unicode="&#x4f5;" horiz-adv-x="1019" d="M352 1327v168h64v-168h-64zM610 1327v168h64v-168h-64zM782 0v477q-130 -65 -303 -65q-181 0 -265.5 89.5t-84.5 280.5v283h70v-274q0 -168 67 -244t215 -76q84 0 168.5 20t132.5 50v524h70v-1065h-70z" />
<glyph unicode="&#x4f6;" horiz-adv-x="1030" d="M987 1389h-719v-1323h205v-342h-65v276h-211v1454h790v-65z" />
<glyph unicode="&#x4f7;" horiz-adv-x="811" d="M764 999h-528v-936h180v-305h-64v242h-186v1065h598v-66z" />
<glyph unicode="&#x4f8;" horiz-adv-x="1667" d="M674 1716v168h63v-168h-63zM932 1716v168h63v-168h-63zM197 0v1454h71v-588h404q227 0 341.5 -117.5t114.5 -316.5q0 -88 -28 -165t-82.5 -137t-141.5 -95t-196 -35h-483zM1401 0v1452h69v-1452h-69zM268 63h406q100 0 176 31t120.5 84t66.5 117t22 137q0 77 -19 140 t-61.5 116.5t-121 83t-187.5 29.5h-402v-738z" />
<glyph unicode="&#x4f9;" horiz-adv-x="1310" d="M477 1327v168h64v-168h-64zM735 1327v168h64v-168h-64zM166 0v1065h70v-397h282q168 0 256 -89t88 -239q0 -147 -88.5 -243.5t-249.5 -96.5h-358zM1073 0v1063h70v-1063h-70zM236 59h282q137 0 206 81.5t69 199.5q0 55 -14 100.5t-44.5 84t-86.5 60t-134 21.5h-278v-547z " />
<glyph unicode="&#x51a;" horiz-adv-x="1546" d="M1452 727q0 -154 -57.5 -294.5t-159.5 -244.5l154 -188h-78l-121 147q-181 -157 -416 -157q-147 1 -275.5 64t-216 165.5t-138 235.5t-50.5 272q0 192 88.5 361t246.5 272.5t345 103.5q146 0 275 -64.5t216 -168.5t137 -236t50 -268zM774 57q213 0 373 144l-162 198h78 l127 -157q90 96 140 224t50 261q0 129 -46.5 251t-126 214.5t-193.5 148.5t-240 56q-132 0 -248 -58t-193.5 -152.5t-122 -214.5t-44.5 -245q0 -130 46 -251.5t125 -214t193.5 -148.5t243.5 -56z" />
<glyph unicode="&#x51b;" horiz-adv-x="1243" d="M90 530q0 144 68 271t186.5 203.5t257.5 76.5q121 0 233 -67t177 -170v221h65v-1501h-69v674q-177 -258 -426 -258q-143 0 -257.5 79.5t-174.5 204t-60 266.5zM1008 338v367q-10 79 -73 152t-152 116t-175 43q-95 0 -179.5 -42.5t-142 -111t-91 -156.5t-33.5 -178 q0 -128 54.5 -238t154.5 -177.5t223 -67.5q136 0 242 82t172 211z" />
<glyph unicode="&#x51c;" horiz-adv-x="2129" d="M766 1442h72l225 -537l229 537h72l-258 -602l328 -756l585 1370h78l-629 -1454h-69l-334 774l-334 -774h-69l-627 1454h76l587 -1370l326 756z" />
<glyph unicode="&#x51d;" horiz-adv-x="1638" d="M1520 1065h71l-463 -1065h-61l-248 578l-250 -578h-61l-463 1065h72l424 -981l237 557l-178 422h68l151 -356l152 356h65l-178 -422l240 -557z" />
<glyph unicode="&#x524;" horiz-adv-x="1523" d="M1251 66h168v-342h-65v276h-174v1389h-912v-1389h-71v1454h1054v-1388z" />
<glyph unicode="&#x525;" horiz-adv-x="1177" d="M973 63h143v-305h-63v242h-150v999h-667v-999h-70v1065h807v-1002z" />
<glyph unicode="&#x1e08;" horiz-adv-x="1421" d="M971 1878l-170 -188l-49 26l127 162h92zM1348 326q-63 -140 -203 -228t-301 -106q114 -74 114 -178q0 -79 -54.5 -119.5t-147.5 -40.5q-122 0 -228 53l27 49q106 -49 188 -49q158 0 158 113q0 51 -31.5 89.5t-99.5 78.5q-144 1 -272 66t-215.5 170.5t-138 240 t-50.5 272.5q0 105 29 209t88 197t140 164t192.5 113t238.5 42q187 0 325.5 -86.5t207.5 -230.5l-62 -29q-38 75 -93.5 130.5t-119.5 87t-130 46.5t-136 15q-113 0 -212 -38t-170.5 -102.5t-123 -149.5t-77 -180.5t-25.5 -193.5q0 -176 81 -331.5t223 -250t310 -94.5 q96 0 188.5 30t178.5 98.5t137 166.5z" />
<glyph unicode="&#x1e09;" horiz-adv-x="1107" d="M795 1495l-170 -188l-50 26l127 162h93zM1032 236q-33 -95 -128 -163t-216 -87q105 -75 105 -172q0 -79 -55 -119.5t-148 -40.5q-122 0 -228 53l27 49q106 -49 189 -49q157 0 157 113q0 48 -29 85.5t-90 74.5h-6q-106 0 -202.5 44.5t-166 119.5t-110.5 178t-41 215 q0 151 67 275.5t186 196.5t265 72q138 0 247 -64t163 -177l-68 -25q-51 94 -143.5 147.5t-204.5 53.5q-186 0 -314 -138.5t-128 -340.5q0 -201 131.5 -346.5t312.5 -145.5q119 0 226.5 63t132.5 148z" />
<glyph unicode="&#x1e0c;" horiz-adv-x="1458" d="M197 0v1454h475q135 0 247.5 -37t192.5 -103t136 -157t83 -199t27 -229q0 -331 -186 -530t-500 -199h-475zM672 1389h-404v-1323h404q148 0 265.5 50.5t193 140t115.5 210t40 262.5q0 144 -41 265t-117.5 209t-193.5 137t-262 49zM698 -285v170h66v-170h-66z" />
<glyph unicode="&#x1e0d;" horiz-adv-x="1247" d="M90 528q0 109 37.5 210.5t102 177t156.5 120.5t196 45q135 0 246.5 -73t179.5 -185v672h69v-1389q0 -45 37 -45v-61q-22 -3 -37 2q-29 7 -47 31.5t-18 54.5v129q-66 -106 -178.5 -171.5t-231.5 -65.5q-144 0 -263 79.5t-184 205t-65 263.5zM1008 352v367 q-44 122 -167.5 209.5t-248.5 87.5q-95 0 -177 -42t-136.5 -110.5t-85.5 -156t-31 -179.5q0 -127 59 -238t163 -178t226 -67q81 0 170 41t155 114t73 152zM592 -285v170h65v-170h-65z" />
<glyph unicode="&#x1e0e;" horiz-adv-x="1458" d="M197 0v1454h475q135 0 247.5 -37t192.5 -103t136 -157t83 -199t27 -229q0 -331 -186 -530t-500 -199h-475zM672 1389h-404v-1323h404q148 0 265.5 50.5t193 140t115.5 210t40 262.5q0 144 -41 265t-117.5 209t-193.5 137t-262 49zM442 -215v57h580v-57h-580z" />
<glyph unicode="&#x1e0f;" horiz-adv-x="1247" d="M90 528q0 109 37.5 210.5t102 177t156.5 120.5t196 45q135 0 246.5 -73t179.5 -185v672h69v-1389q0 -45 37 -45v-61q-22 -3 -37 2q-29 7 -47 31.5t-18 54.5v129q-66 -106 -178.5 -171.5t-231.5 -65.5q-144 0 -263 79.5t-184 205t-65 263.5zM1008 352v367 q-44 122 -167.5 209.5t-248.5 87.5q-95 0 -177 -42t-136.5 -110.5t-85.5 -156t-31 -179.5q0 -127 59 -238t163 -178t226 -67q81 0 170 41t155 114t73 152zM336 -215v57h579v-57h-579z" />
<glyph unicode="&#x1e14;" horiz-adv-x="1259" d="M547 2263h90l129 -162l-49 -26zM412 1774v57h579v-57h-579zM1157 66v-66h-960v1454h942v-65h-871v-613h762v-65h-762v-645h889z" />
<glyph unicode="&#x1e15;" horiz-adv-x="1185" d="M446 1880h91l129 -162l-50 -26zM311 1391v57h580v-57h-580zM608 -20q-106 0 -202.5 45t-165.5 120t-109.5 178t-40.5 216q0 110 39.5 210.5t107.5 173t162.5 115.5t200.5 43q108 0 204 -43.5t164.5 -117.5t108.5 -175.5t41 -212.5q0 -22 -2 -32h-954q15 -195 144 -328 t306 -133q117 0 219.5 60t145.5 155l63 -16q-44 -112 -166.5 -185t-265.5 -73zM160 559h889q-13 201 -140 331t-307 130t-306 -131t-136 -330z" />
<glyph unicode="&#x1e16;" horiz-adv-x="1259" d="M723 2073l-49 26l127 162h92zM412 1774v57h579v-57h-579zM1157 66v-66h-960v1454h942v-65h-871v-613h762v-65h-762v-645h889z" />
<glyph unicode="&#x1e17;" horiz-adv-x="1185" d="M623 1690l-50 26l127 162h93zM311 1391v57h580v-57h-580zM608 -20q-106 0 -202.5 45t-165.5 120t-109.5 178t-40.5 216q0 110 39.5 210.5t107.5 173t162.5 115.5t200.5 43q108 0 204 -43.5t164.5 -117.5t108.5 -175.5t41 -212.5q0 -22 -2 -32h-954q15 -195 144 -328 t306 -133q117 0 219.5 60t145.5 155l63 -16q-44 -112 -166.5 -185t-265.5 -73zM160 559h889q-13 201 -140 331t-307 130t-306 -131t-136 -330z" />
<glyph unicode="&#x1e1c;" horiz-adv-x="1259" d="M700 1706q-68 0 -116.5 51t-48.5 121h53q0 -48 34.5 -87.5t77.5 -39.5q41 0 75 37.5t40 89.5h51q0 -70 -50 -121t-116 -51zM1157 66v-66h-401q64 -41 95.5 -84t31.5 -102q0 -79 -55 -119.5t-148 -40.5q-121 0 -227 53l26 49q106 -49 189 -49q157 0 157 113q0 55 -37 95.5 t-116 84.5h-475v1454h942v-65h-871v-613h762v-65h-762v-645h889z" />
<glyph unicode="&#x1e1d;" horiz-adv-x="1185" d="M600 1323q-68 0 -117 51t-49 121h53q0 -47 35 -87t78 -40q41 0 75 37.5t40 89.5h51q0 -70 -50 -121t-116 -51zM1118 532q0 -22 -2 -32h-954q15 -195 144 -328t306 -133q117 0 219.5 60t145.5 155l63 -16q-38 -96 -135.5 -164.5t-218.5 -87.5q105 -75 105 -172 q0 -79 -55 -119.5t-148 -40.5q-122 0 -228 53l27 49q106 -49 188 -49q158 0 158 113q0 48 -29 85.5t-90 74.5h-6q-106 0 -202.5 45t-165.5 120t-109.5 178t-40.5 216q0 110 39.5 210.5t107.5 173t162.5 115.5t200.5 43q108 0 204 -43.5t164.5 -117.5t108.5 -175.5t41 -212.5 zM160 559h889q-13 201 -140 331t-307 130t-306 -131t-136 -330z" />
<glyph unicode="&#x1e20;" horiz-adv-x="1472" d="M1049 1831v-57h-580v57h580zM950 698h402v-698h-66v238q-217 -248 -508 -248q-145 0 -274.5 64.5t-218 169t-140 236.5t-51.5 267q0 143 50.5 277t137 235.5t212 163t266.5 61.5q396 0 555 -317l-62 -31q-147 281 -495 281q-132 0 -245.5 -58t-188 -152.5t-116.5 -214.5 t-42 -245q0 -175 81.5 -329t224 -247.5t310.5 -93.5q277 0 504 265v315h-336v61z" />
<glyph unicode="&#x1e21;" horiz-adv-x="1243" d="M328 1391v57h579v-57h-579zM90 528q0 145 62 271t177 204t257 78q246 0 426 -258v242h65v-1098q0 -104 -39.5 -186t-107.5 -133.5t-154 -78t-184 -26.5q-178 0 -287.5 64.5t-177.5 185.5l53 29q60 -109 169.5 -163t242.5 -54q116 0 208.5 39.5t150 123t57.5 199.5v250 q-67 -105 -179 -170t-231 -65q-142 0 -260.5 79.5t-183 204.5t-64.5 262zM1008 352v367q-49 129 -167 213t-249 84q-98 0 -181 -43.5t-136.5 -113.5t-83 -156t-29.5 -175q0 -127 59 -238t163 -178t226 -67q92 0 182.5 46.5t149 117.5t66.5 143z" />
<glyph unicode="&#x1e24;" horiz-adv-x="1501" d="M1305 1454v-1454h-70v711h-967v-711h-71v1454h71v-678h967v678h70zM719 -285v170h65v-170h-65z" />
<glyph unicode="&#x1e25;" horiz-adv-x="1167" d="M1014 0h-70v594q0 209 -71 315.5t-209 106.5q-141 0 -264 -100.5t-164 -249.5v-666h-70v1495h70v-696q66 129 185.5 205.5t254.5 76.5q168 0 253 -123.5t85 -355.5v-602zM551 -285v170h65v-170h-65z" />
<glyph unicode="&#x1e2a;" horiz-adv-x="1501" d="M1305 1454v-1454h-70v711h-967v-711h-71v1454h71v-678h967v678h70zM866 -92h52q0 -69 -50 -120.5t-116 -51.5q-67 0 -116.5 51.5t-49.5 120.5h53q0 -47 35 -86t78 -39q41 0 74.5 36.5t39.5 88.5z" />
<glyph unicode="&#x1e2b;" horiz-adv-x="1167" d="M1014 0h-70v594q0 209 -71 315.5t-209 106.5q-141 0 -264 -100.5t-164 -249.5v-666h-70v1495h70v-696q66 129 185.5 205.5t254.5 76.5q168 0 253 -123.5t85 -355.5v-602zM698 -92h52q0 -69 -50 -120.5t-116 -51.5q-67 0 -116.5 51.5t-49.5 120.5h53q0 -47 35 -86t78 -39 q41 0 74.5 36.5t39.5 88.5z" />
<glyph unicode="&#x1e2e;" horiz-adv-x="464" d="M254 2101l-49 27l127 162h92zM70 1710v168h63v-168h-63zM328 1710v168h63v-168h-63zM197 0v1454h71v-1454h-71z" />
<glyph unicode="&#x1e2f;" horiz-adv-x="403" d="M223 1718l-49 27l127 162h92zM39 1327v168h63v-168h-63zM297 1327v168h63v-168h-63zM166 0v1065h70v-1065h-70z" />
<glyph unicode="&#x1e36;" horiz-adv-x="1187" d="M197 0v1454h71v-1388h891v-66h-962zM647 -285v170h66v-170h-66z" />
<glyph unicode="&#x1e37;" horiz-adv-x="507" d="M176 1495h72v-1313q0 -64 33 -96.5t90 -32.5q47 0 121 21l16 -58q-76 -26 -156 -26q-79 0 -127.5 48.5t-48.5 129.5v1327zM307 -285v170h66v-170h-66z" />
<glyph unicode="&#x1e3a;" horiz-adv-x="1187" d="M197 0v1454h71v-1388h891v-66h-962zM391 -215v57h580v-57h-580z" />
<glyph unicode="&#x1e3b;" horiz-adv-x="507" d="M176 1495h72v-1313q0 -64 33 -96.5t90 -32.5q47 0 121 21l16 -58q-76 -26 -156 -26q-79 0 -127.5 48.5t-48.5 129.5v1327zM51 -215v57h580v-57h-580z" />
<glyph unicode="&#x1e42;" horiz-adv-x="1806" d="M1538 0v1311l-610 -1030h-49l-611 1030v-1311h-71v1454h65l641 -1081l641 1081h66v-1454h-72zM870 -285v170h66v-170h-66z" />
<glyph unicode="&#x1e43;" horiz-adv-x="1865" d="M1712 0h-70v594q0 215 -66.5 318.5t-203.5 103.5q-140 0 -247.5 -97.5t-151.5 -254.5v-664h-70v594q0 218 -65 320t-203 102t-246 -96t-153 -254v-666h-70v1065h67v-266q68 134 175.5 208t234.5 74q132 0 218.5 -81.5t103.5 -217.5q156 299 421 299q167 0 246.5 -120.5 t79.5 -358.5v-602zM901 -285v170h66v-170h-66z" />
<glyph unicode="&#x1e44;" horiz-adv-x="1587" d="M770 1708v170h66v-170h-66zM268 1321v-1321h-71v1454h57l1065 -1341v1341h72v-1454h-74z" />
<glyph unicode="&#x1e45;" horiz-adv-x="1167" d="M551 1325v170h65v-170h-65zM1014 0h-70v594q0 218 -62.5 320t-197.5 102q-146 0 -276 -100.5t-172 -249.5v-666h-70v1065h67v-266q65 126 193 204t270 78q165 0 241.5 -119t76.5 -360v-602z" />
<glyph unicode="&#x1e46;" horiz-adv-x="1587" d="M268 1321v-1321h-71v1454h57l1065 -1341v1341h72v-1454h-74zM772 -285v170h66v-170h-66z" />
<glyph unicode="&#x1e47;" horiz-adv-x="1167" d="M1014 0h-70v594q0 218 -62.5 320t-197.5 102q-146 0 -276 -100.5t-172 -249.5v-666h-70v1065h67v-266q65 126 193 204t270 78q165 0 241.5 -119t76.5 -360v-602zM547 -285v170h65v-170h-65z" />
<glyph unicode="&#x1e48;" horiz-adv-x="1587" d="M268 1321v-1321h-71v1454h57l1065 -1341v1341h72v-1454h-74zM516 -215v57h580v-57h-580z" />
<glyph unicode="&#x1e49;" horiz-adv-x="1167" d="M1014 0h-70v594q0 218 -62.5 320t-197.5 102q-146 0 -276 -100.5t-172 -249.5v-666h-70v1065h67v-266q65 126 193 204t270 78q165 0 241.5 -119t76.5 -360v-602zM291 -215v57h579v-57h-579z" />
<glyph unicode="&#x1e4c;" horiz-adv-x="1546" d="M797 2120l-49 26l126 162h93zM635 1804q-30 0 -53 -13t-33 -32t-14.5 -32.5t-4.5 -20.5h-53q0 8 3 23t13 38.5t26.5 43.5t47 34.5t70.5 14.5q55 0 131 -40t127 -40q31 0 54.5 9.5t35.5 22.5t19 28.5t8.5 24t1.5 13.5h55q0 -9 -3 -24t-14.5 -38t-29.5 -42.5t-52 -33.5 t-77 -14q-52 0 -99 19.5t-86 39t-73 19.5zM94 727q0 192 88.5 361t246.5 272.5t345 103.5q146 0 275 -64.5t216 -168.5t137 -236t50 -268q0 -145 -52.5 -280t-142 -235.5t-216.5 -161t-267 -60.5q-147 1 -275.5 64t-216 165.5t-138 235.5t-50.5 272zM774 57q132 0 247.5 58 t193 153t121.5 215t44 244q0 129 -46.5 251t-126 214.5t-193.5 148.5t-240 56q-132 0 -248 -58t-193.5 -152.5t-122 -214.5t-44.5 -245q0 -130 46 -251.5t125 -214t193.5 -148.5t243.5 -56z" />
<glyph unicode="&#x1e4d;" horiz-adv-x="1206" d="M625 1737l-50 26l127 162h93zM463 1421q-30 0 -53 -13t-33 -32t-14.5 -32.5t-4.5 -20.5h-53q0 8 3 23t13 38.5t26.5 43.5t47 34.5t70.5 14.5q55 0 131 -40t127 -40q31 0 54.5 9.5t35.5 22.5t19 28.5t8.5 24t1.5 13.5h55q0 -9 -3 -24t-14.5 -38t-29.5 -42.5t-52 -33.5 t-77 -14q-52 0 -99 19.5t-86 39t-73 19.5zM90 528q0 147 68.5 274.5t186.5 203t257 75.5q140 0 258.5 -75.5t187 -203t68.5 -274.5t-67.5 -273t-186.5 -200.5t-260 -74.5t-259.5 74.5t-185.5 200.5t-67 273zM600 45q90 0 172 39t141.5 104.5t95 155t35.5 186.5 q0 130 -59.5 242t-161.5 178t-221 66q-118 0 -220 -66.5t-162 -179.5t-60 -244q0 -198 129.5 -339.5t310.5 -141.5z" />
<glyph unicode="&#x1e4e;" horiz-adv-x="1546" d="M612 2140v168h64v-168h-64zM870 2140v168h64v-168h-64zM635 1804q-30 0 -53 -13t-33 -32t-14.5 -32.5t-4.5 -20.5h-53q0 8 3 23t13 38.5t26.5 43.5t47 34.5t70.5 14.5q55 0 131 -40t127 -40q31 0 54.5 9.5t35.5 22.5t19 28.5t8.5 24t1.5 13.5h55q0 -9 -3 -24t-14.5 -38 t-29.5 -42.5t-52 -33.5t-77 -14q-52 0 -99 19.5t-86 39t-73 19.5zM94 727q0 192 88.5 361t246.5 272.5t345 103.5q146 0 275 -64.5t216 -168.5t137 -236t50 -268q0 -145 -52.5 -280t-142 -235.5t-216.5 -161t-267 -60.5q-147 1 -275.5 64t-216 165.5t-138 235.5t-50.5 272z M774 57q132 0 247.5 58t193 153t121.5 215t44 244q0 129 -46.5 251t-126 214.5t-193.5 148.5t-240 56q-132 0 -248 -58t-193.5 -152.5t-122 -214.5t-44.5 -245q0 -130 46 -251.5t125 -214t193.5 -148.5t243.5 -56z" />
<glyph unicode="&#x1e4f;" horiz-adv-x="1206" d="M440 1757v168h64v-168h-64zM698 1757v168h64v-168h-64zM463 1421q-30 0 -53 -13t-33 -32t-14.5 -32.5t-4.5 -20.5h-53q0 8 3 23t13 38.5t26.5 43.5t47 34.5t70.5 14.5q55 0 131 -40t127 -40q31 0 54.5 9.5t35.5 22.5t19 28.5t8.5 24t1.5 13.5h55q0 -9 -3 -24t-14.5 -38 t-29.5 -42.5t-52 -33.5t-77 -14q-52 0 -99 19.5t-86 39t-73 19.5zM90 528q0 147 68.5 274.5t186.5 203t257 75.5q140 0 258.5 -75.5t187 -203t68.5 -274.5t-67.5 -273t-186.5 -200.5t-260 -74.5t-259.5 74.5t-185.5 200.5t-67 273zM600 45q90 0 172 39t141.5 104.5t95 155 t35.5 186.5q0 130 -59.5 242t-161.5 178t-221 66q-118 0 -220 -66.5t-162 -179.5t-60 -244q0 -198 129.5 -339.5t310.5 -141.5z" />
<glyph unicode="&#x1e50;" horiz-adv-x="1546" d="M621 2263h90l129 -162l-49 -26zM485 1774v57h580v-57h-580zM94 727q0 192 88.5 361t246.5 272.5t345 103.5q146 0 275 -64.5t216 -168.5t137 -236t50 -268q0 -145 -52.5 -280t-142 -235.5t-216.5 -161t-267 -60.5q-147 1 -275.5 64t-216 165.5t-138 235.5t-50.5 272z M774 57q132 0 247.5 58t193 153t121.5 215t44 244q0 129 -46.5 251t-126 214.5t-193.5 148.5t-240 56q-132 0 -248 -58t-193.5 -152.5t-122 -214.5t-44.5 -245q0 -130 46 -251.5t125 -214t193.5 -148.5t243.5 -56z" />
<glyph unicode="&#x1e51;" horiz-adv-x="1206" d="M449 1880h90l129 -162l-50 -26zM313 1391v57h580v-57h-580zM90 528q0 147 68.5 274.5t186.5 203t257 75.5q140 0 258.5 -75.5t187 -203t68.5 -274.5t-67.5 -273t-186.5 -200.5t-260 -74.5t-259.5 74.5t-185.5 200.5t-67 273zM600 45q90 0 172 39t141.5 104.5t95 155 t35.5 186.5q0 130 -59.5 242t-161.5 178t-221 66q-118 0 -220 -66.5t-162 -179.5t-60 -244q0 -198 129.5 -339.5t310.5 -141.5z" />
<glyph unicode="&#x1e52;" horiz-adv-x="1546" d="M797 2073l-49 26l126 162h93zM485 1774v57h580v-57h-580zM94 727q0 192 88.5 361t246.5 272.5t345 103.5q146 0 275 -64.5t216 -168.5t137 -236t50 -268q0 -145 -52.5 -280t-142 -235.5t-216.5 -161t-267 -60.5q-147 1 -275.5 64t-216 165.5t-138 235.5t-50.5 272z M774 57q132 0 247.5 58t193 153t121.5 215t44 244q0 129 -46.5 251t-126 214.5t-193.5 148.5t-240 56q-132 0 -248 -58t-193.5 -152.5t-122 -214.5t-44.5 -245q0 -130 46 -251.5t125 -214t193.5 -148.5t243.5 -56z" />
<glyph unicode="&#x1e53;" horiz-adv-x="1206" d="M625 1690l-50 26l127 162h93zM313 1391v57h580v-57h-580zM90 528q0 147 68.5 274.5t186.5 203t257 75.5q140 0 258.5 -75.5t187 -203t68.5 -274.5t-67.5 -273t-186.5 -200.5t-260 -74.5t-259.5 74.5t-185.5 200.5t-67 273zM600 45q90 0 172 39t141.5 104.5t95 155 t35.5 186.5q0 130 -59.5 242t-161.5 178t-221 66q-118 0 -220 -66.5t-162 -179.5t-60 -244q0 -198 129.5 -339.5t310.5 -141.5z" />
<glyph unicode="&#x1e5a;" horiz-adv-x="1320" d="M197 0v1454h598q88 0 166.5 -38.5t132 -101t85 -142.5t31.5 -162q0 -169 -100 -296.5t-256 -144.5l365 -569h-82l-361 561h-508v-561h-71zM268 627h539q99 0 176.5 56t117.5 142.5t40 184.5t-46 185t-127 140.5t-175 53.5h-525v-762zM621 -285v170h65v-170h-65z" />
<glyph unicode="&#x1e5b;" horiz-adv-x="677" d="M643 999q-147 -6 -255.5 -93.5t-151.5 -235.5v-670h-70v1065h67v-270q55 112 148.5 184t196.5 84q27 2 65 2v-66zM168 -285v170h65v-170h-65z" />
<glyph unicode="&#x1e5e;" horiz-adv-x="1320" d="M197 0v1454h598q88 0 166.5 -38.5t132 -101t85 -142.5t31.5 -162q0 -169 -100 -296.5t-256 -144.5l365 -569h-82l-361 561h-508v-561h-71zM268 627h539q99 0 176.5 56t117.5 142.5t40 184.5t-46 185t-127 140.5t-175 53.5h-525v-762zM365 -215v57h579v-57h-579z" />
<glyph unicode="&#x1e5f;" horiz-adv-x="677" d="M643 999q-147 -6 -255.5 -93.5t-151.5 -235.5v-670h-70v1065h67v-270q55 112 148.5 184t196.5 84q27 2 65 2v-66zM-88 -215v57h580v-57h-580z" />
<glyph unicode="&#x1e60;" horiz-adv-x="1234" d="M608 1749v170h66v-170h-66zM1040 1239q-78 86 -173.5 123t-227.5 37q-224 0 -332 -85t-108 -239q0 -60 17 -103.5t48 -75t88.5 -56t122 -42t166.5 -38.5q88 -18 150 -34.5t125.5 -40t105 -52t75 -66.5t49 -88.5t15.5 -113.5q0 -181 -137.5 -278t-376.5 -97 q-338 0 -571 221l43 53q204 -213 530 -213q208 0 324.5 77t116.5 226q0 77 -27 131t-90 93t-145 65t-212 53q-73 15 -126.5 28t-107.5 30.5t-91 37.5t-70 47t-52.5 59t-30.5 74t-11 93q0 190 138 294.5t372 104.5q140 0 247.5 -41.5t194.5 -130.5z" />
<glyph unicode="&#x1e61;" horiz-adv-x="972" d="M463 1325v170h65v-170h-65zM487 -20q-257 0 -413 172l37 49q85 -82 175.5 -121t198.5 -39q150 0 242 64t92 176q0 31 -8.5 56t-21.5 44t-39.5 36t-50 28.5t-66.5 24.5t-76.5 21.5t-91.5 22.5q-54 14 -87.5 23.5t-73 23t-62 26.5t-46 31.5t-35 41t-19 51.5t-7.5 65 q0 149 108 227t275 78q123 0 216.5 -41.5t135.5 -109.5l-45 -39q-42 61 -127 95t-188 34q-86 0 -153 -23t-110.5 -77t-43.5 -134q0 -40 12 -68.5t29.5 -47.5t58 -36.5t75 -27.5t103.5 -28q51 -12 80.5 -20t71 -19.5t65.5 -21t54.5 -23.5t48 -28t36.5 -33t28 -40t15.5 -47 t6.5 -57q0 -142 -109.5 -225.5t-290.5 -83.5z" />
<glyph unicode="&#x1e62;" horiz-adv-x="1234" d="M1040 1239q-78 86 -173.5 123t-227.5 37q-224 0 -332 -85t-108 -239q0 -60 17 -103.5t48 -75t88.5 -56t122 -42t166.5 -38.5q88 -18 150 -34.5t125.5 -40t105 -52t75 -66.5t49 -88.5t15.5 -113.5q0 -181 -137.5 -278t-376.5 -97q-338 0 -571 221l43 53q204 -213 530 -213 q208 0 324.5 77t116.5 226q0 77 -27 131t-90 93t-145 65t-212 53q-73 15 -126.5 28t-107.5 30.5t-91 37.5t-70 47t-52.5 59t-30.5 74t-11 93q0 190 138 294.5t372 104.5q140 0 247.5 -41.5t194.5 -130.5zM606 -285v170h66v-170h-66z" />
<glyph unicode="&#x1e63;" horiz-adv-x="972" d="M487 -20q-257 0 -413 172l37 49q85 -82 175.5 -121t198.5 -39q150 0 242 64t92 176q0 31 -8.5 56t-21.5 44t-39.5 36t-50 28.5t-66.5 24.5t-76.5 21.5t-91.5 22.5q-54 14 -87.5 23.5t-73 23t-62 26.5t-46 31.5t-35 41t-19 51.5t-7.5 65q0 149 108 227t275 78 q123 0 216.5 -41.5t135.5 -109.5l-45 -39q-42 61 -127 95t-188 34q-86 0 -153 -23t-110.5 -77t-43.5 -134q0 -40 12 -68.5t29.5 -47.5t58 -36.5t75 -27.5t103.5 -28q51 -12 80.5 -20t71 -19.5t65.5 -21t54.5 -23.5t48 -28t36.5 -33t28 -40t15.5 -47t6.5 -57 q0 -142 -109.5 -225.5t-290.5 -83.5zM455 -285v170h65v-170h-65z" />
<glyph unicode="&#x1e64;" horiz-adv-x="1234" d="M692 2179v170h66v-170h-66zM664 1731l-50 26l127 162h93zM1040 1239q-78 86 -173.5 123t-227.5 37q-224 0 -332 -85t-108 -239q0 -60 17 -103.5t48 -75t88.5 -56t122 -42t166.5 -38.5q88 -18 150 -34.5t125.5 -40t105 -52t75 -66.5t49 -88.5t15.5 -113.5 q0 -181 -137.5 -278t-376.5 -97q-338 0 -571 221l43 53q204 -213 530 -213q208 0 324.5 77t116.5 226q0 77 -27 131t-90 93t-145 65t-212 53q-73 15 -126.5 28t-107.5 30.5t-91 37.5t-70 47t-52.5 59t-30.5 74t-11 93q0 190 138 294.5t372 104.5q140 0 247.5 -41.5 t194.5 -130.5z" />
<glyph unicode="&#x1e65;" horiz-adv-x="972" d="M547 1755v170h65v-170h-65zM518 1307l-49 26l127 162h92zM487 -20q-257 0 -413 172l37 49q85 -82 175.5 -121t198.5 -39q150 0 242 64t92 176q0 31 -8.5 56t-21.5 44t-39.5 36t-50 28.5t-66.5 24.5t-76.5 21.5t-91.5 22.5q-54 14 -87.5 23.5t-73 23t-62 26.5t-46 31.5 t-35 41t-19 51.5t-7.5 65q0 149 108 227t275 78q123 0 216.5 -41.5t135.5 -109.5l-45 -39q-42 61 -127 95t-188 34q-86 0 -153 -23t-110.5 -77t-43.5 -134q0 -40 12 -68.5t29.5 -47.5t58 -36.5t75 -27.5t103.5 -28q51 -12 80.5 -20t71 -19.5t65.5 -21t54.5 -23.5t48 -28 t36.5 -33t28 -40t15.5 -47t6.5 -57q0 -142 -109.5 -225.5t-290.5 -83.5z" />
<glyph unicode="&#x1e66;" horiz-adv-x="1234" d="M608 2179v170h66v-170h-66zM467 1919l174 -129l174 129l47 -29l-194 -159h-54l-192 159zM1040 1239q-78 86 -173.5 123t-227.5 37q-224 0 -332 -85t-108 -239q0 -60 17 -103.5t48 -75t88.5 -56t122 -42t166.5 -38.5q88 -18 150 -34.5t125.5 -40t105 -52t75 -66.5 t49 -88.5t15.5 -113.5q0 -181 -137.5 -278t-376.5 -97q-338 0 -571 221l43 53q204 -213 530 -213q208 0 324.5 77t116.5 226q0 77 -27 131t-90 93t-145 65t-212 53q-73 15 -126.5 28t-107.5 30.5t-91 37.5t-70 47t-52.5 59t-30.5 74t-11 93q0 190 138 294.5t372 104.5 q140 0 247.5 -41.5t194.5 -130.5z" />
<glyph unicode="&#x1e67;" horiz-adv-x="972" d="M463 1755v170h65v-170h-65zM322 1495l174 -129l174 129l47 -29l-195 -159h-53l-193 159zM487 -20q-257 0 -413 172l37 49q85 -82 175.5 -121t198.5 -39q150 0 242 64t92 176q0 31 -8.5 56t-21.5 44t-39.5 36t-50 28.5t-66.5 24.5t-76.5 21.5t-91.5 22.5 q-54 14 -87.5 23.5t-73 23t-62 26.5t-46 31.5t-35 41t-19 51.5t-7.5 65q0 149 108 227t275 78q123 0 216.5 -41.5t135.5 -109.5l-45 -39q-42 61 -127 95t-188 34q-86 0 -153 -23t-110.5 -77t-43.5 -134q0 -40 12 -68.5t29.5 -47.5t58 -36.5t75 -27.5t103.5 -28 q51 -12 80.5 -20t71 -19.5t65.5 -21t54.5 -23.5t48 -28t36.5 -33t28 -40t15.5 -47t6.5 -57q0 -142 -109.5 -225.5t-290.5 -83.5z" />
<glyph unicode="&#x1e68;" horiz-adv-x="1234" d="M608 1749v170h66v-170h-66zM1040 1239q-78 86 -173.5 123t-227.5 37q-224 0 -332 -85t-108 -239q0 -60 17 -103.5t48 -75t88.5 -56t122 -42t166.5 -38.5q88 -18 150 -34.5t125.5 -40t105 -52t75 -66.5t49 -88.5t15.5 -113.5q0 -181 -137.5 -278t-376.5 -97 q-338 0 -571 221l43 53q204 -213 530 -213q208 0 324.5 77t116.5 226q0 77 -27 131t-90 93t-145 65t-212 53q-73 15 -126.5 28t-107.5 30.5t-91 37.5t-70 47t-52.5 59t-30.5 74t-11 93q0 190 138 294.5t372 104.5q140 0 247.5 -41.5t194.5 -130.5zM606 -285v170h66v-170h-66 z" />
<glyph unicode="&#x1e69;" horiz-adv-x="972" d="M463 1325v170h65v-170h-65zM487 -20q-257 0 -413 172l37 49q85 -82 175.5 -121t198.5 -39q150 0 242 64t92 176q0 31 -8.5 56t-21.5 44t-39.5 36t-50 28.5t-66.5 24.5t-76.5 21.5t-91.5 22.5q-54 14 -87.5 23.5t-73 23t-62 26.5t-46 31.5t-35 41t-19 51.5t-7.5 65 q0 149 108 227t275 78q123 0 216.5 -41.5t135.5 -109.5l-45 -39q-42 61 -127 95t-188 34q-86 0 -153 -23t-110.5 -77t-43.5 -134q0 -40 12 -68.5t29.5 -47.5t58 -36.5t75 -27.5t103.5 -28q51 -12 80.5 -20t71 -19.5t65.5 -21t54.5 -23.5t48 -28t36.5 -33t28 -40t15.5 -47 t6.5 -57q0 -142 -109.5 -225.5t-290.5 -83.5zM455 -285v170h65v-170h-65z" />
<glyph unicode="&#x1e6c;" horiz-adv-x="1234" d="M1198 1389h-545v-1389h-71v1389h-545v65h1161v-65zM586 -285v170h65v-170h-65z" />
<glyph unicode="&#x1e6d;" horiz-adv-x="628" d="M608 49q-1 0 -14 -7.5t-31 -15.5t-42.5 -16.5t-56 -14t-63.5 -5.5q-83 0 -139.5 47.5t-56.5 128.5v838h-152v61h152v367h69v-367h252v-61h-252v-828q4 -57 44 -89t96 -32q40 0 80.5 12t61.5 23t26 16zM367 -285v170h65v-170h-65z" />
<glyph unicode="&#x1e6e;" horiz-adv-x="1234" d="M1198 1389h-545v-1389h-71v1389h-545v65h1161v-65zM330 -215v57h579v-57h-579z" />
<glyph unicode="&#x1e6f;" horiz-adv-x="628" d="M608 49q-1 0 -14 -7.5t-31 -15.5t-42.5 -16.5t-56 -14t-63.5 -5.5q-83 0 -139.5 47.5t-56.5 128.5v838h-152v61h152v367h69v-367h252v-61h-252v-828q4 -57 44 -89t96 -32q40 0 80.5 12t61.5 23t26 16zM111 -215v57h579v-57h-579z" />
<glyph unicode="&#x1e78;" horiz-adv-x="1548" d="M799 2120l-49 26l127 162h92zM637 1804q-30 0 -53 -13t-33 -32t-14.5 -32.5t-4.5 -20.5h-53q0 8 3 23t13 38.5t26.5 43.5t47 34.5t70.5 14.5q55 0 131 -40t127 -40q31 0 54.5 9.5t35.5 22.5t19 28.5t8.5 24t1.5 13.5h55q0 -9 -3 -24t-14.5 -38t-29.5 -42.5t-52 -33.5 t-77 -14q-52 0 -99 19.5t-86 39t-73 19.5zM776 -10q-96 0 -178 21.5t-143 59.5t-109.5 92.5t-80 118t-52.5 137.5t-30 149.5t-9 156.5v729h72v-729q0 -88 11 -166.5t34.5 -155.5t65 -138.5t98 -108.5t138 -73t181.5 -26q121 0 215 38.5t152.5 101.5t96.5 151.5t52.5 180.5 t14.5 196v729h69v-729q0 -120 -19 -225t-63.5 -200.5t-112 -163t-170.5 -107t-233 -39.5z" />
<glyph unicode="&#x1e79;" horiz-adv-x="1189" d="M604 1737l-49 26l127 162h92zM442 1421q-30 0 -52.5 -13t-32.5 -32t-14.5 -32.5t-4.5 -20.5h-53q0 8 2.5 23t13 39t26.5 43.5t46.5 34t70.5 14.5q55 0 131 -40t127 -40q31 0 54.5 9.5t35.5 22.5t19 28.5t8.5 24t1.5 13.5h56q0 -9 -3.5 -24t-15 -38t-29.5 -42.5t-52 -33.5 t-77 -14q-52 0 -99 19.5t-86 39t-73 19.5zM156 459v606h69v-598q0 -214 70 -318t215 -104t269 96t171 248v676h70v-959q0 -45 37 -45v-61q-27 -3 -39 2q-26 6 -44 30t-18 54l-2 176q-69 -130 -192 -206t-266 -76q-167 0 -253.5 121.5t-86.5 357.5z" />
<glyph unicode="&#x1e7a;" horiz-adv-x="1548" d="M614 2093v168h64v-168h-64zM872 2093v168h64v-168h-64zM487 1774v57h580v-57h-580zM776 -10q-96 0 -178 21.5t-143 59.5t-109.5 92.5t-80 118t-52.5 137.5t-30 149.5t-9 156.5v729h72v-729q0 -88 11 -166.5t34.5 -155.5t65 -138.5t98 -108.5t138 -73t181.5 -26 q121 0 215 38.5t152.5 101.5t96.5 151.5t52.5 180.5t14.5 196v729h69v-729q0 -120 -19 -225t-63.5 -200.5t-112 -163t-170.5 -107t-233 -39.5z" />
<glyph unicode="&#x1e7b;" horiz-adv-x="1189" d="M420 1710v168h63v-168h-63zM678 1710v168h63v-168h-63zM293 1391v57h579v-57h-579zM156 459v606h69v-598q0 -214 70 -318t215 -104t269 96t171 248v676h70v-959q0 -45 37 -45v-61q-27 -3 -39 2q-26 6 -44 30t-18 54l-2 176q-69 -130 -192 -206t-266 -76 q-167 0 -253.5 121.5t-86.5 357.5z" />
<glyph unicode="&#x1e80;" horiz-adv-x="2129" d="M909 1880h90l129 -162l-49 -26zM766 1442h72l225 -537l229 537h72l-258 -602l328 -756l585 1370h78l-629 -1454h-69l-334 774l-334 -774h-69l-627 1454h76l587 -1370l326 756z" />
<glyph unicode="&#x1e81;" horiz-adv-x="1638" d="M666 1497h90l129 -162l-49 -26zM1520 1065h71l-463 -1065h-61l-248 578l-250 -578h-61l-463 1065h72l424 -981l237 557l-178 422h68l151 -356l152 356h65l-178 -422l240 -557z" />
<glyph unicode="&#x1e82;" horiz-adv-x="2129" d="M1085 1690l-49 26l127 162h92zM766 1442h72l225 -537l229 537h72l-258 -602l328 -756l585 1370h78l-629 -1454h-69l-334 774l-334 -774h-69l-627 1454h76l587 -1370l326 756z" />
<glyph unicode="&#x1e83;" horiz-adv-x="1638" d="M842 1307l-49 26l127 162h92zM1520 1065h71l-463 -1065h-61l-248 578l-250 -578h-61l-463 1065h72l424 -981l237 557l-178 422h68l151 -356l152 356h65l-178 -422l240 -557z" />
<glyph unicode="&#x1e84;" horiz-adv-x="2129" d="M901 1710v168h64v-168h-64zM1159 1710v168h64v-168h-64zM766 1442h72l225 -537l229 537h72l-258 -602l328 -756l585 1370h78l-629 -1454h-69l-334 774l-334 -774h-69l-627 1454h76l587 -1370l326 756z" />
<glyph unicode="&#x1e85;" horiz-adv-x="1638" d="M657 1327v168h64v-168h-64zM915 1327v168h64v-168h-64zM1520 1065h71l-463 -1065h-61l-248 578l-250 -578h-61l-463 1065h72l424 -981l237 557l-178 422h68l151 -356l152 356h65l-178 -422l240 -557z" />
<glyph unicode="&#x1e8e;" horiz-adv-x="1318" d="M625 1708v170h65v-170h-65zM123 1454l534 -825l539 825h80l-582 -897v-557h-71v561l-580 893h80z" />
<glyph unicode="&#x1e8f;" horiz-adv-x="1101" d="M528 1325v170h66v-170h-66zM248 -389q79 -3 96 14q18 10 49 74.5t131 300.5l-485 1065h76l446 -987l420 987h72l-609 -1425q-33 -81 -112 -89q-38 -9 -84 -6v66z" />
<glyph unicode="&#x1e92;" horiz-adv-x="1280" d="M59 61l1076 1328h-1063v65h1147v-61l-1072 -1327h1065v-66h-1153v61zM608 -285v170h66v-170h-66z" />
<glyph unicode="&#x1e93;" horiz-adv-x="1001" d="M66 57l784 949h-772v59h854v-57l-780 -949h774v-59h-860v57zM469 -285v170h66v-170h-66z" />
<glyph unicode="&#x1e97;" horiz-adv-x="628" d="M84 1716v168h63v-168h-63zM342 1716v168h64v-168h-64zM608 49q-1 0 -14 -7.5t-31 -15.5t-42.5 -16.5t-56 -14t-63.5 -5.5q-83 0 -139.5 47.5t-56.5 128.5v838h-152v61h152v367h69v-367h252v-61h-252v-828q4 -57 44 -89t96 -32q40 0 80.5 12t61.5 23t26 16z" />
<glyph unicode="&#x1e9e;" horiz-adv-x="1234" d="M743 578q58 -14 91 -22.5t78.5 -22t71 -25t57 -28t48.5 -34.5t33 -41.5t22.5 -52.5t6.5 -63q0 -142 -109.5 -225.5t-291.5 -83.5q-258 0 -414 172l39 49q163 -160 375 -160q149 0 240 64t91 176q0 22 -3 40.5t-12.5 34.5t-17.5 28.5t-26.5 25t-31 21t-40.5 19t-45 16.5 t-54 16t-58 15.5t-66 16.5q-76 19 -120 32.5t-89.5 34.5t-68.5 46t-37.5 61.5t-14.5 85.5q0 56 18 102t46 78.5t77 59t95 43t117 31t126.5 22.5t139.5 18q-17 125 -114.5 197t-239.5 72q-192 0 -309 -129.5t-117 -337.5v-930h-70v936q0 235 140.5 380.5t361.5 145.5 q175 0 284.5 -94.5t130.5 -251.5l4 -37q-70 -8 -115 -14t-105 -15t-98.5 -18t-85 -22.5t-75.5 -28.5t-59 -35.5t-46.5 -44.5t-27 -54.5t-10.5 -66.5q0 -32 7 -56.5t25.5 -43.5t37.5 -32t56 -26.5t67.5 -22t84.5 -21.5z" />
<glyph unicode="&#x1ea0;" horiz-adv-x="1382" d="M659 1454h62l625 -1454h-76l-215 502h-729l-215 -502h-78zM1032 563l-342 801l-344 -801h686zM678 -285v170h65v-170h-65z" />
<glyph unicode="&#x1ea1;" horiz-adv-x="1085" d="M76 305q0 138 123.5 224.5t318.5 86.5q184 0 344 -57v113q0 157 -92 251.5t-244 94.5q-159 0 -342 -129l-34 51q205 141 380 141q185 0 293.5 -111.5t108.5 -301.5v-562q0 -45 37 -45v-61q-29 -3 -39 2q-28 6 -45 29.5t-19 54.5v92q-73 -94 -189.5 -146t-250.5 -52 q-149 0 -249.5 94t-100.5 231zM825 213q37 46 37 90v195q-158 61 -340 61q-170 0 -274.5 -68.5t-104.5 -181.5q0 -112 83.5 -191t207.5 -79q125 0 231.5 48t159.5 126zM530 -285v170h66v-170h-66z" />
<glyph unicode="&#x1ea2;" horiz-adv-x="1382" d="M594 1786l-35 35q36 33 67 48t70 15q56 0 89.5 -33t33.5 -88q0 -36 -20 -65.5t-68 -79.5l-31 31q68 71 68 112q0 33 -19.5 53.5t-58.5 20.5q-26 0 -45.5 -10.5t-50.5 -38.5zM659 1454h62l625 -1454h-76l-215 502h-729l-215 -502h-78zM1032 563l-342 801l-344 -801h686z " />
<glyph unicode="&#x1ea3;" horiz-adv-x="1085" d="M434 1403l-35 35q69 63 138 63q56 0 89 -33t33 -88q0 -36 -20 -65.5t-68 -79.5l-30 31q67 70 67 112q0 33 -19.5 53.5t-58.5 20.5q-26 0 -45.5 -10.5t-50.5 -38.5zM76 305q0 138 123.5 224.5t318.5 86.5q184 0 344 -57v113q0 157 -92 251.5t-244 94.5q-159 0 -342 -129 l-34 51q205 141 380 141q185 0 293.5 -111.5t108.5 -301.5v-562q0 -45 37 -45v-61q-29 -3 -39 2q-28 6 -45 29.5t-19 54.5v92q-73 -94 -189.5 -146t-250.5 -52q-149 0 -249.5 94t-100.5 231zM825 213q37 46 37 90v195q-158 61 -340 61q-170 0 -274.5 -68.5t-104.5 -181.5 q0 -112 83.5 -191t207.5 -79q125 0 231.5 48t159.5 126z" />
<glyph unicode="&#x1ea4;" horiz-adv-x="1382" d="M903 1716l-49 27l127 162h92zM461 1634l192 158h54l194 -158l-47 -30l-174 129l-174 -129zM659 1454h62l625 -1454h-76l-215 502h-729l-215 -502h-78zM1032 563l-342 801l-344 -801h686z" />
<glyph unicode="&#x1ea5;" horiz-adv-x="1085" d="M743 1333l-49 27l127 162h92zM301 1251l193 158h53l194 -158l-47 -30l-174 129l-174 -129zM76 305q0 138 123.5 224.5t318.5 86.5q184 0 344 -57v113q0 157 -92 251.5t-244 94.5q-159 0 -342 -129l-34 51q205 141 380 141q185 0 293.5 -111.5t108.5 -301.5v-562 q0 -45 37 -45v-61q-29 -3 -39 2q-28 6 -45 29.5t-19 54.5v92q-73 -94 -189.5 -146t-250.5 -52q-149 0 -249.5 94t-100.5 231zM825 213q37 46 37 90v195q-158 61 -340 61q-170 0 -274.5 -68.5t-104.5 -181.5q0 -112 83.5 -191t207.5 -79q125 0 231.5 48t159.5 126z" />
<glyph unicode="&#x1ea6;" horiz-adv-x="1382" d="M295 1923h90l129 -162l-49 -26zM467 1634l192 158h54l194 -158l-47 -30l-174 129l-174 -129zM659 1454h62l625 -1454h-76l-215 502h-729l-215 -502h-78zM1032 563l-342 801l-344 -801h686z" />
<glyph unicode="&#x1ea7;" horiz-adv-x="1085" d="M135 1540h90l129 -162l-49 -26zM307 1251l193 158h53l195 -158l-48 -30l-174 129l-174 -129zM76 305q0 138 123.5 224.5t318.5 86.5q184 0 344 -57v113q0 157 -92 251.5t-244 94.5q-159 0 -342 -129l-34 51q205 141 380 141q185 0 293.5 -111.5t108.5 -301.5v-562 q0 -45 37 -45v-61q-29 -3 -39 2q-28 6 -45 29.5t-19 54.5v92q-73 -94 -189.5 -146t-250.5 -52q-149 0 -249.5 94t-100.5 231zM825 213q37 46 37 90v195q-158 61 -340 61q-170 0 -274.5 -68.5t-104.5 -181.5q0 -112 83.5 -191t207.5 -79q125 0 231.5 48t159.5 126z" />
<glyph unicode="&#x1ea8;" horiz-adv-x="1382" d="M760 1898l-35 35q36 33 67 48.5t70 15.5q56 0 89.5 -33t33.5 -88q0 -36 -20 -65.5t-68 -79.5l-31 30q68 71 68 113q0 33 -19.5 53.5t-58.5 20.5q-26 0 -45 -10.5t-51 -39.5zM459 1634l192 158h54l194 -158l-47 -30l-174 129l-174 -129zM659 1454h62l625 -1454h-76 l-215 502h-729l-215 -502h-78zM1032 563l-342 801l-344 -801h686z" />
<glyph unicode="&#x1ea9;" horiz-adv-x="1085" d="M600 1516l-35 34q36 33 67 48.5t70 15.5q56 0 89.5 -33t33.5 -88q0 -36 -20 -65.5t-68 -79.5l-30 30q67 70 67 113q0 33 -19.5 53.5t-58.5 20.5q-26 0 -45.5 -10.5t-50.5 -38.5zM299 1251l193 158h53l194 -158l-47 -30l-174 129l-174 -129zM76 305q0 138 123.5 224.5 t318.5 86.5q184 0 344 -57v113q0 157 -92 251.5t-244 94.5q-159 0 -342 -129l-34 51q205 141 380 141q185 0 293.5 -111.5t108.5 -301.5v-562q0 -45 37 -45v-61q-29 -3 -39 2q-28 6 -45 29.5t-19 54.5v92q-73 -94 -189.5 -146t-250.5 -52q-149 0 -249.5 94t-100.5 231z M825 213q37 46 37 90v195q-158 61 -340 61q-170 0 -274.5 -68.5t-104.5 -181.5q0 -112 83.5 -191t207.5 -79q125 0 231.5 48t159.5 126z" />
<glyph unicode="&#x1eaa;" horiz-adv-x="1382" d="M561 1919q-30 0 -52.5 -13t-32.5 -32t-14.5 -32.5t-4.5 -20.5h-54q0 8 3 23t13 38.5t26.5 43t47 34t70.5 14.5q55 0 131 -40t127 -40q31 0 54.5 10t35.5 22.5t19 28.5t8.5 24.5t1.5 13.5h55q0 -9 -3 -24t-14.5 -38t-29.5 -42.5t-52 -33.5t-77 -14q-52 0 -99 19.5t-86 39 t-73 19.5zM459 1634l192 158h54l194 -158l-47 -30l-174 129l-174 -129zM659 1454h62l625 -1454h-76l-215 502h-729l-215 -502h-78zM1032 563l-342 801l-344 -801h686z" />
<glyph unicode="&#x1eab;" horiz-adv-x="1085" d="M401 1536q-30 0 -52.5 -13t-32.5 -32t-14.5 -32.5t-4.5 -20.5h-53q0 8 2.5 23t13 38.5t26.5 43t46.5 34t70.5 14.5q55 0 131.5 -40t127.5 -40q31 0 54.5 10t35 22.5t18.5 28.5t8.5 24.5t1.5 13.5h56q0 -9 -3.5 -24t-15 -38t-29.5 -42.5t-52 -33.5t-77 -14q-52 0 -99 19.5 t-86 39t-73 19.5zM299 1251l193 158h53l194 -158l-47 -30l-174 129l-174 -129zM76 305q0 138 123.5 224.5t318.5 86.5q184 0 344 -57v113q0 157 -92 251.5t-244 94.5q-159 0 -342 -129l-34 51q205 141 380 141q185 0 293.5 -111.5t108.5 -301.5v-562q0 -45 37 -45v-61 q-29 -3 -39 2q-28 6 -45 29.5t-19 54.5v92q-73 -94 -189.5 -146t-250.5 -52q-149 0 -249.5 94t-100.5 231zM825 213q37 46 37 90v195q-158 61 -340 61q-170 0 -274.5 -68.5t-104.5 -181.5q0 -112 83.5 -191t207.5 -79q125 0 231.5 48t159.5 126z" />
<glyph unicode="&#x1eac;" horiz-adv-x="1382" d="M471 1720l193 158h53l194 -158l-47 -30l-174 129l-174 -129zM659 1454h62l625 -1454h-76l-215 502h-729l-215 -502h-78zM1032 563l-342 801l-344 -801h686zM678 -285v170h65v-170h-65z" />
<glyph unicode="&#x1ead;" horiz-adv-x="1085" d="M311 1337l193 158h53l195 -158l-47 -30l-175 129l-174 -129zM76 305q0 138 123.5 224.5t318.5 86.5q184 0 344 -57v113q0 157 -92 251.5t-244 94.5q-159 0 -342 -129l-34 51q205 141 380 141q185 0 293.5 -111.5t108.5 -301.5v-562q0 -45 37 -45v-61q-29 -3 -39 2 q-28 6 -45 29.5t-19 54.5v92q-73 -94 -189.5 -146t-250.5 -52q-149 0 -249.5 94t-100.5 231zM825 213q37 46 37 90v195q-158 61 -340 61q-170 0 -274.5 -68.5t-104.5 -181.5q0 -112 83.5 -191t207.5 -79q125 0 231.5 48t159.5 126zM530 -285v170h66v-170h-66z" />
<glyph unicode="&#x1eae;" horiz-adv-x="1382" d="M692 1782l-49 26l127 162h92zM788 1776h52q0 -70 -50 -121t-116 -51q-68 0 -117 51t-49 121h53q0 -47 35 -87t78 -40q41 0 74.5 37t39.5 90zM659 1454h62l625 -1454h-76l-215 502h-729l-215 -502h-78zM1032 563l-342 801l-344 -801h686z" />
<glyph unicode="&#x1eaf;" horiz-adv-x="1085" d="M532 1399l-49 26l127 162h92zM629 1393h51q0 -70 -50 -121t-116 -51q-68 0 -117 51t-49 121h53q0 -47 35 -87t78 -40q41 0 75 37.5t40 89.5zM76 305q0 138 123.5 224.5t318.5 86.5q184 0 344 -57v113q0 157 -92 251.5t-244 94.5q-159 0 -342 -129l-34 51q205 141 380 141 q185 0 293.5 -111.5t108.5 -301.5v-562q0 -45 37 -45v-61q-29 -3 -39 2q-28 6 -45 29.5t-19 54.5v92q-73 -94 -189.5 -146t-250.5 -52q-149 0 -249.5 94t-100.5 231zM825 213q37 46 37 90v195q-158 61 -340 61q-170 0 -274.5 -68.5t-104.5 -181.5q0 -112 83.5 -191 t207.5 -79q125 0 231.5 48t159.5 126z" />
<glyph unicode="&#x1eb0;" horiz-adv-x="1382" d="M512 1980h90l129 -161l-49 -27zM801 1774h51q0 -70 -50 -121t-116 -51q-68 0 -117 51t-49 121h53q0 -47 35 -87t78 -40q41 0 75 37.5t40 89.5zM659 1454h62l625 -1454h-76l-215 502h-729l-215 -502h-78zM1032 563l-342 801l-344 -801h686z" />
</font>
</defs>
</svg>
