<?xml version="1.0" standalone="no"?>
<!DOCTYPE svg PUBLIC "-//W3C//DTD SVG 1.1//EN" "http://www.w3.org/Graphics/SVG/1.1/DTD/svg11.dtd" >
<svg xmlns="http://www.w3.org/2000/svg" xmlns:xlink="http://www.w3.org/1999/xlink" version="1.1">
<metadata></metadata>
<defs>
<font id="rawlinelight" horiz-adv-x="1253" >
<font-face units-per-em="2048" ascent="1638" descent="-410" />
<missing-glyph horiz-adv-x="526" />
<glyph unicode="fi" horiz-adv-x="991" d="M207 981h-150v84h150v35q0 74 20.5 145t62 133t113.5 100t164 38q98 0 175 -29t110 -57l-51 -72q-31 28 -93.5 46.5t-136.5 18.5q-67 0 -119 -28.5t-82 -76t-45.5 -102.5t-15.5 -114v-37h522v-1065h-102v981h-420v-981h-102v981z" />
<glyph unicode="fl" horiz-adv-x="1150" d="M979 -12q-88 0 -138 53t-50 139v1022q0 42 -13 79.5t-39.5 70t-73.5 52t-110 19.5q-83 0 -140 -47.5t-81 -118t-25 -159.5v-33h238v-84h-238v-981h-102v981h-150v84h150v41q0 89 20.5 162.5t62 129.5t109.5 87t156 31q161 0 249.5 -82.5t88.5 -214.5v-1008 q0 -129 104 -129q77 0 136 22l22 -88q-25 -9 -77 -18.5t-99 -9.5z" />
<glyph unicode="&#xd;" horiz-adv-x="0" />
<glyph unicode=" "  horiz-adv-x="526" />
<glyph unicode="&#x09;" horiz-adv-x="526" />
<glyph unicode="&#xa0;" horiz-adv-x="526" />
<glyph unicode="!" horiz-adv-x="497" d="M197 446v1022h104v-1022h-104zM197 0v209h104v-209h-104z" />
<glyph unicode="&#x22;" horiz-adv-x="540" d="M143 1106v356h93v-356h-93zM305 1106v356h90v-356h-90z" />
<glyph unicode="#" horiz-adv-x="1370" d="M1292 954h-256l-104 -436h274v-84h-295l-106 -434h-90l108 434h-426l-106 -434h-90l108 434h-231v84h250l106 436h-272v80h293l100 420h90l-102 -420h426l100 420h90l-102 -420h235v-80zM844 518l104 436h-426l-106 -436h428z" />
<glyph unicode="$" horiz-adv-x="1263" d="M1182 373q0 -184 -137 -283t-371 -102v-191h-74v193q-302 18 -514 215l55 84q86 -89 204.5 -143.5t260.5 -63.5v604q-99 22 -166 41.5t-129 49.5t-97.5 67t-56 90t-20.5 123q0 182 125.5 288t337.5 117v207h74v-205q257 -6 430 -170l-53 -82q-137 152 -381 158v-596 q104 -23 174.5 -43.5t139.5 -52.5t109 -72t64.5 -98.5t24.5 -134.5zM244 1071q0 -64 20 -108.5t67.5 -77t110.5 -54t164 -43.5v580q-183 -7 -272.5 -85t-89.5 -212zM670 80q191 2 296 72.5t105 207.5q0 129 -93.5 196.5t-307.5 115.5v-592z" />
<glyph unicode="%" horiz-adv-x="1429" d="M88 1184q0 121 87 206t210 85q124 0 210.5 -84.5t86.5 -206.5q0 -120 -86.5 -204.5t-210.5 -84.5q-123 0 -210 84.5t-87 204.5zM121 43l571 705l561 712l58 -47l-572 -706l-563 -713zM602 1184q0 93 -65 159t-152 66q-90 0 -152.5 -67t-62.5 -158q0 -92 63.5 -157.5 t151.5 -65.5q90 0 153.5 67t63.5 156zM748 270q0 120 86.5 204.5t209.5 84.5q124 0 210.5 -84.5t86.5 -204.5q0 -122 -86.5 -206t-210.5 -84q-123 0 -209.5 84.5t-86.5 205.5zM1262 270q0 91 -65.5 157.5t-152.5 66.5q-89 0 -152 -67.5t-63 -156.5q0 -94 63 -159.5 t152 -65.5q90 0 154 67t64 158z" />
<glyph unicode="&#x26;" horiz-adv-x="1341" d="M1327 0h-137l-184 195q-86 -101 -201 -158t-248 -57q-122 0 -225.5 45.5t-167.5 135t-64 204.5q0 72 24.5 135t74 117.5t100 96t125.5 91.5q-118 125 -164.5 203.5t-46.5 152.5q0 129 102.5 220.5t253.5 91.5q139 0 232.5 -79.5t93.5 -199.5q0 -48 -19 -94.5t-46 -82.5 t-75.5 -78.5t-88 -71.5t-103.5 -72l438 -455q95 171 95 373h90q0 -242 -123 -439zM567 1389q-109 0 -183.5 -66.5t-74.5 -159.5q0 -54 39 -118.5t154 -186.5q79 52 124.5 86t90.5 76.5t64.5 83.5t19.5 86q0 86 -66.5 142.5t-167.5 56.5zM569 63q222 0 377 193l-463 485 q-136 -91 -209 -180t-73 -201q0 -94 56.5 -163.5t138 -101.5t173.5 -32z" />
<glyph unicode="'" horiz-adv-x="378" d="M143 1104v358h93v-358h-93z" />
<glyph unicode="(" horiz-adv-x="524" d="M375 1503l80 -41q-102 -151 -183.5 -367t-81.5 -395q0 -158 70 -349t195 -374l-78 -45q-283 416 -283 775q0 192 73 380t208 416z" />
<glyph unicode=")" horiz-adv-x="522" d="M147 -68l-77 45q123 184 192.5 374.5t69.5 348.5q0 179 -81 395.5t-183 366.5l79 41q135 -225 208 -414.5t73 -381.5q0 -362 -281 -775z" />
<glyph unicode="*" horiz-adv-x="643" d="M184 1133l86 122l-139 45l19 60l139 -49l-2 147h69l-4 -147l142 49l18 -60l-139 -45l88 -122l-53 -37l-86 125l-86 -125z" />
<glyph unicode="+" horiz-adv-x="847" d="M737 770v-86h-266v-289h-94v289h-268v86h268v289h94v-289h266z" />
<glyph unicode="," horiz-adv-x="487" d="M199 -166l30 162h-36v178h104v-178l-43 -162h-55z" />
<glyph unicode="-" horiz-adv-x="864" d="M137 510v94h590v-94h-590z" />
<glyph unicode="." horiz-adv-x="362" d="M137 0v174h90v-174h-90z" />
<glyph unicode="/" horiz-adv-x="1185" d="M1128 1454l-956 -1454h-117l955 1454h118z" />
<glyph unicode="0" horiz-adv-x="1388" d="M102 717q0 105 26 210.5t77.5 200t121.5 167.5t165 116t202 43q113 0 211 -46t166.5 -122t118 -172.5t73 -198t23.5 -198.5q0 -106 -26 -211.5t-77.5 -199t-122 -166t-165.5 -115.5t-201 -45q-113 3 -211 49t-166.5 120.5t-118 169.5t-73 196.5t-23.5 201.5zM694 76 q117 0 213 61.5t154 158t89.5 206t31.5 215.5q0 114 -34 227t-95 205.5t-155 150.5t-204 58q-95 0 -176.5 -41t-137 -107t-96 -150.5t-59 -172t-18.5 -170.5q3 -91 24 -181.5t62 -173.5t97 -146.5t134.5 -101.5t169.5 -38z" />
<glyph unicode="1" horiz-adv-x="806" d="M768 94v-94h-637v94h275v1258q-38 -54 -141.5 -115t-180.5 -61v96q40 0 87.5 20t86.5 48.5t73.5 58.5t53.5 50t21 24h102v-1379h260z" />
<glyph unicode="2" horiz-adv-x="1175" d="M100 0q-4 129 20.5 233t77 180t119 130t156.5 98q38 18 106 47.5t110.5 49t97 53t86 67.5t53.5 86t22 115q0 133 -88.5 225t-253.5 92q-65 0 -125 -15.5t-104 -38.5t-83 -54.5t-63.5 -58t-44.5 -54.5l-69 64q9 15 28 38t64.5 63.5t99 72.5t136 56t171.5 24 q108 0 194.5 -34t140 -92.5t82 -132t28.5 -155.5q0 -54 -13 -101.5t-32 -82.5t-53.5 -69t-62 -55.5t-74.5 -46.5t-75.5 -38t-79 -34.5t-71.5 -31.5q-103 -44 -177 -97.5t-113.5 -101t-62.5 -106.5t-29 -102t-7 -99h852v-94h-963z" />
<glyph unicode="3" horiz-adv-x="1196" d="M592 -18q-200 0 -336.5 98.5t-153.5 255.5l70 47q8 -124 127 -214.5t293 -90.5q168 0 279.5 86t111.5 219q0 144 -130 227.5t-349 83.5h-72v92h72q211 0 325.5 71.5t114.5 207.5q0 138 -106.5 225.5t-264.5 87.5q-134 0 -235.5 -60t-142.5 -157l-76 66q54 113 178 179.5 t276 66.5q205 0 341.5 -116t136.5 -288q0 -125 -73.5 -208t-215.5 -118q148 -29 238 -131t90 -239q0 -171 -145 -281t-353 -110z" />
<glyph unicode="4" horiz-adv-x="1150" d="M795 0v406h-744v90l774 958h72v-954h180v-94h-180v-406h-102zM168 500h635v790z" />
<glyph unicode="5" horiz-adv-x="1134" d="M551 -20q-153 0 -277 77.5t-188 208.5l76 43q56 -107 161 -171t228 -64q166 0 278.5 108t112.5 275q0 161 -109.5 265.5t-269.5 104.5q-104 0 -196 -47t-150 -131h-100l162 805h696v-96h-619l-112 -576q60 66 145.5 102t183.5 36q199 0 336.5 -130.5t137.5 -330.5 q0 -140 -67.5 -250.5t-180.5 -169.5t-248 -59z" />
<glyph unicode="6" horiz-adv-x="1228" d="M641 973q-147 0 -265.5 -81.5t-164.5 -213.5q1 326 117.5 510t310.5 184q121 0 219 -67.5t139 -178.5l72 56q-56 131 -170 206.5t-260 75.5q-244 0 -386 -225t-142 -668q0 -272 144.5 -431.5t373.5 -159.5q141 0 258.5 66.5t184.5 180.5t67 250q0 135 -66.5 249 t-181 180.5t-250.5 66.5zM221 477q0 167 120.5 287.5t289.5 120.5q167 0 288 -120.5t121 -287.5t-120 -286t-289 -119q-167 0 -288.5 119.5t-121.5 285.5z" />
<glyph unicode="7" horiz-adv-x="1044" d="M881 1358h-820v96h983l-741 -1454h-115z" />
<glyph unicode="8" horiz-adv-x="1206" d="M596 -14q-214 0 -353 121.5t-139 295.5q0 135 92 235.5t218 141.5q-112 41 -185 123t-73 189q0 84 39.5 154.5t104 114.5t143.5 68.5t161 24.5t161 -24t143 -68t103.5 -114t39.5 -154q0 -108 -74 -190.5t-186 -123.5q135 -45 222 -147t87 -236q0 -122 -70 -217 t-184 -144.5t-250 -49.5zM602 819q82 0 159 31t131 95t54 147q0 82 -50.5 144t-128 93t-167.5 31q-138 0 -239 -75t-101 -198q0 -82 54 -145t130.5 -93t157.5 -30zM600 735q-96 0 -185 -40t-147.5 -118t-58.5 -174q0 -98 61.5 -175t151 -114.5t184.5 -37.5q96 0 184.5 39.5 t147.5 117t59 173.5q0 99 -61.5 176.5t-151 115t-184.5 37.5z" />
<glyph unicode="9" horiz-adv-x="1228" d="M588 471q147 0 265.5 81.5t164.5 213.5q0 -325 -116.5 -508.5t-311.5 -183.5q-122 0 -220 66.5t-139 176.5l-71 -55q56 -131 170 -206.5t260 -75.5q244 0 386 225t142 667q0 272 -144.5 432t-373.5 160q-141 0 -259 -66.5t-185.5 -180.5t-67.5 -250q0 -135 66.5 -249 t181.5 -180.5t252 -66.5zM1010 967q0 -166 -122 -287t-290 -121q-166 0 -288 121.5t-122 288.5q0 166 120.5 285.5t287.5 119.5q169 0 291.5 -120.5t122.5 -286.5z" />
<glyph unicode=":" horiz-adv-x="362" d="M137 885v174h88v-174h-88zM137 0v174h88v-174h-88z" />
<glyph unicode=";" horiz-adv-x="391" d="M145 885v174h91v-174h-91zM152 -166l28 162h-37v178h105v-178l-41 -162h-55z" />
<glyph unicode="&#x3c;" horiz-adv-x="1036" d="M70 559l856 514v-110l-709 -433l709 -432v-112l-856 512v61z" />
<glyph unicode="=" horiz-adv-x="894" d="M141 627v78h613v-78h-613zM141 426v78h613v-78h-613z" />
<glyph unicode="&#x3e;" horiz-adv-x="1036" d="M967 498l-856 -512v112l706 432l-706 433v110l856 -514v-61z" />
<glyph unicode="?" horiz-adv-x="968" d="M334 395q0 103 21 174.5t57.5 113.5t95.5 75q16 9 45.5 24.5t49.5 26t48 28t47 33.5t39.5 40t33 49.5t20.5 59.5t8 73q0 72 -25.5 129t-68.5 92t-96 53t-111 18q-114 0 -209.5 -61t-143.5 -160l-73 45q54 124 172.5 194.5t253.5 70.5q77 0 146.5 -25t125 -72t88.5 -122.5 t33 -168.5q0 -51 -9.5 -94t-29.5 -76t-42 -58.5t-55.5 -48.5t-60.5 -39t-66 -37q-21 -11 -32 -17q-42 -23 -67 -42.5t-52.5 -55t-40 -90.5t-12.5 -132h-90zM336 0v201h90v-201h-90z" />
<glyph unicode="@" horiz-adv-x="1708" d="M1591 455q0 -31 -2 -65t-9.5 -83.5t-19.5 -94t-34.5 -90.5t-52.5 -79.5t-75.5 -54.5t-101.5 -21q-39 0 -68 11t-46 27.5t-28 43.5t-16 52t-8 61q-59 -63 -151 -104.5t-193 -41.5q-139 0 -222 75t-83 194q0 73 33 127.5t89.5 84t120 43t134.5 13.5q134 0 266 -47 q0 82 -12 142.5t-40.5 109t-80.5 73.5t-127 25q-157 0 -289 -98l-32 63q163 107 329 107q84 0 145.5 -25.5t95.5 -63.5t54 -97t25.5 -111.5t5.5 -120.5v-283q0 -102 21 -149t86 -47q62 0 108.5 43.5t70.5 112t35 137t11 133.5q0 198 -90 363t-246.5 260.5t-343.5 95.5 q-138 0 -264 -53t-220 -145t-150 -224.5t-56 -282.5q0 -195 90 -358t247 -258t345 -95q163 0 313 78l25 -55q-163 -82 -338 -82q-151 0 -288 59t-237.5 160.5t-159.5 245t-59 305.5q0 167 63 311.5t167.5 242.5t241 154t282.5 56q150 0 285.5 -59t235.5 -160.5t159 -248 t59 -312.5zM1122 354v86q-8 1 -49.5 13.5t-100.5 23t-120 10.5q-60 0 -110 -10t-93 -31.5t-67.5 -61.5t-24.5 -95q0 -92 66.5 -147.5t167.5 -55.5q100 0 192 45q83 39 111 94t28 129z" />
<glyph unicode="A" horiz-adv-x="1382" d="M647 1454h90l615 -1454h-111l-203 479h-694l-203 -479h-112zM1010 565l-318 762l-323 -762h641z" />
<glyph unicode="B" horiz-adv-x="1355" d="M870 0h-680v1454h678q98 0 176 -55.5t117 -139t39 -176.5q0 -110 -56.5 -203t-152.5 -135q124 -37 197.5 -137.5t73.5 -230.5q0 -159 -115 -268t-277 -109zM295 1360v-582h532q115 0 193 87.5t78 203.5q0 121 -73 206t-185 85h-545zM885 690h-590v-596h575q119 0 203 90 t84 207q0 120 -78.5 209.5t-193.5 89.5z" />
<glyph unicode="C" horiz-adv-x="1413" d="M778 1462q187 0 327 -86.5t210 -230.5l-86 -49q-49 96 -127 158.5t-159.5 87t-172.5 24.5q-133 0 -244.5 -56t-182 -147t-109.5 -203t-39 -229q0 -170 76 -318.5t210.5 -238.5t294.5 -90q92 0 180 28.5t169.5 95t129.5 161.5l91 -43q-46 -105 -142 -183.5t-209 -116.5 t-227 -38q-144 0 -272.5 65t-216 171t-138.5 240.5t-51 272.5q0 133 47 261.5t132.5 232t218.5 167.5t290 64z" />
<glyph unicode="D" horiz-adv-x="1460" d="M190 0v1454h484q135 0 248.5 -37t194 -103t137 -157t83.5 -199t27 -229q0 -331 -187 -530t-503 -199h-484zM674 1360h-379v-1266h379q140 0 252.5 48.5t185 134t110.5 201t38 251.5q0 185 -67.5 326.5t-201.5 223t-317 81.5z" />
<glyph unicode="E" d="M1159 94v-94h-969v1454h951v-94h-846v-572h739v-90h-739v-604h864z" />
<glyph unicode="F" horiz-adv-x="1216" d="M190 0v1454h947v-94h-842v-578h715v-90h-715v-692h-105z" />
<glyph unicode="G" horiz-adv-x="1468" d="M932 707h420v-707h-90v227q-212 -237 -490 -237q-144 0 -272.5 64t-217 168t-140.5 237t-52 270q0 143 50.5 277t138 235t213.5 162t268 61q395 0 555 -317l-86 -51q-140 272 -471 272q-126 0 -233.5 -55t-178.5 -145t-111 -205t-40 -236q0 -169 77 -316.5t212 -236 t294 -88.5q270 0 484 256v281h-330v84z" />
<glyph unicode="H" horiz-adv-x="1505" d="M1317 1454v-1454h-105v696h-917v-696h-105v1454h105v-663h917v663h105z" />
<glyph unicode="I" horiz-adv-x="485" d="M190 0v1454h105v-1454h-105z" />
<glyph unicode="J" horiz-adv-x="978" d="M66 152q114 -78 282 -78q66 0 117 14t88.5 38.5t63.5 66t42.5 89t26 115.5t13 137t3.5 162v758h105v-739q0 -102 -4 -179.5t-16 -158t-32.5 -137.5t-54.5 -109.5t-81.5 -84.5t-114.5 -50.5t-152 -18.5q-186 0 -319 91z" />
<glyph unicode="K" horiz-adv-x="1300" d="M190 0v1454h105v-883l848 883h121l-605 -637l635 -817h-120l-584 752l-295 -303v-449h-105z" />
<glyph unicode="L" horiz-adv-x="1189" d="M190 0v1454h105v-1360h868v-94h-973z" />
<glyph unicode="M" horiz-adv-x="1802" d="M1507 0v1251l-571 -979h-70l-571 979v-1251h-105v1454h105l606 -1040l606 1040h105v-1454h-105z" />
<glyph unicode="N" horiz-adv-x="1583" d="M295 1260v-1260h-105v1454h86l1014 -1280v1280h105v-1454h-103z" />
<glyph unicode="O" horiz-adv-x="1542" d="M90 727q0 143 52.5 278t142.5 236t217.5 162t269.5 61q118 0 226 -41.5t189.5 -114t142 -165.5t91.5 -200.5t31 -215.5q0 -145 -52.5 -280t-142.5 -235.5t-217.5 -161t-269.5 -60.5q-147 1 -275.5 64t-216 165.5t-138 235.5t-50.5 272zM772 86q126 0 235.5 56 t182.5 146.5t114.5 205.5t41.5 233q0 124 -43.5 241t-118.5 205t-183 141.5t-229 53.5q-126 0 -236 -55.5t-183.5 -146t-115.5 -205.5t-42 -234q0 -125 43 -241t117.5 -204.5t183.5 -142t233 -53.5z" />
<glyph unicode="P" horiz-adv-x="1271" d="M190 0v1454h598q89 0 169.5 -39.5t135.5 -103t87 -144t32 -163.5q0 -117 -50.5 -220.5t-146 -169t-214.5 -65.5h-506v-549h-105zM295 645h502q137 0 223 107t86 252q0 143 -95.5 249.5t-226.5 106.5h-489v-715z" />
<glyph unicode="Q" horiz-adv-x="1540" d="M1452 727q0 -150 -56 -289t-155 -243l162 -195h-109l-114 139q-179 -149 -410 -149q-147 1 -275.5 64t-216 165.5t-138 235.5t-50.5 272q0 143 52.5 278t142.5 236t217.5 162t269.5 61q118 0 226 -41.5t189.5 -114t142 -165.5t91.5 -200.5t31 -215.5zM772 86 q196 0 344 129l-172 207h109l123 -150q81 92 125.5 211.5t44.5 243.5t-43.5 241t-118.5 205t-183 141.5t-229 53.5q-126 0 -236 -55.5t-183.5 -146t-115.5 -205.5t-42 -234q0 -125 43 -241t117.5 -204.5t183.5 -142t233 -53.5z" />
<glyph unicode="R" horiz-adv-x="1329" d="M190 0v1454h605q89 0 169.5 -39.5t135.5 -103t87 -144t32 -163.5q0 -164 -95.5 -290t-246.5 -149l362 -565h-121l-352 549h-471v-549h-105zM295 645h510q91 0 163 52t109 133.5t37 173.5q0 141 -95.5 248.5t-227.5 107.5h-496v-715z" />
<glyph unicode="S" horiz-adv-x="1239" d="M1036 1212q-143 158 -399 158q-207 0 -307.5 -78.5t-100.5 -220.5q0 -56 17 -97t46.5 -70t85.5 -53t117.5 -40.5t159.5 -36.5q104 -23 174.5 -43.5t139.5 -52.5t109 -72t64.5 -98.5t24.5 -134.5q0 -187 -140.5 -286t-379.5 -99q-339 0 -575 217l55 84 q93 -98 227.5 -153.5t296.5 -55.5q192 0 299 71.5t107 208.5q0 57 -19 101.5t-52.5 77t-92.5 59t-126.5 46t-166.5 40.5q-101 22 -169 41.5t-131 49.5t-99 67t-57 91t-21 124q0 193 140 300t374 107q274 0 453 -170z" />
<glyph unicode="T" horiz-adv-x="1241" d="M1206 1360h-532v-1360h-105v1360h-532v94h1169v-94z" />
<glyph unicode="U" horiz-adv-x="1548" d="M776 -10q-134 0 -240.5 41.5t-174 110t-112 164.5t-63 198.5t-18.5 218.5v731h104v-731q0 -102 14.5 -190.5t51 -172.5t92.5 -143t144 -95t200 -36q114 0 203 36.5t144 97t91 145t50 172t14 186.5v731h104v-731q0 -121 -19.5 -226t-65 -199.5t-114 -162t-172 -106.5 t-233.5 -39z" />
<glyph unicode="V" horiz-adv-x="1390" d="M141 1454l553 -1323l553 1323h111l-613 -1454h-100l-614 1454h110z" />
<glyph unicode="W" horiz-adv-x="2136" d="M748 1444h102l217 -529l217 529h102l-256 -613l306 -708l557 1331h114l-622 -1454h-96l-320 748l-321 -748h-97l-620 1454h112l559 -1331l302 708z" />
<glyph unicode="X" horiz-adv-x="1286" d="M137 1454l508 -659l506 659h121l-570 -737l553 -717h-120l-490 639l-491 -639h-123l553 717l-570 737h123z" />
<glyph unicode="Y" horiz-adv-x="1325" d="M154 1454l508 -805l509 805h117l-573 -905v-549h-105v553l-571 901h115z" />
<glyph unicode="Z" horiz-adv-x="1284" d="M61 86l1035 1274h-1020v94h1143v-86l-1026 -1274h1021v-94h-1153v86z" />
<glyph unicode="[" horiz-adv-x="505" d="M186 -82v1598h207v-89h-108v-1421h108v-88h-207z" />
<glyph unicode="\" horiz-adv-x="1122" d="M176 1454l891 -1454h-119l-893 1454h121z" />
<glyph unicode="]" horiz-adv-x="505" d="M111 -82v88h110v1421h-110v89h206v-1598h-206z" />
<glyph unicode="^" horiz-adv-x="1077" d="M90 621l406 833h88l403 -833h-94l-352 729l-361 -729h-90z" />
<glyph unicode="_" horiz-adv-x="1062" d="M135 -94v94h791v-94h-791z" />
<glyph unicode="`" horiz-adv-x="436" d="M100 1495h117l127 -174l-70 -33z" />
<glyph unicode="a" horiz-adv-x="1099" d="M72 307q0 141 124 229.5t322 88.5q177 0 328 -54v101q0 148 -86.5 235.5t-233.5 87.5q-158 0 -342 -127l-43 74q210 141 396 141q190 0 300.5 -112.5t110.5 -306.5v-529q0 -48 45 -51v-84q-45 -3 -51 -2q-38 4 -60 31t-24 61v84q-73 -91 -189 -142.5t-243 -51.5 q-152 0 -253 94t-101 233zM805 219q41 50 41 96v177q-143 57 -318 57q-162 0 -260 -64.5t-98 -171.5q0 -104 77.5 -178t198.5 -74q113 0 210 43.5t149 114.5z" />
<glyph unicode="b" d="M254 213v-213h-94v1495h102v-661q169 249 418 249q110 0 203.5 -48t154.5 -127t95 -177.5t34 -202.5q0 -145 -66.5 -271t-184.5 -201.5t-259 -75.5q-122 0 -231 64.5t-172 168.5zM1063 528q0 120 -50.5 225.5t-145.5 171.5t-212 66q-127 0 -230 -80t-163 -202v-353 q9 -75 71 -142.5t145 -104.5t159 -37q121 0 220 66.5t152.5 170.5t53.5 219z" />
<glyph unicode="c" horiz-adv-x="1116" d="M612 -20q-146 0 -267.5 75.5t-190 203.5t-68.5 278t66.5 275t187.5 198t270 73q144 0 255 -65.5t167 -181.5l-100 -33q-47 88 -134.5 138t-191.5 50q-176 0 -297 -130.5t-121 -323.5q0 -192 124 -328.5t296 -136.5q110 0 210.5 59t125.5 137l100 -28 q-41 -113 -162.5 -186.5t-269.5 -73.5z" />
<glyph unicode="d" horiz-adv-x="1259" d="M86 530q0 148 62.5 274.5t175.5 202.5t251 76q131 0 240.5 -70t175.5 -179v661h103v-1360q0 -48 43 -51v-84q-40 -3 -50 -2q-36 6 -61 34t-25 62v119q-65 -106 -175 -169.5t-228 -63.5q-144 0 -263 78.5t-184 204.5t-65 267zM991 358v351q-42 116 -158.5 199t-234.5 83 q-90 0 -168 -39.5t-129.5 -104.5t-81 -148t-29.5 -171q0 -121 56.5 -225.5t155 -167.5t214.5 -63q75 0 158.5 38t145.5 105.5t71 142.5z" />
<glyph unicode="e" horiz-adv-x="1193" d="M612 -20q-146 0 -267.5 75.5t-190 203.5t-68.5 278q0 149 67.5 274t187 198.5t265.5 73.5q147 0 267.5 -74.5t187.5 -199.5t67 -272q0 -35 -2 -45h-933q13 -184 135 -307.5t288 -123.5q111 0 209.5 57.5t137.5 147.5l90 -24q-46 -114 -170 -188t-271 -74zM188 571h842 q-13 187 -133 307.5t-289 120.5q-170 0 -290 -121.5t-130 -306.5z" />
<glyph unicode="f" horiz-adv-x="651" d="M207 0v981h-150v84h150v35q0 194 80.5 305t220.5 111q61 0 118.5 -18.5t94.5 -49.5l-37 -74q-61 51 -158 51q-105 0 -161 -83.5t-56 -239.5v-37h303v-84h-303v-981h-102z" />
<glyph unicode="g" d="M86 530q0 146 62 272t177 203.5t257 77.5q245 0 417 -249v231h95v-1085q0 -105 -40.5 -189.5t-110 -138t-159.5 -81.5t-192 -28q-177 0 -289 63t-184 183l69 47q61 -104 168.5 -156.5t235.5 -52.5q82 0 154 23t127 66t86.5 111t31.5 153v233q-65 -103 -174 -166t-227 -63 q-142 0 -259 78.5t-181 203t-64 264.5zM991 358v351q-47 123 -158.5 202.5t-234.5 79.5q-92 0 -171 -41t-129.5 -107t-79 -148t-28.5 -167q0 -185 124.5 -320.5t299.5 -135.5q87 0 172 43t140 109t65 134z" />
<glyph unicode="h" horiz-adv-x="1179" d="M1030 0h-102v594q0 395 -264 395q-130 0 -246 -95t-156 -235v-659h-102v1495h102v-684q64 124 181 198t249 74q172 0 255 -122.5t83 -348.5v-612z" />
<glyph unicode="i" horiz-adv-x="423" d="M160 1307v188h102v-188h-102zM160 0v1065h102v-1065h-102z" />
<glyph unicode="j" horiz-adv-x="438" d="M176 1307v188h103v-188h-103zM-244 -287l56 68q57 -49 157 -49q79 0 143 60.5t64 146.5v1126h103v-1122q0 -129 -92 -217t-207 -88q-144 0 -224 75z" />
<glyph unicode="k" horiz-adv-x="1069" d="M930 0l-416 569l-252 -231v-338h-102v1495h102v-1042l649 610h117l-444 -432l458 -631h-112z" />
<glyph unicode="l" horiz-adv-x="530" d="M168 1495h104v-1284q0 -129 111 -129q65 0 129 22l20 -84q-84 -32 -174 -32q-86 0 -138 52t-52 140v1315z" />
<glyph unicode="m" horiz-adv-x="1873" d="M1724 0h-102v594q0 201 -62.5 298t-191.5 97q-130 0 -232.5 -92t-142.5 -240v-657h-102v594q0 204 -61.5 299.5t-190.5 95.5t-231.5 -90.5t-145.5 -239.5v-659h-102v1065h96v-254q66 129 173 200.5t235 71.5q132 0 216.5 -78.5t102.5 -209.5q152 288 418 288 q168 0 245.5 -120t77.5 -351v-612z" />
<glyph unicode="n" horiz-adv-x="1179" d="M1030 0h-102v594q0 205 -59 300t-185 95q-136 0 -258.5 -95t-163.5 -235v-659h-102v1065h96v-254q65 122 190.5 197t266.5 75q168 0 242.5 -118.5t74.5 -352.5v-612z" />
<glyph unicode="o" horiz-adv-x="1212" d="M86 530q0 111 40 212.5t109 176.5t166 119.5t205 44.5q143 0 263.5 -75.5t188.5 -202.5t68 -275q0 -147 -67.5 -273t-187.5 -201.5t-265 -75.5q-146 0 -266 75.5t-187 201.5t-67 273zM604 72q172 0 295 135t123 325q0 92 -33.5 177t-89.5 146.5t-132.5 98.5t-160.5 37 q-170 0 -294 -137.5t-124 -327.5q0 -189 122 -321.5t294 -132.5z" />
<glyph unicode="p" d="M262 229v-665h-102v1501h94v-213q68 104 176 167.5t227 63.5q144 0 262.5 -80t183 -206t64.5 -267q0 -111 -35.5 -211.5t-98.5 -175t-155 -119t-198 -44.5q-130 0 -239 69t-179 180zM1063 530q0 185 -125 323t-301 138q-74 0 -157.5 -39t-146 -106.5t-71.5 -140.5v-351 q54 -122 161.5 -202t231.5 -80q90 0 168 39.5t129.5 104t81 146.5t29.5 168z" />
<glyph unicode="q" d="M86 530q0 146 67.5 273t185.5 203.5t257 76.5q121 0 230.5 -65t172.5 -168v215h95v-1501h-103v665q-169 -249 -418 -249q-142 0 -255 78.5t-172.5 203.5t-59.5 268zM991 346v348q-17 116 -135.5 206.5t-243.5 90.5q-120 0 -218.5 -68t-151 -173.5t-52.5 -221.5 q0 -121 52 -225.5t147 -167.5t211 -63q127 0 227 76.5t164 197.5z" />
<glyph unicode="r" horiz-adv-x="698" d="M664 973q-143 -5 -251 -86.5t-151 -220.5v-666h-102v1065h98v-262q55 112 147 182.5t195 81.5q27 2 64 2v-96z" />
<glyph unicode="s" horiz-adv-x="980" d="M496 -20q-264 0 -426 174l47 71q165 -159 375 -159q139 0 223 58t84 159q0 90 -81 137q-56 32 -223 74q-8 2 -25 6h-1l-1 1h-1h-1h-1l-1 1h-1q-73 19 -119.5 34t-91 37.5t-68.5 49t-38.5 64t-14.5 87.5q0 149 110 229t281 80q122 0 216 -40t145 -109l-56 -66 q-48 63 -131 96t-182 33q-124 0 -204.5 -51.5t-80.5 -159.5q0 -26 6 -47t14.5 -37t28.5 -30.5t36.5 -24t50.5 -21t59 -18.5t72 -20q65 -16 101.5 -26.5t86 -26.5t76.5 -30.5t57.5 -36t45.5 -46t25.5 -57t10.5 -72.5q0 -145 -110 -229t-293 -84z" />
<glyph unicode="t" horiz-adv-x="655" d="M635 51l-12 -7q-12 -6 -21 -10t-26.5 -11.5t-34.5 -13t-37.5 -10.5t-44 -8t-47.5 -3q-89 0 -149 50.5t-60 139.5v803h-150v84h150v365h102v-365h248v-84h-248v-778q3 -57 41 -88t92 -31q38 0 78 11.5t58.5 21t29.5 16.5z" />
<glyph unicode="u" horiz-adv-x="1202" d="M150 451v614h102v-600q0 -393 268 -393q135 0 251 89t163 232v672h102v-930q0 -48 43 -51v-84q-35 -3 -51 0q-34 5 -57.5 31t-24.5 61l-2 160q-69 -127 -191 -199.5t-264 -72.5q-167 0 -253 119t-86 352z" />
<glyph unicode="v" horiz-adv-x="1081" d="M487 0l-444 1065h109l391 -956l393 956h102l-444 -1065h-107z" />
<glyph unicode="w" horiz-adv-x="1650" d="M1509 1065h103l-461 -1065h-90l-236 555l-235 -555h-90l-461 1065h100l408 -952l219 520l-178 430h92l145 -350l144 350h94l-178 -430l219 -520z" />
<glyph unicode="x" horiz-adv-x="1015" d="M152 1065l340 -440l16 -29l16 29l338 440h119l-414 -535l412 -530h-119l-336 438l-16 27l-16 -27l-338 -438h-117l409 530l-411 535h117z" />
<glyph unicode="y" horiz-adv-x="1105" d="M231 -360q78 -4 97 8q27 7 58.5 68t123.5 284l-475 1065h108l422 -956l391 956h105l-584 -1401q-44 -111 -160 -117q-33 -5 -86 -2v95z" />
<glyph unicode="z" horiz-adv-x="1003" d="M66 74l749 911h-737v80h856v-74l-748 -911h744v-80h-864v74z" />
<glyph unicode="{" horiz-adv-x="507" d="M289 1427v-567q0 -77 -51 -123q51 -44 51 -123v-589h112v-88h-161q-20 0 -33.5 15t-13.5 46v594q0 40 -18.5 71t-53.5 35v82q37 0 54.5 35t17.5 68v571q0 34 16 48t31 14h161v-89h-112z" />
<glyph unicode="|" horiz-adv-x="456" d="M182 -266v1853h92v-1853h-92z" />
<glyph unicode="}" horiz-adv-x="507" d="M106 1427v89h162q8 0 17 -4t19.5 -19t10.5 -39v-571q0 -33 17.5 -68t54.5 -35v-82q-36 -4 -54 -34.5t-18 -71.5v-594q0 -31 -14.5 -46t-32.5 -15h-162v88h113v589q0 79 51 123q-51 46 -51 123v567h-113z" />
<glyph unicode="~" horiz-adv-x="1009" d="M340 696q40 0 85 -19t78.5 -42.5t76 -42.5t79.5 -19q29 0 54 10.5t41 25t27.5 31t16.5 27.5t5 15h69q0 -4 -6 -21.5t-22.5 -45t-39 -52.5t-61.5 -43t-84 -18t-92.5 19t-81.5 41.5t-74 41.5t-71 19q-41 0 -73.5 -30.5t-45 -57t-12.5 -33.5h-70q0 7 6.5 27t22.5 49t37.5 55 t57.5 44.5t77 18.5z" />
<glyph unicode="&#xa1;" horiz-adv-x="495" d="M299 1466v-209h-102v209h102zM299 1020v-1022h-102v1022h102z" />
<glyph unicode="&#xa2;" horiz-adv-x="1134" d="M565 -246v228q-135 11 -245.5 93t-170 202.5t-59.5 250.5q0 138 58 260t168 202t249 91v240h64v-240q290 -8 407 -245l-98 -33q-97 176 -309 186v-915q60 1 127 24.5t122.5 69t71.5 100.5l101 -28q-43 -120 -170 -190t-252 -70v-226h-64zM565 78v907q-113 -8 -199.5 -78 t-128.5 -170t-42 -209q0 -168 106 -299t264 -151z" />
<glyph unicode="&#xa3;" horiz-adv-x="997" d="M879 100l26 -82q-107 -49 -221 -49q-60 0 -163.5 22.5t-166.5 22.5q-96 0 -211 -28l-30 75q149 152 205.5 249.5t56.5 199.5q0 80 -31 164h-242v84h205q-14 28 -48 86t-51 91t-32.5 84.5t-15.5 98.5q0 143 105 244.5t253 101.5q107 0 202 -58t154 -157l-65 -63 q-49 88 -129 139t-166 51q-106 0 -181 -76.5t-75 -185.5q0 -57 21.5 -111.5t67.5 -131.5t63 -113h358v-84h-326q27 -79 27 -158q0 -106 -49.5 -202.5t-173.5 -229.5q75 16 147 16q63 0 155.5 -19.5t141.5 -19.5q76 0 189 39z" />
<glyph unicode="&#xa4;" horiz-adv-x="1095" d="M311 973q98 88 236 88q134 0 237 -90l144 145l55 -53l-145 -145q75 -101 75 -230t-79 -231l149 -146l-49 -49l-150 144q-103 -87 -237 -87q-136 0 -236 84l-145 -141l-49 49l145 144q-80 104 -80 233q0 134 76 232l-141 143l53 53zM547 395q114 0 195 86.5t81 208.5 q0 123 -81 208t-195 85t-195.5 -86.5t-81.5 -210.5q0 -121 81.5 -206t195.5 -85z" />
<glyph unicode="&#xa5;" horiz-adv-x="1366" d="M844 731h180v-78h-225l-66 -104v-53h291v-76h-291v-420h-104v420h-289v76h289v57l-62 100h-227v78h182l-465 723h117l508 -805l510 805h115z" />
<glyph unicode="&#xa6;" horiz-adv-x="462" d="M279 1587v-839h-93v839h93zM279 573v-839h-93v839h93z" />
<glyph unicode="&#xa7;" horiz-adv-x="1017" d="M930 172q0 -85 -37 -154t-96.5 -111t-129 -64.5t-139.5 -22.5q-221 0 -397 180l68 63q79 -74 157.5 -109.5t169.5 -35.5q115 0 207 70t92 182q0 50 -17.5 87t-43.5 58t-66 34.5t-75.5 18.5t-81.5 7q-176 8 -285 89.5t-109 233.5q0 53 17 102.5t43 80.5q-51 33 -82 97.5 t-31 145.5q0 99 59 178.5t148 120.5t186 41q136 0 220.5 -47.5t142.5 -132.5l-82 -37q-34 66 -110.5 94.5t-165.5 28.5q-73 0 -139 -28.5t-110 -86t-44 -131.5q0 -228 295 -231q61 0 117.5 -10.5t109 -34t91.5 -58.5t62 -88.5t23 -119.5q0 -57 -19 -109t-49 -84 q101 -61 101 -217zM731 420q31 26 49.5 70.5t18.5 91.5q0 61 -28 106.5t-74 70t-96 35.5t-103 11q-114 0 -195 35q-25 -25 -40 -67t-15 -85q0 -67 26 -113.5t65.5 -68.5t94.5 -35.5t105 -17t105 -12t87 -21.5z" />
<glyph unicode="&#xa8;" horiz-adv-x="602" d="M117 1311v180h90v-180h-90zM395 1311v180h90v-180h-90z" />
<glyph unicode="&#xa9;" horiz-adv-x="1697" d="M100 727q0 156 57 293t156 234.5t238 153.5t297 56q159 0 298 -56t238 -153.5t156 -234.5t57 -293q0 -157 -57 -294.5t-156 -235.5t-238 -154.5t-298 -56.5q-158 0 -297 56.5t-238 154.5t-156 235.5t-57 294.5zM1532 721q0 193 -88.5 348.5t-245 243.5t-350.5 88 q-192 0 -348 -87.5t-245 -242.5t-89 -346q0 -190 88.5 -345t244.5 -243t349 -88q191 0 347 84.5t246.5 238.5t90.5 349zM395 727q0 87 28 170t82 152.5t143.5 112t201.5 42.5q130 0 231.5 -57t143.5 -162l-99 -33q-20 47 -54.5 80.5t-75 49.5t-76 23t-70.5 7 q-86 0 -154.5 -34t-110 -90.5t-63.5 -123.5t-22 -137q0 -88 33 -162t86 -120.5t114.5 -72.5t122.5 -26q84 0 169.5 46.5t117.5 121.5l98 -29q-28 -80 -134 -155.5t-245 -75.5q-88 0 -171.5 33.5t-149.5 93t-106 150t-40 196.5z" />
<glyph unicode="&#xaa;" horiz-adv-x="882" d="M100 936q0 95 86 156t220 61q132 0 219 -37v64q0 91 -55.5 145.5t-151.5 54.5q-108 0 -236 -84l-35 64q143 94 277 94q140 0 220.5 -75.5t80.5 -211.5v-313q0 -38 35 -41v-88q-20 -2 -49 -2q-65 6 -72 70l-2 53q-51 -64 -127.5 -98.5t-165.5 -34.5q-103 0 -173.5 64 t-70.5 159zM600 885q25 28 25 55v113q-77 34 -203 34q-102 0 -163.5 -39.5t-61.5 -105.5q0 -65 49.5 -108t122.5 -43q72 0 135.5 25.5t95.5 68.5z" />
<glyph unicode="&#xab;" horiz-adv-x="1130" d="M84 559l500 359v-93l-414 -295l414 -292v-93l-500 353v61zM498 559l499 359v-93l-413 -295l413 -292v-93l-499 353v61z" />
<glyph unicode="&#xac;" horiz-adv-x="1175" d="M1032 725v-457h-92v363h-780v94h872z" />
<glyph unicode="&#xad;" horiz-adv-x="1144" d="M137 510v94h871v-94h-871z" />
<glyph unicode="&#xae;" horiz-adv-x="1697" d="M100 727q0 156 57 293t156 234.5t238 153.5t297 56q159 0 298 -56t238 -153.5t156 -234.5t57 -293q0 -157 -57 -294.5t-156 -235.5t-238 -154.5t-298 -56.5q-158 0 -297 56.5t-238 154.5t-156 235.5t-57 294.5zM1530 727q0 189 -88 343.5t-244.5 242.5t-349.5 88 q-192 0 -348 -88t-244 -242.5t-88 -343.5q0 -191 88 -346.5t243.5 -244.5t348.5 -89q192 0 347 84.5t245 240.5t90 355zM543 1190h389q114 0 192 -89.5t78 -201.5q0 -104 -62 -184.5t-159 -93.5l231 -365h-92l-225 354h-270v-354h-82v934zM934 684q89 0 138.5 61.5 t49.5 153.5q0 91 -55 152t-141 61h-301v-428h309z" />
<glyph unicode="&#xaf;" horiz-adv-x="798" d="M109 1376v76h583v-76h-583z" />
<glyph unicode="&#xb0;" horiz-adv-x="534" d="M266 1483q67 0 113.5 -46t46.5 -112q0 -69 -46 -115.5t-114 -46.5q-66 0 -111.5 47t-45.5 115q0 66 45.5 112t111.5 46zM174 1323q0 -39 27 -66q28 -28 65 -28q40 0 68 28q26 26 26 66q0 39 -26 68q-23 26 -68 26q-42 0 -65 -26q-27 -30 -27 -68z" />
<glyph unicode="&#xb1;" horiz-adv-x="958" d="M801 782v-88h-275v-295h-94v295h-274v88h274v295h94v-295h275zM158 143v88h643v-88h-643z" />
<glyph unicode="&#xb2;" horiz-adv-x="780" d="M76 846q0 149 62.5 232.5t193.5 133.5q16 6 54 19.5t57.5 21t51 21.5t48.5 27.5t36 32.5t27 42t8 51q0 70 -56 117t-161 47q-161 0 -262 -116l-49 49q8 12 29 30.5t60 44.5t101 44t132 18q138 0 212 -67t74 -169q0 -45 -18.5 -82.5t-42.5 -61t-66 -45t-69.5 -31.5 t-72.5 -24q-15 -5 -22 -7q-219 -74 -219 -259h506v-69h-614z" />
<glyph unicode="&#xb3;" horiz-adv-x="790" d="M76 1022l47 43q6 -62 82 -110t184 -48q104 0 175 44t71 112q0 75 -83 118.5t-222 43.5h-47v65h47q132 0 204 37t72 107q0 71 -66 115t-163 44q-83 0 -146.5 -31.5t-93.5 -84.5l-51 53q35 60 115 95.5t176 35.5q132 0 219.5 -64t87.5 -159q0 -140 -184 -178 q95 -15 152 -72t57 -135q0 -97 -93 -158t-227 -61q-128 0 -214.5 51.5t-98.5 136.5z" />
<glyph unicode="&#xb4;" horiz-adv-x="436" d="M172 1288l-72 33l125 174h119z" />
<glyph unicode="&#xb5;" horiz-adv-x="1255" d="M174 1065h102v-600q0 -393 271 -393q135 0 251 89t163 232v672h102v-922q0 -51 43 -51v-92q-35 -3 -53 0q-35 4 -58.5 32.5t-23.5 65.5v154q-61 -120 -178.5 -196t-249.5 -76q-202 0 -271 188l4 -602h-102v1499z" />
<glyph unicode="&#xb6;" horiz-adv-x="1204" d="M645 1454h463v-84h-143v-1534h-93v649h-163v-649h-93v649q-255 5 -401.5 133t-146.5 351q0 227 153 356t424 129zM616 571v799q-221 -1 -338.5 -106t-117.5 -293q0 -99 36 -175t100 -123t144.5 -72t175.5 -30zM872 1370h-163v-799h163v799z" />
<glyph unicode="&#xb7;" horiz-adv-x="362" d="M137 508v207h90v-207h-90z" />
<glyph unicode="&#xb8;" horiz-adv-x="555" d="M307 -356q-121 0 -231 55l35 63q96 -47 178 -47q151 0 151 109q0 53 -36.5 93.5t-112.5 82.5l51 31q86 -50 129 -101t43 -120q0 -80 -56 -123t-151 -43z" />
<glyph unicode="&#xb9;" horiz-adv-x="540" d="M498 915v-71h-398v71h168v660q-25 -30 -87.5 -64t-108.5 -34v71q38 0 87 28t76.5 53t32.5 32h74v-746h156z" />
<glyph unicode="&#xba;" horiz-adv-x="919" d="M94 1081q0 154 104.5 263.5t260.5 109.5t261 -109.5t105 -263.5q0 -151 -104.5 -259.5t-261.5 -108.5t-261 108.5t-104 259.5zM459 788q114 0 195 86.5t81 208.5t-80.5 206.5t-195.5 84.5q-113 0 -194 -85.5t-81 -209.5q0 -120 80.5 -205.5t194.5 -85.5z" />
<glyph unicode="&#xbb;" horiz-adv-x="1130" d="M635 498l-502 -353v93l416 292l-416 295v93l502 -359v-61zM1047 498l-500 -353v93l414 292l-414 295v93l500 -359v-61z" />
<glyph unicode="&#xbc;" horiz-adv-x="1572" d="M498 752v-72h-398v72h168v659q-25 -30 -87.5 -64t-108.5 -34v71q38 0 87 28t76.5 53t32.5 32h74v-745h156zM90 43l572 705l561 712l57 -47l-571 -706l-564 -713zM1323 0v217h-471v66l491 522h52v-518h116v-70h-116v-217h-72zM934 287h389v413z" />
<glyph unicode="&#xbd;" horiz-adv-x="1601" d="M498 752v-72h-398v72h168v659q-25 -30 -87.5 -64t-108.5 -34v71q38 0 87 28t76.5 53t32.5 32h74v-745h156zM90 43l572 705l561 712l57 -47l-571 -706l-564 -713zM903 0q0 151 62.5 235t191.5 134q17 6 61.5 22t65.5 24.5t55.5 27t51 36t30 44.5t13.5 59q0 70 -54.5 116.5 t-158.5 46.5q-160 0 -258 -118l-50 51q11 14 30 31t58.5 44t100 44.5t129.5 17.5q136 0 209 -66t73 -169q0 -56 -23 -99t-72 -72t-81 -42t-92 -33q-6 -2 -10 -3.5t-8 -2.5q-68 -23 -114 -56t-66.5 -70t-27.5 -67t-7 -65h504v-70h-613z" />
<glyph unicode="&#xbe;" horiz-adv-x="1822" d="M76 858l47 43q6 -62 82 -110t184 -48q104 0 175 44t71 112q0 75 -83 118.5t-222 43.5h-47v65h47q132 0 204 37t72 107q0 71 -66 115.5t-163 44.5q-83 0 -146.5 -31.5t-93.5 -85.5l-51 53q35 60 115 95.5t176 35.5q132 0 219.5 -64t87.5 -159q0 -140 -184 -178 q95 -15 152 -72t57 -135q0 -97 -93 -158t-227 -61q-128 0 -214.5 51.5t-98.5 136.5zM340 43l571 705l562 712l57 -47l-572 -706l-563 -713zM1573 0v217h-471v66l491 522h52v-518h116v-70h-116v-217h-72zM1184 287h389v413z" />
<glyph unicode="&#xbf;" horiz-adv-x="954" d="M625 1036v-200h-90v200h90zM627 641q0 -103 -21.5 -174t-57.5 -112.5t-95 -75.5q-16 -9 -45.5 -24.5t-49.5 -26t-48 -28t-47 -33.5t-39.5 -40t-33 -49.5t-20.5 -59.5t-8 -73q0 -95 44.5 -163.5t111 -99t145.5 -30.5q113 0 208.5 61t143.5 160l74 -45 q-54 -124 -172.5 -194t-253.5 -70q-77 0 -146.5 24.5t-125 71.5t-88.5 122.5t-33 168.5q0 61 15 111.5t39.5 85t59.5 63.5t71.5 50.5t78.5 44.5q21 10 31 16q34 19 54 32.5t45.5 39.5t39 56.5t23.5 79.5t10 111h90z" />
<glyph unicode="&#xc0;" horiz-adv-x="1382" d="M520 1878h117l127 -174l-70 -33zM647 1454h90l615 -1454h-111l-203 479h-694l-203 -479h-112zM1010 565l-318 762l-323 -762h641z" />
<glyph unicode="&#xc1;" horiz-adv-x="1382" d="M727 1671l-72 33l125 174h119zM647 1454h90l615 -1454h-111l-203 479h-694l-203 -479h-112zM1010 565l-318 762l-323 -762h641z" />
<glyph unicode="&#xc2;" horiz-adv-x="1382" d="M457 1712l196 166h76l199 -166l-62 -35l-174 129l-174 -129zM647 1454h90l615 -1454h-111l-203 479h-694l-203 -479h-112zM1010 565l-318 762l-323 -762h641z" />
<glyph unicode="&#xc3;" horiz-adv-x="1382" d="M555 1790q-31 0 -53.5 -13.5t-32 -32.5t-13 -32t-3.5 -20h-70q0 14 7 37.5t23.5 55.5t53.5 54.5t88 22.5q57 0 133.5 -41t126.5 -41q31 0 54 9.5t34.5 22.5t18.5 28.5t8.5 24t1.5 13.5h72q0 -14 -8 -38t-26 -55.5t-59 -54t-96 -22.5q-52 0 -99 20.5t-86.5 41t-74.5 20.5z M647 1454h90l615 -1454h-111l-203 479h-694l-203 -479h-112zM1010 565l-318 762l-323 -762h641z" />
<glyph unicode="&#xc4;" horiz-adv-x="1382" d="M508 1694v180h90v-180h-90zM786 1694v180h91v-180h-91zM647 1454h90l615 -1454h-111l-203 479h-694l-203 -479h-112zM1010 565l-318 762l-323 -762h641z" />
<glyph unicode="&#xc5;" horiz-adv-x="1382" d="M692 1929q74 0 123 -47t49 -119q0 -70 -49 -117t-123 -47t-123 47t-49 117q0 72 49 119t123 47zM588 1763q0 -44 30 -74t74 -30q41 0 73 30t32 74q0 48 -30.5 76.5t-74.5 28.5t-74 -28.5t-30 -76.5zM647 1454h90l615 -1454h-111l-203 479h-694l-203 -479h-112zM1010 565 l-318 762l-323 -762h641z" />
<glyph unicode="&#xc6;" horiz-adv-x="1970" d="M889 1454h971v-94h-840v-569h729v-97h-729v-600h858v-94h-960v479h-547l-310 -479h-116zM911 573v750l-491 -750h491z" />
<glyph unicode="&#xc7;" horiz-adv-x="1413" d="M1346 326q-62 -140 -200 -227t-300 -107q112 -78 112 -182q0 -80 -55.5 -123t-150.5 -43q-122 0 -232 55l35 63q96 -47 178 -47q152 0 152 109q0 49 -31.5 87t-97.5 77q-142 3 -268 69t-212 171.5t-136 239t-50 269.5q0 133 47 261.5t132.5 232t218.5 167.5t290 64 q187 0 327 -86.5t210 -230.5l-86 -49q-49 96 -127 158.5t-159.5 87t-172.5 24.5q-133 0 -244.5 -56t-182 -147t-109.5 -203t-39 -229q0 -170 76 -318.5t210.5 -238.5t294.5 -90q92 0 180 28.5t169.5 95t129.5 161.5z" />
<glyph unicode="&#xc8;" d="M524 1878h117l127 -174l-70 -33zM1159 94v-94h-969v1454h951v-94h-846v-572h739v-90h-739v-604h864z" />
<glyph unicode="&#xc9;" d="M731 1671l-72 33l125 174h119zM1159 94v-94h-969v1454h951v-94h-846v-572h739v-90h-739v-604h864z" />
<glyph unicode="&#xca;" d="M461 1712l196 166h76l199 -166l-62 -35l-174 129l-174 -129zM1159 94v-94h-969v1454h951v-94h-846v-572h739v-90h-739v-604h864z" />
<glyph unicode="&#xcb;" d="M512 1694v180h90v-180h-90zM791 1694v180h90v-180h-90zM1159 94v-94h-969v1454h951v-94h-846v-572h739v-90h-739v-604h864z" />
<glyph unicode="&#xcc;" horiz-adv-x="485" d="M70 1878h116l127 -174l-69 -33zM190 0v1454h105v-1454h-105z" />
<glyph unicode="&#xcd;" horiz-adv-x="485" d="M276 1671l-71 33l125 174h119zM190 0v1454h105v-1454h-105z" />
<glyph unicode="&#xce;" horiz-adv-x="485" d="M6 1712l197 166h76l198 -166l-61 -35l-174 129l-174 -129zM190 0v1454h105v-1454h-105z" />
<glyph unicode="&#xcf;" horiz-adv-x="485" d="M57 1694v180h90v-180h-90zM336 1694v180h90v-180h-90zM190 0v1454h105v-1454h-105z" />
<glyph unicode="&#xd0;" horiz-adv-x="1474" d="M688 1454q135 0 248.5 -37t194 -103t137 -157t83.5 -199t27 -229q0 -331 -187 -530t-503 -199h-483v688h-133v86h133v680h483zM688 94q140 0 252.5 48.5t185 134t110.5 201t38 251.5q0 185 -67.5 326.5t-201.5 223t-317 81.5h-379v-586h365v-86h-365v-594h379z" />
<glyph unicode="&#xd1;" horiz-adv-x="1583" d="M662 1790q-31 0 -53.5 -13.5t-32 -32.5t-13.5 -32t-4 -20h-70q0 10 3.5 27t15.5 42.5t29.5 47.5t50.5 37.5t74 15.5q57 0 133.5 -41t126.5 -41q31 0 54 9.5t34 22.5t18 28.5t8.5 24t1.5 13.5h72q0 -10 -4 -27.5t-16.5 -43t-32 -47t-55 -37t-80.5 -15.5q-52 0 -99 20.5 t-86.5 41t-74.5 20.5zM295 1260v-1260h-105v1454h86l1014 -1280v1280h105v-1454h-103z" />
<glyph unicode="&#xd2;" horiz-adv-x="1542" d="M600 1878h117l127 -174l-70 -33zM90 727q0 143 52.5 278t142.5 236t217.5 162t269.5 61q118 0 226 -41.5t189.5 -114t142 -165.5t91.5 -200.5t31 -215.5q0 -145 -52.5 -280t-142.5 -235.5t-217.5 -161t-269.5 -60.5q-147 1 -275.5 64t-216 165.5t-138 235.5t-50.5 272z M772 86q126 0 235.5 56t182.5 146.5t114.5 205.5t41.5 233q0 124 -43.5 241t-118.5 205t-183 141.5t-229 53.5q-126 0 -236 -55.5t-183.5 -146t-115.5 -205.5t-42 -234q0 -125 43 -241t117.5 -204.5t183.5 -142t233 -53.5z" />
<glyph unicode="&#xd3;" horiz-adv-x="1542" d="M807 1671l-72 33l125 174h119zM90 727q0 143 52.5 278t142.5 236t217.5 162t269.5 61q118 0 226 -41.5t189.5 -114t142 -165.5t91.5 -200.5t31 -215.5q0 -145 -52.5 -280t-142.5 -235.5t-217.5 -161t-269.5 -60.5q-147 1 -275.5 64t-216 165.5t-138 235.5t-50.5 272z M772 86q126 0 235.5 56t182.5 146.5t114.5 205.5t41.5 233q0 124 -43.5 241t-118.5 205t-183 141.5t-229 53.5q-126 0 -236 -55.5t-183.5 -146t-115.5 -205.5t-42 -234q0 -125 43 -241t117.5 -204.5t183.5 -142t233 -53.5z" />
<glyph unicode="&#xd4;" horiz-adv-x="1542" d="M537 1712l196 166h76l199 -166l-62 -35l-174 129l-174 -129zM90 727q0 143 52.5 278t142.5 236t217.5 162t269.5 61q118 0 226 -41.5t189.5 -114t142 -165.5t91.5 -200.5t31 -215.5q0 -145 -52.5 -280t-142.5 -235.5t-217.5 -161t-269.5 -60.5q-147 1 -275.5 64 t-216 165.5t-138 235.5t-50.5 272zM772 86q126 0 235.5 56t182.5 146.5t114.5 205.5t41.5 233q0 124 -43.5 241t-118.5 205t-183 141.5t-229 53.5q-126 0 -236 -55.5t-183.5 -146t-115.5 -205.5t-42 -234q0 -125 43 -241t117.5 -204.5t183.5 -142t233 -53.5z" />
<glyph unicode="&#xd5;" horiz-adv-x="1542" d="M635 1790q-31 0 -53.5 -13.5t-32 -32.5t-13.5 -32t-4 -20h-69q0 14 7 37.5t23.5 55.5t53.5 54.5t88 22.5q57 0 133.5 -41t126.5 -41q31 0 54 9.5t34.5 22.5t18.5 28.5t8.5 24t1.5 13.5h71q0 -10 -4 -27.5t-16.5 -43t-32 -47t-55 -37t-80.5 -15.5q-52 0 -99 20.5t-86.5 41 t-74.5 20.5zM90 727q0 143 52.5 278t142.5 236t217.5 162t269.5 61q118 0 226 -41.5t189.5 -114t142 -165.5t91.5 -200.5t31 -215.5q0 -145 -52.5 -280t-142.5 -235.5t-217.5 -161t-269.5 -60.5q-147 1 -275.5 64t-216 165.5t-138 235.5t-50.5 272zM772 86q126 0 235.5 56 t182.5 146.5t114.5 205.5t41.5 233q0 124 -43.5 241t-118.5 205t-183 141.5t-229 53.5q-126 0 -236 -55.5t-183.5 -146t-115.5 -205.5t-42 -234q0 -125 43 -241t117.5 -204.5t183.5 -142t233 -53.5z" />
<glyph unicode="&#xd6;" horiz-adv-x="1542" d="M588 1694v180h90v-180h-90zM866 1694v180h90v-180h-90zM90 727q0 143 52.5 278t142.5 236t217.5 162t269.5 61q118 0 226 -41.5t189.5 -114t142 -165.5t91.5 -200.5t31 -215.5q0 -145 -52.5 -280t-142.5 -235.5t-217.5 -161t-269.5 -60.5q-147 1 -275.5 64t-216 165.5 t-138 235.5t-50.5 272zM772 86q126 0 235.5 56t182.5 146.5t114.5 205.5t41.5 233q0 124 -43.5 241t-118.5 205t-183 141.5t-229 53.5q-126 0 -236 -55.5t-183.5 -146t-115.5 -205.5t-42 -234q0 -125 43 -241t117.5 -204.5t183.5 -142t233 -53.5z" />
<glyph unicode="&#xd7;" horiz-adv-x="923" d="M788 297l-67 -66l-260 258l-258 -258l-66 68l256 256l-256 260l68 66l256 -258l260 260l65 -68l-258 -260z" />
<glyph unicode="&#xd8;" horiz-adv-x="1542" d="M1204 1294q117 -107 182.5 -257.5t65.5 -309.5q0 -145 -52.5 -280t-142.5 -235.5t-217.5 -161t-269.5 -60.5q-195 0 -354 108l-64 -98h-116l104 158q-118 105 -184 256t-66 313q0 143 52.5 278t142.5 236t217.5 162t269.5 61q195 0 354 -108l64 98h119zM195 727 q0 -139 52 -266.5t146 -218.5l678 1032q-137 94 -299 94q-126 0 -236 -55.5t-183.5 -146t-115.5 -205.5t-42 -234zM772 86q126 0 235.5 56t182.5 146.5t114.5 205.5t41.5 233q0 137 -52 264.5t-145 218.5l-680 -1032q139 -92 303 -92z" />
<glyph unicode="&#xd9;" horiz-adv-x="1548" d="M604 1878h117l127 -174l-70 -33zM776 -10q-134 0 -240.5 41.5t-174 110t-112 164.5t-63 198.5t-18.5 218.5v731h104v-731q0 -102 14.5 -190.5t51 -172.5t92.5 -143t144 -95t200 -36q114 0 203 36.5t144 97t91 145t50 172t14 186.5v731h104v-731q0 -121 -19.5 -226 t-65 -199.5t-114 -162t-172 -106.5t-233.5 -39z" />
<glyph unicode="&#xda;" horiz-adv-x="1548" d="M811 1671l-72 33l125 174h119zM776 -10q-134 0 -240.5 41.5t-174 110t-112 164.5t-63 198.5t-18.5 218.5v731h104v-731q0 -102 14.5 -190.5t51 -172.5t92.5 -143t144 -95t200 -36q114 0 203 36.5t144 97t91 145t50 172t14 186.5v731h104v-731q0 -121 -19.5 -226 t-65 -199.5t-114 -162t-172 -106.5t-233.5 -39z" />
<glyph unicode="&#xdb;" horiz-adv-x="1548" d="M541 1712l196 166h76l199 -166l-62 -35l-174 129l-174 -129zM776 -10q-134 0 -240.5 41.5t-174 110t-112 164.5t-63 198.5t-18.5 218.5v731h104v-731q0 -102 14.5 -190.5t51 -172.5t92.5 -143t144 -95t200 -36q114 0 203 36.5t144 97t91 145t50 172t14 186.5v731h104 v-731q0 -121 -19.5 -226t-65 -199.5t-114 -162t-172 -106.5t-233.5 -39z" />
<glyph unicode="&#xdc;" horiz-adv-x="1548" d="M592 1694v180h90v-180h-90zM870 1694v180h91v-180h-91zM776 -10q-134 0 -240.5 41.5t-174 110t-112 164.5t-63 198.5t-18.5 218.5v731h104v-731q0 -102 14.5 -190.5t51 -172.5t92.5 -143t144 -95t200 -36q114 0 203 36.5t144 97t91 145t50 172t14 186.5v731h104v-731 q0 -121 -19.5 -226t-65 -199.5t-114 -162t-172 -106.5t-233.5 -39z" />
<glyph unicode="&#xdd;" horiz-adv-x="1325" d="M696 1671l-71 33l125 174h118zM154 1454l508 -805l509 805h117l-573 -905v-549h-105v553l-571 901h115z" />
<glyph unicode="&#xde;" horiz-adv-x="1230" d="M1171 707q0 -117 -50 -220t-145 -168t-214 -65h-467v-254h-105v1454h105v-295h455q118 0 216.5 -66.5t151.5 -170t53 -215.5zM1069 707q0 142 -96 249t-228 107h-450v-713h465q91 0 163.5 52.5t109 133.5t36.5 171z" />
<glyph unicode="&#xdf;" horiz-adv-x="1124" d="M481 82q215 5 335 92.5t120 251.5q0 155 -103.5 250.5t-269.5 95.5h-35v96h33q120 0 197.5 71t77.5 181q0 113 -80.5 181.5t-200.5 68.5q-138 0 -216.5 -93t-78.5 -241v-1036h-100v1051q0 182 111.5 296.5t285.5 114.5q162 0 269.5 -92t107.5 -233q0 -110 -66 -200 t-161 -112q158 -33 245.5 -140.5t87.5 -264.5q0 -200 -148 -311.5t-411 -120.5v94z" />
<glyph unicode="&#xe0;" horiz-adv-x="1099" d="M362 1495h117l127 -174l-69 -33zM72 307q0 141 124 229.5t322 88.5q177 0 328 -54v101q0 148 -86.5 235.5t-233.5 87.5q-158 0 -342 -127l-43 74q210 141 396 141q190 0 300.5 -112.5t110.5 -306.5v-529q0 -48 45 -51v-84q-45 -3 -51 -2q-38 4 -60 31t-24 61v84 q-73 -91 -189 -142.5t-243 -51.5q-152 0 -253 94t-101 233zM805 219q41 50 41 96v177q-143 57 -318 57q-162 0 -260 -64.5t-98 -171.5q0 -104 77.5 -178t198.5 -74q113 0 210 43.5t149 114.5z" />
<glyph unicode="&#xe1;" horiz-adv-x="1099" d="M569 1288l-71 33l125 174h118zM72 307q0 141 124 229.5t322 88.5q177 0 328 -54v101q0 148 -86.5 235.5t-233.5 87.5q-158 0 -342 -127l-43 74q210 141 396 141q190 0 300.5 -112.5t110.5 -306.5v-529q0 -48 45 -51v-84q-45 -3 -51 -2q-38 4 -60 31t-24 61v84 q-73 -91 -189 -142.5t-243 -51.5q-152 0 -253 94t-101 233zM805 219q41 50 41 96v177q-143 57 -318 57q-162 0 -260 -64.5t-98 -171.5q0 -104 77.5 -178t198.5 -74q113 0 210 43.5t149 114.5z" />
<glyph unicode="&#xe2;" horiz-adv-x="1099" d="M299 1329l197 166h75l199 -166l-61 -35l-174 129l-175 -129zM72 307q0 141 124 229.5t322 88.5q177 0 328 -54v101q0 148 -86.5 235.5t-233.5 87.5q-158 0 -342 -127l-43 74q210 141 396 141q190 0 300.5 -112.5t110.5 -306.5v-529q0 -48 45 -51v-84q-45 -3 -51 -2 q-38 4 -60 31t-24 61v84q-73 -91 -189 -142.5t-243 -51.5q-152 0 -253 94t-101 233zM805 219q41 50 41 96v177q-143 57 -318 57q-162 0 -260 -64.5t-98 -171.5q0 -104 77.5 -178t198.5 -74q113 0 210 43.5t149 114.5z" />
<glyph unicode="&#xe3;" horiz-adv-x="1099" d="M397 1407q-31 0 -53.5 -13.5t-32 -32.5t-13 -32t-3.5 -20h-70q0 14 7 37.5t23.5 55.5t53.5 54.5t88 22.5q57 0 133.5 -41t126.5 -41q31 0 54 9.5t34.5 22.5t18.5 28.5t8.5 24t1.5 13.5h72q0 -14 -8 -38t-26 -55.5t-59 -54t-96 -22.5q-52 0 -99 20.5t-86.5 41t-74.5 20.5z M72 307q0 141 124 229.5t322 88.5q177 0 328 -54v101q0 148 -86.5 235.5t-233.5 87.5q-158 0 -342 -127l-43 74q210 141 396 141q190 0 300.5 -112.5t110.5 -306.5v-529q0 -48 45 -51v-84q-45 -3 -51 -2q-38 4 -60 31t-24 61v84q-73 -91 -189 -142.5t-243 -51.5 q-152 0 -253 94t-101 233zM805 219q41 50 41 96v177q-143 57 -318 57q-162 0 -260 -64.5t-98 -171.5q0 -104 77.5 -178t198.5 -74q113 0 210 43.5t149 114.5z" />
<glyph unicode="&#xe4;" horiz-adv-x="1099" d="M350 1311v180h90v-180h-90zM629 1311v180h90v-180h-90zM72 307q0 141 124 229.5t322 88.5q177 0 328 -54v101q0 148 -86.5 235.5t-233.5 87.5q-158 0 -342 -127l-43 74q210 141 396 141q190 0 300.5 -112.5t110.5 -306.5v-529q0 -48 45 -51v-84q-45 -3 -51 -2 q-38 4 -60 31t-24 61v84q-73 -91 -189 -142.5t-243 -51.5q-152 0 -253 94t-101 233zM805 219q41 50 41 96v177q-143 57 -318 57q-162 0 -260 -64.5t-98 -171.5q0 -104 77.5 -178t198.5 -74q113 0 210 43.5t149 114.5z" />
<glyph unicode="&#xe5;" horiz-adv-x="1099" d="M535 1546q74 0 123 -47t49 -119q0 -70 -49 -116.5t-123 -46.5t-123.5 46.5t-49.5 116.5q0 72 49.5 119t123.5 47zM430 1380q0 -44 30.5 -74t74.5 -30q41 0 72.5 30t31.5 74q0 48 -30 76.5t-74 28.5t-74.5 -28.5t-30.5 -76.5zM72 307q0 141 124 229.5t322 88.5 q177 0 328 -54v101q0 148 -86.5 235.5t-233.5 87.5q-158 0 -342 -127l-43 74q210 141 396 141q190 0 300.5 -112.5t110.5 -306.5v-529q0 -48 45 -51v-84q-45 -3 -51 -2q-38 4 -60 31t-24 61v84q-73 -91 -189 -142.5t-243 -51.5q-152 0 -253 94t-101 233zM805 219 q41 50 41 96v177q-143 57 -318 57q-162 0 -260 -64.5t-98 -171.5q0 -104 77.5 -178t198.5 -74q113 0 210 43.5t149 114.5z" />
<glyph unicode="&#xe6;" horiz-adv-x="1904" d="M72 309q0 138 123.5 227t318.5 89q145 0 283 -41q7 98 39 172q-22 114 -104 179.5t-206 65.5q-158 0 -342 -127l-41 70q207 139 392 139q132 0 226.5 -59.5t139.5 -167.5q68 104 177 165.5t237 61.5q147 0 268 -74.5t189 -200.5t69 -276l-2 -40h-944q13 -184 138 -307.5 t294 -123.5q113 0 210.5 57.5t137.5 147.5l90 -24q-48 -115 -171 -188.5t-271 -73.5q-134 0 -248 64.5t-186 174.5q-32 -61 -86 -108.5t-118 -75t-130.5 -41.5t-132.5 -14q-148 0 -249 95t-101 234zM1741 567q-14 189 -133.5 310.5t-292.5 121.5q-172 0 -291.5 -122.5 t-128.5 -309.5h846zM813 225q30 42 33 72q-46 90 -49 215q-128 41 -271 41q-159 0 -257.5 -66t-98.5 -172q0 -107 78.5 -180.5t193.5 -73.5q119 0 219.5 44.5t151.5 119.5z" />
<glyph unicode="&#xe7;" horiz-adv-x="1116" d="M1044 240q-35 -96 -130.5 -165t-219.5 -89q105 -75 105 -176q0 -80 -56 -123t-151 -43q-122 0 -232 55l35 63q96 -47 178 -47q152 0 152 109q0 86 -115 156q-145 0 -266 75.5t-189.5 203.5t-68.5 278t66.5 275t187.5 198t270 73q144 0 255 -65.5t167 -181.5l-100 -33 q-47 88 -134.5 138t-191.5 50q-176 0 -297 -130.5t-121 -323.5q0 -192 124 -328.5t296 -136.5q110 0 210.5 59t125.5 137z" />
<glyph unicode="&#xe8;" horiz-adv-x="1193" d="M432 1495h117l127 -174l-70 -33zM612 -20q-146 0 -267.5 75.5t-190 203.5t-68.5 278q0 149 67.5 274t187 198.5t265.5 73.5q147 0 267.5 -74.5t187.5 -199.5t67 -272q0 -35 -2 -45h-933q13 -184 135 -307.5t288 -123.5q111 0 209.5 57.5t137.5 147.5l90 -24 q-46 -114 -170 -188t-271 -74zM188 571h842q-13 187 -133 307.5t-289 120.5q-170 0 -290 -121.5t-130 -306.5z" />
<glyph unicode="&#xe9;" horiz-adv-x="1193" d="M639 1288l-72 33l125 174h119zM612 -20q-146 0 -267.5 75.5t-190 203.5t-68.5 278q0 149 67.5 274t187 198.5t265.5 73.5q147 0 267.5 -74.5t187.5 -199.5t67 -272q0 -35 -2 -45h-933q13 -184 135 -307.5t288 -123.5q111 0 209.5 57.5t137.5 147.5l90 -24 q-46 -114 -170 -188t-271 -74zM188 571h842q-13 187 -133 307.5t-289 120.5q-170 0 -290 -121.5t-130 -306.5z" />
<glyph unicode="&#xea;" horiz-adv-x="1193" d="M369 1329l196 166h76l199 -166l-62 -35l-174 129l-174 -129zM612 -20q-146 0 -267.5 75.5t-190 203.5t-68.5 278q0 149 67.5 274t187 198.5t265.5 73.5q147 0 267.5 -74.5t187.5 -199.5t67 -272q0 -35 -2 -45h-933q13 -184 135 -307.5t288 -123.5q111 0 209.5 57.5 t137.5 147.5l90 -24q-46 -114 -170 -188t-271 -74zM188 571h842q-13 187 -133 307.5t-289 120.5q-170 0 -290 -121.5t-130 -306.5z" />
<glyph unicode="&#xeb;" horiz-adv-x="1193" d="M420 1311v180h90v-180h-90zM698 1311v180h90v-180h-90zM612 -20q-146 0 -267.5 75.5t-190 203.5t-68.5 278q0 149 67.5 274t187 198.5t265.5 73.5q147 0 267.5 -74.5t187.5 -199.5t67 -272q0 -35 -2 -45h-933q13 -184 135 -307.5t288 -123.5q111 0 209.5 57.5 t137.5 147.5l90 -24q-46 -114 -170 -188t-271 -74zM188 571h842q-13 187 -133 307.5t-289 120.5q-170 0 -290 -121.5t-130 -306.5z" />
<glyph unicode="&#xec;" horiz-adv-x="423" d="M39 1495h117l127 -174l-70 -33zM160 0v1065h102v-1065h-102z" />
<glyph unicode="&#xed;" horiz-adv-x="423" d="M246 1288l-72 33l125 174h119zM160 0v1065h102v-1065h-102z" />
<glyph unicode="&#xee;" horiz-adv-x="423" d="M-25 1329l197 166h76l198 -166l-61 -35l-174 129l-174 -129zM160 0v1065h102v-1065h-102z" />
<glyph unicode="&#xef;" horiz-adv-x="423" d="M27 1311v180h90v-180h-90zM305 1311v180h90v-180h-90zM160 0v1065h102v-1065h-102z" />
<glyph unicode="&#xf0;" horiz-adv-x="1226" d="M819 1300q176 -168 245 -356t69 -401q0 -120 -42 -225.5t-113.5 -179t-168.5 -116t-203 -42.5q-213 0 -364.5 145.5t-151.5 349.5q0 133 68 247.5t184 181.5t252 67q143 0 260.5 -71.5t173.5 -188.5q-21 153 -85 286t-200 260l-239 -151l-37 51l229 143 q-126 104 -284 195h145q121 -71 217 -154l187 119l34 -49zM608 72q172 0 296 126.5t124 299.5q0 159 -122.5 272t-293.5 113q-172 0 -294.5 -120.5t-122.5 -289.5q0 -166 120.5 -283.5t292.5 -117.5z" />
<glyph unicode="&#xf1;" horiz-adv-x="1179" d="M457 1407q-31 0 -53.5 -13.5t-32 -32.5t-13.5 -32t-4 -20h-69q0 14 7 37.5t23.5 55.5t53.5 54.5t88 22.5q57 0 133.5 -41t126.5 -41q31 0 54 9.5t34.5 22.5t18.5 28.5t8.5 24t1.5 13.5h71q0 -10 -4 -27.5t-16.5 -43t-32 -47t-55 -37t-80.5 -15.5q-52 0 -99 20.5t-86.5 41 t-74.5 20.5zM1030 0h-102v594q0 205 -59 300t-185 95q-136 0 -258.5 -95t-163.5 -235v-659h-102v1065h96v-254q65 122 190.5 197t266.5 75q168 0 242.5 -118.5t74.5 -352.5v-612z" />
<glyph unicode="&#xf2;" horiz-adv-x="1212" d="M434 1495h117l127 -174l-70 -33zM86 530q0 111 40 212.5t109 176.5t166 119.5t205 44.5q143 0 263.5 -75.5t188.5 -202.5t68 -275q0 -147 -67.5 -273t-187.5 -201.5t-265 -75.5q-146 0 -266 75.5t-187 201.5t-67 273zM604 72q172 0 295 135t123 325q0 92 -33.5 177 t-89.5 146.5t-132.5 98.5t-160.5 37q-170 0 -294 -137.5t-124 -327.5q0 -189 122 -321.5t294 -132.5z" />
<glyph unicode="&#xf3;" horiz-adv-x="1212" d="M641 1288l-72 33l125 174h119zM86 530q0 111 40 212.5t109 176.5t166 119.5t205 44.5q143 0 263.5 -75.5t188.5 -202.5t68 -275q0 -147 -67.5 -273t-187.5 -201.5t-265 -75.5q-146 0 -266 75.5t-187 201.5t-67 273zM604 72q172 0 295 135t123 325q0 92 -33.5 177 t-89.5 146.5t-132.5 98.5t-160.5 37q-170 0 -294 -137.5t-124 -327.5q0 -189 122 -321.5t294 -132.5z" />
<glyph unicode="&#xf4;" horiz-adv-x="1212" d="M371 1329l196 166h76l199 -166l-62 -35l-174 129l-174 -129zM86 530q0 111 40 212.5t109 176.5t166 119.5t205 44.5q143 0 263.5 -75.5t188.5 -202.5t68 -275q0 -147 -67.5 -273t-187.5 -201.5t-265 -75.5q-146 0 -266 75.5t-187 201.5t-67 273zM604 72q172 0 295 135 t123 325q0 92 -33.5 177t-89.5 146.5t-132.5 98.5t-160.5 37q-170 0 -294 -137.5t-124 -327.5q0 -189 122 -321.5t294 -132.5z" />
<glyph unicode="&#xf5;" horiz-adv-x="1212" d="M469 1407q-31 0 -53.5 -13.5t-32 -32.5t-13 -32t-3.5 -20h-70q0 14 7 37.5t23.5 55.5t53.5 54.5t88 22.5q57 0 133.5 -41t126.5 -41q31 0 54 9.5t34.5 22.5t18.5 28.5t8.5 24t1.5 13.5h72q0 -14 -8 -38t-26 -55.5t-59 -54t-96 -22.5q-52 0 -99 20.5t-86.5 41t-74.5 20.5z M86 530q0 111 40 212.5t109 176.5t166 119.5t205 44.5q143 0 263.5 -75.5t188.5 -202.5t68 -275q0 -147 -67.5 -273t-187.5 -201.5t-265 -75.5q-146 0 -266 75.5t-187 201.5t-67 273zM604 72q172 0 295 135t123 325q0 92 -33.5 177t-89.5 146.5t-132.5 98.5t-160.5 37 q-170 0 -294 -137.5t-124 -327.5q0 -189 122 -321.5t294 -132.5z" />
<glyph unicode="&#xf6;" horiz-adv-x="1212" d="M422 1311v180h90v-180h-90zM700 1311v180h91v-180h-91zM86 530q0 111 40 212.5t109 176.5t166 119.5t205 44.5q143 0 263.5 -75.5t188.5 -202.5t68 -275q0 -147 -67.5 -273t-187.5 -201.5t-265 -75.5q-146 0 -266 75.5t-187 201.5t-67 273zM604 72q172 0 295 135t123 325 q0 92 -33.5 177t-89.5 146.5t-132.5 98.5t-160.5 37q-170 0 -294 -137.5t-124 -327.5q0 -189 122 -321.5t294 -132.5z" />
<glyph unicode="&#xf7;" horiz-adv-x="1105" d="M508 807v166h90v-166h-90zM141 526v88h826v-88h-826zM508 166v164h90v-164h-90z" />
<glyph unicode="&#xf8;" horiz-adv-x="1212" d="M936 958q89 -77 139.5 -189.5t50.5 -238.5q0 -147 -67.5 -273t-187.5 -201.5t-265 -75.5t-268 77l-43 -59h-96l77 104q-90 77 -140 189t-50 239q0 111 40 212.5t109 176.5t166 119.5t205 44.5q143 0 266 -77l43 61h99zM188 526q0 -102 39.5 -193t108.5 -155l479 750 q-94 63 -209 63q-170 0 -294 -137.5t-124 -327.5zM604 72q172 0 295 135t123 325q0 101 -39 192t-106 155l-482 -746q95 -61 209 -61z" />
<glyph unicode="&#xf9;" horiz-adv-x="1202" d="M416 1495h116l127 -174l-69 -33zM150 451v614h102v-600q0 -393 268 -393q135 0 251 89t163 232v672h102v-930q0 -48 43 -51v-84q-35 -3 -51 0q-34 5 -57.5 31t-24.5 61l-2 160q-69 -127 -191 -199.5t-264 -72.5q-167 0 -253 119t-86 352z" />
<glyph unicode="&#xfa;" horiz-adv-x="1202" d="M623 1288l-72 33l125 174h119zM150 451v614h102v-600q0 -393 268 -393q135 0 251 89t163 232v672h102v-930q0 -48 43 -51v-84q-35 -3 -51 0q-34 5 -57.5 31t-24.5 61l-2 160q-69 -127 -191 -199.5t-264 -72.5q-167 0 -253 119t-86 352z" />
<glyph unicode="&#xfb;" horiz-adv-x="1202" d="M352 1329l197 166h76l198 -166l-61 -35l-174 129l-174 -129zM150 451v614h102v-600q0 -393 268 -393q135 0 251 89t163 232v672h102v-930q0 -48 43 -51v-84q-35 -3 -51 0q-34 5 -57.5 31t-24.5 61l-2 160q-69 -127 -191 -199.5t-264 -72.5q-167 0 -253 119t-86 352z" />
<glyph unicode="&#xfc;" horiz-adv-x="1202" d="M403 1311v180h91v-180h-91zM682 1311v180h90v-180h-90zM150 451v614h102v-600q0 -393 268 -393q135 0 251 89t163 232v672h102v-930q0 -48 43 -51v-84q-35 -3 -51 0q-34 5 -57.5 31t-24.5 61l-2 160q-69 -127 -191 -199.5t-264 -72.5q-167 0 -253 119t-86 352z" />
<glyph unicode="&#xfd;" horiz-adv-x="1105" d="M600 1288l-72 33l125 174h119zM231 -360q78 -4 97 8q27 7 58.5 68t123.5 284l-475 1065h108l422 -956l391 956h105l-584 -1401q-44 -111 -160 -117q-33 -5 -86 -2v95z" />
<glyph unicode="&#xfe;" horiz-adv-x="1234" d="M631 -29q-113 0 -212.5 59t-154.5 148v-614h-104v1890h104v-592q161 223 385 223q91 0 172 -32.5t140.5 -87.5t102.5 -126.5t65 -151t22 -159.5q-2 -109 -43 -210.5t-109.5 -178t-165 -122.5t-202.5 -46zM645 991q-125 0 -223.5 -77t-157.5 -195v-369q0 -70 60 -137 t145 -106t160 -39q89 0 168 39t133 103.5t85.5 147.5t31.5 170q0 121 -49.5 226t-143 171t-209.5 66z" />
<glyph unicode="&#xff;" horiz-adv-x="1105" d="M381 1311v180h90v-180h-90zM659 1311v180h91v-180h-91zM231 -360q78 -4 97 8q27 7 58.5 68t123.5 284l-475 1065h108l422 -956l391 956h105l-584 -1401q-44 -111 -160 -117q-33 -5 -86 -2v95z" />
<glyph unicode="&#x100;" horiz-adv-x="1382" d="M401 1759v76h584v-76h-584zM647 1454h90l615 -1454h-111l-203 479h-694l-203 -479h-112zM1010 565l-318 762l-323 -762h641z" />
<glyph unicode="&#x101;" horiz-adv-x="1099" d="M244 1376v76h583v-76h-583zM72 307q0 141 124 229.5t322 88.5q177 0 328 -54v101q0 148 -86.5 235.5t-233.5 87.5q-158 0 -342 -127l-43 74q210 141 396 141q190 0 300.5 -112.5t110.5 -306.5v-529q0 -48 45 -51v-84q-45 -3 -51 -2q-38 4 -60 31t-24 61v84 q-73 -91 -189 -142.5t-243 -51.5q-152 0 -253 94t-101 233zM805 219q41 50 41 96v177q-143 57 -318 57q-162 0 -260 -64.5t-98 -171.5q0 -104 77.5 -178t198.5 -74q113 0 210 43.5t149 114.5z" />
<glyph unicode="&#x102;" horiz-adv-x="1382" d="M807 1878h67q0 -78 -54 -133t-128 -55q-75 0 -128.5 55t-53.5 133h68q0 -51 35 -91t79 -40q42 0 75.5 38t39.5 93zM647 1454h90l615 -1454h-111l-203 479h-694l-203 -479h-112zM1010 565l-318 762l-323 -762h641z" />
<glyph unicode="&#x103;" horiz-adv-x="1099" d="M649 1495h68q0 -78 -54 -133t-128 -55q-75 0 -129 55t-54 133h68q0 -51 35.5 -91t79.5 -40q41 0 74.5 38t39.5 93zM72 307q0 141 124 229.5t322 88.5q177 0 328 -54v101q0 148 -86.5 235.5t-233.5 87.5q-158 0 -342 -127l-43 74q210 141 396 141q190 0 300.5 -112.5 t110.5 -306.5v-529q0 -48 45 -51v-84q-45 -3 -51 -2q-38 4 -60 31t-24 61v84q-73 -91 -189 -142.5t-243 -51.5q-152 0 -253 94t-101 233zM805 219q41 50 41 96v177q-143 57 -318 57q-162 0 -260 -64.5t-98 -171.5q0 -104 77.5 -178t198.5 -74q113 0 210 43.5t149 114.5z" />
<glyph unicode="&#x104;" horiz-adv-x="1382" d="M1194 -197q0 -39 35.5 -59.5t116.5 -32.5l-31 -69q-199 23 -199 147q0 101 137 211h-12l-203 479h-694l-203 -479h-112l618 1454h90l615 -1454q-85 -65 -121.5 -110.5t-36.5 -86.5zM369 565h641l-318 762z" />
<glyph unicode="&#x105;" horiz-adv-x="1099" d="M993 0q-84 -64 -120.5 -110t-36.5 -87q0 -39 35 -59.5t116 -32.5l-31 -69q-110 13 -154 51t-44 96q0 106 149 219q-45 23 -49 82v84q-73 -91 -189 -142.5t-243 -51.5q-152 0 -253 94t-101 233q0 141 124 229.5t322 88.5q177 0 328 -54v101q0 148 -86.5 235.5t-233.5 87.5 q-158 0 -342 -127l-43 74q210 141 396 141q190 0 300.5 -112.5t110.5 -306.5v-529q0 -48 45 -51v-84zM846 315v177q-143 57 -318 57q-162 0 -260 -64.5t-98 -171.5q0 -104 77.5 -178t198.5 -74q113 0 210 43.5t149 114.5q41 50 41 96z" />
<glyph unicode="&#x106;" horiz-adv-x="1413" d="M811 1671l-72 33l125 174h119zM778 1462q187 0 327 -86.5t210 -230.5l-86 -49q-49 96 -127 158.5t-159.5 87t-172.5 24.5q-133 0 -244.5 -56t-182 -147t-109.5 -203t-39 -229q0 -170 76 -318.5t210.5 -238.5t294.5 -90q92 0 180 28.5t169.5 95t129.5 161.5l91 -43 q-46 -105 -142 -183.5t-209 -116.5t-227 -38q-144 0 -272.5 65t-216 171t-138.5 240.5t-51 272.5q0 133 47 261.5t132.5 232t218.5 167.5t290 64z" />
<glyph unicode="&#x107;" horiz-adv-x="1116" d="M641 1288l-72 33l125 174h119zM612 -20q-146 0 -267.5 75.5t-190 203.5t-68.5 278t66.5 275t187.5 198t270 73q144 0 255 -65.5t167 -181.5l-100 -33q-47 88 -134.5 138t-191.5 50q-176 0 -297 -130.5t-121 -323.5q0 -192 124 -328.5t296 -136.5q110 0 210.5 59 t125.5 137l100 -28q-41 -113 -162.5 -186.5t-269.5 -73.5z" />
<glyph unicode="&#x108;" horiz-adv-x="1413" d="M541 1712l196 166h76l199 -166l-62 -35l-174 129l-174 -129zM778 1462q187 0 327 -86.5t210 -230.5l-86 -49q-49 96 -127 158.5t-159.5 87t-172.5 24.5q-133 0 -244.5 -56t-182 -147t-109.5 -203t-39 -229q0 -170 76 -318.5t210.5 -238.5t294.5 -90q92 0 180 28.5 t169.5 95t129.5 161.5l91 -43q-46 -105 -142 -183.5t-209 -116.5t-227 -38q-144 0 -272.5 65t-216 171t-138.5 240.5t-51 272.5q0 133 47 261.5t132.5 232t218.5 167.5t290 64z" />
<glyph unicode="&#x109;" horiz-adv-x="1116" d="M371 1329l196 166h76l199 -166l-62 -35l-174 129l-174 -129zM612 -20q-146 0 -267.5 75.5t-190 203.5t-68.5 278t66.5 275t187.5 198t270 73q144 0 255 -65.5t167 -181.5l-100 -33q-47 88 -134.5 138t-191.5 50q-176 0 -297 -130.5t-121 -323.5q0 -192 124 -328.5 t296 -136.5q110 0 210.5 59t125.5 137l100 -28q-41 -113 -162.5 -186.5t-269.5 -73.5z" />
<glyph unicode="&#x10a;" horiz-adv-x="1413" d="M729 1694v184h94v-184h-94zM778 1462q187 0 327 -86.5t210 -230.5l-86 -49q-49 96 -127 158.5t-159.5 87t-172.5 24.5q-133 0 -244.5 -56t-182 -147t-109.5 -203t-39 -229q0 -170 76 -318.5t210.5 -238.5t294.5 -90q92 0 180 28.5t169.5 95t129.5 161.5l91 -43 q-46 -105 -142 -183.5t-209 -116.5t-227 -38q-144 0 -272.5 65t-216 171t-138.5 240.5t-51 272.5q0 133 47 261.5t132.5 232t218.5 167.5t290 64z" />
<glyph unicode="&#x10b;" horiz-adv-x="1116" d="M559 1311v184h94v-184h-94zM612 -20q-146 0 -267.5 75.5t-190 203.5t-68.5 278t66.5 275t187.5 198t270 73q144 0 255 -65.5t167 -181.5l-100 -33q-47 88 -134.5 138t-191.5 50q-176 0 -297 -130.5t-121 -323.5q0 -192 124 -328.5t296 -136.5q110 0 210.5 59t125.5 137 l100 -28q-41 -113 -162.5 -186.5t-269.5 -73.5z" />
<glyph unicode="&#x10c;" horiz-adv-x="1413" d="M602 1878l174 -129l174 129l62 -35l-199 -166h-76l-196 166zM778 1462q187 0 327 -86.5t210 -230.5l-86 -49q-49 96 -127 158.5t-159.5 87t-172.5 24.5q-133 0 -244.5 -56t-182 -147t-109.5 -203t-39 -229q0 -170 76 -318.5t210.5 -238.5t294.5 -90q92 0 180 28.5 t169.5 95t129.5 161.5l91 -43q-46 -105 -142 -183.5t-209 -116.5t-227 -38q-144 0 -272.5 65t-216 171t-138.5 240.5t-51 272.5q0 133 47 261.5t132.5 232t218.5 167.5t290 64z" />
<glyph unicode="&#x10d;" horiz-adv-x="1116" d="M432 1495l174 -129l174 129l62 -35l-199 -166h-76l-196 166zM612 -20q-146 0 -267.5 75.5t-190 203.5t-68.5 278t66.5 275t187.5 198t270 73q144 0 255 -65.5t167 -181.5l-100 -33q-47 88 -134.5 138t-191.5 50q-176 0 -297 -130.5t-121 -323.5q0 -192 124 -328.5 t296 -136.5q110 0 210.5 59t125.5 137l100 -28q-41 -113 -162.5 -186.5t-269.5 -73.5z" />
<glyph unicode="&#x10e;" horiz-adv-x="1460" d="M537 1878l174 -129l174 129l61 -35l-198 -166h-76l-197 166zM190 0v1454h484q135 0 248.5 -37t194 -103t137 -157t83.5 -199t27 -229q0 -331 -187 -530t-503 -199h-484zM674 1360h-379v-1266h379q140 0 252.5 48.5t185 134t110.5 201t38 251.5q0 185 -67.5 326.5 t-201.5 223t-317 81.5z" />
<glyph unicode="&#x10f;" horiz-adv-x="1259" d="M86 530q0 148 62.5 274.5t175.5 202.5t251 76q131 0 240.5 -70t175.5 -179v661h103v-1360q0 -48 43 -51v-84q-40 -3 -50 -2q-36 6 -61 34t-25 62v119q-65 -106 -175 -169.5t-228 -63.5q-144 0 -263 78.5t-184 204.5t-65 267zM1245 1288l-71 33l124 174h119zM991 358v351 q-42 116 -158.5 199t-234.5 83q-90 0 -168 -39.5t-129.5 -104.5t-81 -148t-29.5 -171q0 -121 56.5 -225.5t155 -167.5t214.5 -63q75 0 158.5 38t145.5 105.5t71 142.5z" />
<glyph unicode="&#x110;" horiz-adv-x="1474" d="M688 1454q135 0 248.5 -37t194 -103t137 -157t83.5 -199t27 -229q0 -331 -187 -530t-503 -199h-483v688h-133v86h133v680h483zM688 94q140 0 252.5 48.5t185 134t110.5 201t38 251.5q0 185 -67.5 326.5t-201.5 223t-317 81.5h-379v-586h365v-86h-365v-594h379z" />
<glyph unicode="&#x111;" horiz-adv-x="1259" d="M1241 1276h-147v-1141q0 -48 43 -51v-84q-40 -3 -50 -2q-36 6 -61 34t-25 62v119q-65 -106 -175 -169.5t-228 -63.5q-144 0 -263 78.5t-184 204.5t-65 267q0 148 62.5 274.5t175.5 202.5t251 76q131 0 240.5 -70t175.5 -179v442h-241v74h241v145h103v-145h147v-74z M991 358v351q-42 116 -158.5 199t-234.5 83q-90 0 -168 -39.5t-129.5 -104.5t-81 -148t-29.5 -171q0 -121 56.5 -225.5t155 -167.5t214.5 -63q75 0 158.5 38t145.5 105.5t71 142.5z" />
<glyph unicode="&#x112;" d="M406 1759v76h583v-76h-583zM1159 94v-94h-969v1454h951v-94h-846v-572h739v-90h-739v-604h864z" />
<glyph unicode="&#x113;" horiz-adv-x="1193" d="M313 1376v76h584v-76h-584zM612 -20q-146 0 -267.5 75.5t-190 203.5t-68.5 278q0 149 67.5 274t187 198.5t265.5 73.5q147 0 267.5 -74.5t187.5 -199.5t67 -272q0 -35 -2 -45h-933q13 -184 135 -307.5t288 -123.5q111 0 209.5 57.5t137.5 147.5l90 -24 q-46 -114 -170 -188t-271 -74zM188 571h842q-13 187 -133 307.5t-289 120.5q-170 0 -290 -121.5t-130 -306.5z" />
<glyph unicode="&#x114;" d="M811 1878h68q0 -77 -54.5 -132.5t-128.5 -55.5q-75 0 -128.5 55t-53.5 133h68q0 -51 35 -91t79 -40q42 0 75.5 38t39.5 93zM1159 94v-94h-969v1454h951v-94h-846v-572h739v-90h-739v-604h864z" />
<glyph unicode="&#x115;" horiz-adv-x="1193" d="M719 1495h67q0 -78 -54 -133t-128 -55q-75 0 -128.5 55t-53.5 133h67q0 -51 35.5 -91t79.5 -40q42 0 75.5 38t39.5 93zM612 -20q-146 0 -267.5 75.5t-190 203.5t-68.5 278q0 149 67.5 274t187 198.5t265.5 73.5q147 0 267.5 -74.5t187.5 -199.5t67 -272q0 -35 -2 -45 h-933q13 -184 135 -307.5t288 -123.5q111 0 209.5 57.5t137.5 147.5l90 -24q-46 -114 -170 -188t-271 -74zM188 571h842q-13 187 -133 307.5t-289 120.5q-170 0 -290 -121.5t-130 -306.5z" />
<glyph unicode="&#x116;" d="M649 1694v184h94v-184h-94zM1159 94v-94h-969v1454h951v-94h-846v-572h739v-90h-739v-604h864z" />
<glyph unicode="&#x117;" horiz-adv-x="1193" d="M557 1311v184h94v-184h-94zM612 -20q-146 0 -267.5 75.5t-190 203.5t-68.5 278q0 149 67.5 274t187 198.5t265.5 73.5q147 0 267.5 -74.5t187.5 -199.5t67 -272q0 -35 -2 -45h-933q13 -184 135 -307.5t288 -123.5q111 0 209.5 57.5t137.5 147.5l90 -24 q-46 -114 -170 -188t-271 -74zM188 571h842q-13 187 -133 307.5t-289 120.5q-170 0 -290 -121.5t-130 -306.5z" />
<glyph unicode="&#x118;" d="M1159 0q-85 -65 -121.5 -110.5t-36.5 -86.5q0 -39 35.5 -59.5t116.5 -32.5l-31 -69q-110 13 -154 51t-44 96q0 101 137 211h-871v1454h951v-94h-846v-572h739v-90h-739v-604h864v-94z" />
<glyph unicode="&#x119;" horiz-adv-x="1193" d="M1128 537q0 -35 -2 -45h-933q13 -184 135 -307.5t288 -123.5q111 0 209.5 57.5t137.5 147.5l90 -24q-35 -87 -116.5 -151.5t-188.5 -92.5q-83 -65 -118.5 -109.5t-35.5 -85.5q0 -39 35 -59.5t116 -32.5l-30 -69q-199 23 -199 147q0 93 113 191h-17q-146 0 -267.5 75.5 t-190 203.5t-68.5 278q0 149 67.5 274t187 198.5t265.5 73.5q147 0 267.5 -74.5t187.5 -199.5t67 -272zM188 571h842q-13 187 -133 307.5t-289 120.5q-170 0 -290 -121.5t-130 -306.5z" />
<glyph unicode="&#x11a;" d="M522 1878l174 -129l174 129l62 -35l-199 -166h-76l-196 166zM1159 94v-94h-969v1454h951v-94h-846v-572h739v-90h-739v-604h864z" />
<glyph unicode="&#x11b;" horiz-adv-x="1193" d="M430 1495l174 -129l174 129l62 -35l-199 -166h-76l-196 166zM612 -20q-146 0 -267.5 75.5t-190 203.5t-68.5 278q0 149 67.5 274t187 198.5t265.5 73.5q147 0 267.5 -74.5t187.5 -199.5t67 -272q0 -35 -2 -45h-933q13 -184 135 -307.5t288 -123.5q111 0 209.5 57.5 t137.5 147.5l90 -24q-46 -114 -170 -188t-271 -74zM188 571h842q-13 187 -133 307.5t-289 120.5q-170 0 -290 -121.5t-130 -306.5z" />
<glyph unicode="&#x11c;" horiz-adv-x="1468" d="M758 1806l-174 -129l-62 35l197 166h76l198 -166l-61 -35zM932 707h420v-707h-90v227q-212 -237 -490 -237q-144 0 -272.5 64t-217 168t-140.5 237t-52 270q0 143 50.5 277t138 235t213.5 162t268 61q395 0 555 -317l-86 -51q-140 272 -471 272q-126 0 -233.5 -55 t-178.5 -145t-111 -205t-40 -236q0 -169 77 -316.5t212 -236t294 -88.5q270 0 484 256v281h-330v84z" />
<glyph unicode="&#x11d;" d="M381 1329l197 166h75l199 -166l-61 -35l-175 129l-174 -129zM86 530q0 146 62 272t177 203.5t257 77.5q245 0 417 -249v231h95v-1085q0 -105 -40.5 -189.5t-110 -138t-159.5 -81.5t-192 -28q-177 0 -289 63t-184 183l69 47q61 -104 168.5 -156.5t235.5 -52.5q82 0 154 23 t127 66t86.5 111t31.5 153v233q-65 -103 -174 -166t-227 -63q-142 0 -259 78.5t-181 203t-64 264.5zM991 358v351q-47 123 -158.5 202.5t-234.5 79.5q-92 0 -171 -41t-129.5 -107t-79 -148t-28.5 -167q0 -185 124.5 -320.5t299.5 -135.5q87 0 172 43t140 109t65 134z" />
<glyph unicode="&#x11e;" horiz-adv-x="1468" d="M758 1690q-75 0 -129 55t-54 133h68q0 -51 35.5 -91t79.5 -40q41 0 74.5 38t39.5 93h68q0 -78 -54 -133t-128 -55zM932 707h420v-707h-90v227q-212 -237 -490 -237q-144 0 -272.5 64t-217 168t-140.5 237t-52 270q0 143 50.5 277t138 235t213.5 162t268 61 q395 0 555 -317l-86 -51q-140 272 -471 272q-126 0 -233.5 -55t-178.5 -145t-111 -205t-40 -236q0 -169 77 -316.5t212 -236t294 -88.5q270 0 484 256v281h-330v84z" />
<glyph unicode="&#x11f;" d="M731 1495h68q0 -77 -54.5 -132.5t-128.5 -55.5q-75 0 -128.5 55t-53.5 133h68q0 -51 35 -91t79 -40q42 0 75.5 38t39.5 93zM86 530q0 146 62 272t177 203.5t257 77.5q245 0 417 -249v231h95v-1085q0 -105 -40.5 -189.5t-110 -138t-159.5 -81.5t-192 -28q-177 0 -289 63 t-184 183l69 47q61 -104 168.5 -156.5t235.5 -52.5q82 0 154 23t127 66t86.5 111t31.5 153v233q-65 -103 -174 -166t-227 -63q-142 0 -259 78.5t-181 203t-64 264.5zM991 358v351q-47 123 -158.5 202.5t-234.5 79.5q-92 0 -171 -41t-129.5 -107t-79 -148t-28.5 -167 q0 -185 124.5 -320.5t299.5 -135.5q87 0 172 43t140 109t65 134z" />
<glyph unicode="&#x120;" horiz-adv-x="1468" d="M805 1878v-184h-94v184h94zM932 707h420v-707h-90v227q-212 -237 -490 -237q-144 0 -272.5 64t-217 168t-140.5 237t-52 270q0 143 50.5 277t138 235t213.5 162t268 61q395 0 555 -317l-86 -51q-140 272 -471 272q-126 0 -233.5 -55t-178.5 -145t-111 -205t-40 -236 q0 -169 77 -316.5t212 -236t294 -88.5q270 0 484 256v281h-330v84z" />
<glyph unicode="&#x121;" d="M569 1311v184h95v-184h-95zM86 530q0 146 62 272t177 203.5t257 77.5q245 0 417 -249v231h95v-1085q0 -105 -40.5 -189.5t-110 -138t-159.5 -81.5t-192 -28q-177 0 -289 63t-184 183l69 47q61 -104 168.5 -156.5t235.5 -52.5q82 0 154 23t127 66t86.5 111t31.5 153v233 q-65 -103 -174 -166t-227 -63q-142 0 -259 78.5t-181 203t-64 264.5zM991 358v351q-47 123 -158.5 202.5t-234.5 79.5q-92 0 -171 -41t-129.5 -107t-79 -148t-28.5 -167q0 -185 124.5 -320.5t299.5 -135.5q87 0 172 43t140 109t65 134z" />
<glyph unicode="&#x122;" horiz-adv-x="1468" d="M932 707h420v-707h-90v227q-212 -237 -490 -237q-144 0 -272.5 64t-217 168t-140.5 237t-52 270q0 143 50.5 277t138 235t213.5 162t268 61q395 0 555 -317l-86 -51q-140 272 -471 272q-126 0 -233.5 -55t-178.5 -145t-111 -205t-40 -236q0 -169 77 -316.5t212 -236 t294 -88.5q270 0 484 256v281h-330v84zM721 -244v144h100v-144l-43 -139h-55l31 139h-33z" />
<glyph unicode="&#x123;" d="M662 1495l-31 -127h33v-135h-101v135l43 127h56zM86 530q0 146 62 272t177 203.5t257 77.5q245 0 417 -249v231h95v-1085q0 -105 -40.5 -189.5t-110 -138t-159.5 -81.5t-192 -28q-177 0 -289 63t-184 183l69 47q61 -104 168.5 -156.5t235.5 -52.5q82 0 154 23t127 66 t86.5 111t31.5 153v233q-65 -103 -174 -166t-227 -63q-142 0 -259 78.5t-181 203t-64 264.5zM991 358v351q-47 123 -158.5 202.5t-234.5 79.5q-92 0 -171 -41t-129.5 -107t-79 -148t-28.5 -167q0 -185 124.5 -320.5t299.5 -135.5q87 0 172 43t140 109t65 134z" />
<glyph unicode="&#x124;" horiz-adv-x="1505" d="M522 1712l197 166h76l198 -166l-61 -35l-174 129l-174 -129zM1317 1454v-1454h-105v696h-917v-696h-105v1454h105v-663h917v663h105z" />
<glyph unicode="&#x125;" horiz-adv-x="1179" d="M401 1718l197 166h76l198 -166l-61 -35l-174 129l-174 -129zM1030 0h-102v594q0 395 -264 395q-130 0 -246 -95t-156 -235v-659h-102v1495h102v-684q64 124 181 198t249 74q172 0 255 -122.5t83 -348.5v-612z" />
<glyph unicode="&#x126;" horiz-adv-x="1525" d="M1430 1194v-82h-103v-1112h-104v696h-918v-696h-104v1112h-103v82h103v260h104v-260h918v260h104v-260h103zM1223 791v321h-918v-321h918z" />
<glyph unicode="&#x127;" horiz-adv-x="1179" d="M692 1083q172 0 255 -122.5t83 -348.5v-612h-102v594q0 395 -264 395q-130 0 -246 -95t-156 -235v-659h-102v1276h-135v74h135v145h102v-145h256v-74h-256v-465q64 124 181 198t249 74z" />
<glyph unicode="&#x128;" horiz-adv-x="485" d="M104 1790q-31 0 -53.5 -13.5t-32 -32.5t-13 -32t-3.5 -20h-70q0 14 7 37.5t23.5 55.5t53.5 54.5t88 22.5q57 0 134 -41t127 -41q31 0 54 9.5t34 22.5t18 28.5t8.5 24t1.5 13.5h72q0 -10 -4 -27.5t-16.5 -43t-32 -47t-55 -37t-80.5 -15.5q-52 0 -99 20.5t-87 41t-75 20.5z M190 0v1454h105v-1454h-105z" />
<glyph unicode="&#x129;" horiz-adv-x="423" d="M74 1407q-31 0 -53.5 -13.5t-32 -32.5t-13.5 -32t-4 -20h-69q0 14 7 37.5t23.5 55.5t53.5 54.5t88 22.5q57 0 133.5 -41t126.5 -41q31 0 54 9.5t34.5 22.5t18.5 28.5t8.5 24t1.5 13.5h71q0 -10 -4 -27.5t-16.5 -43t-32 -47t-55 -37t-80.5 -15.5q-52 0 -99 20.5t-86.5 41 t-74.5 20.5zM160 0v1065h102v-1065h-102z" />
<glyph unicode="&#x12a;" horiz-adv-x="485" d="M-49 1759v76h584v-76h-584zM190 0v1454h105v-1454h-105z" />
<glyph unicode="&#x12b;" horiz-adv-x="423" d="M-80 1376v76h584v-76h-584zM160 0v1065h102v-1065h-102z" />
<glyph unicode="&#x12c;" horiz-adv-x="485" d="M356 1878h68q0 -78 -54 -133t-128 -55q-75 0 -129 55t-54 133h68q0 -51 35.5 -91t79.5 -40q41 0 74.5 38t39.5 93zM190 0v1454h105v-1454h-105z" />
<glyph unicode="&#x12d;" horiz-adv-x="423" d="M326 1495h67q0 -78 -54 -133t-128 -55q-75 0 -128.5 55t-53.5 133h67q0 -51 35.5 -91t79.5 -40q42 0 75.5 38t39.5 93zM160 0v1065h102v-1065h-102z" />
<glyph unicode="&#x12e;" horiz-adv-x="485" d="M295 0q-85 -65 -121.5 -110.5t-36.5 -86.5q0 -39 35.5 -59.5t116.5 -32.5l-31 -69q-199 23 -199 147q0 100 138 211h-7v1454h105v-1454z" />
<glyph unicode="&#x12f;" horiz-adv-x="423" d="M160 1495h102v-188h-102v188zM160 0v1065h102v-1065q-85 -65 -121.5 -110.5t-36.5 -86.5q0 -39 35.5 -59.5t116.5 -32.5l-31 -69q-110 13 -154 51t-44 96q0 101 137 211h-4z" />
<glyph unicode="&#x130;" horiz-adv-x="485" d="M195 1694v184h94v-184h-94zM190 0v1454h105v-1454h-105z" />
<glyph unicode="&#x131;" horiz-adv-x="423" d="M160 0v1065h102v-1065h-102z" />
<glyph unicode="&#x134;" horiz-adv-x="978" d="M520 1712l197 166h76l198 -166l-61 -35l-174 129l-174 -129zM66 152q114 -78 282 -78q66 0 117 14t88.5 38.5t63.5 66t42.5 89t26 115.5t13 137t3.5 162v758h105v-739q0 -102 -4 -179.5t-16 -158t-32.5 -137.5t-54.5 -109.5t-81.5 -84.5t-114.5 -50.5t-152 -18.5 q-186 0 -319 91z" />
<glyph unicode="&#x135;" horiz-adv-x="423" d="M-25 1329l197 166h76l198 -166l-61 -35l-174 129l-174 -129zM-258 -287l55 68q54 -49 158 -49q78 0 141.5 60.5t63.5 146.5v1126h102v-1122q0 -129 -91 -217t-208 -88q-143 0 -221 75z" />
<glyph unicode="&#x136;" horiz-adv-x="1300" d="M190 0v1454h105v-883l848 883h121l-605 -637l635 -817h-120l-584 752l-295 -303v-449h-105zM612 -383l31 139h-33v144h101v-144l-43 -139h-56z" />
<glyph unicode="&#x137;" horiz-adv-x="1069" d="M930 0l-416 569l-252 -231v-338h-102v1495h102v-1042l649 610h117l-444 -432l458 -631h-112zM504 -383l31 139h-33v144h100v-144l-43 -139h-55z" />
<glyph unicode="&#x138;" horiz-adv-x="1069" d="M930 0l-416 569l-252 -231v-338h-102v1065h102v-614l647 612h119l-444 -432l458 -631h-112z" />
<glyph unicode="&#x139;" horiz-adv-x="1189" d="M274 1675l-71 33l125 174h118zM190 0v1454h105v-1360h868v-94h-973z" />
<glyph unicode="&#x13a;" horiz-adv-x="530" d="M256 1677l-72 33l125 174h119zM168 1495h104v-1284q0 -129 111 -129q65 0 129 22l20 -84q-84 -32 -174 -32q-86 0 -138 52t-52 140v1315z" />
<glyph unicode="&#x13b;" horiz-adv-x="1189" d="M190 0v1454h105v-1360h868v-94h-973zM629 -383l30 139h-32v144h100v-144l-43 -139h-55z" />
<glyph unicode="&#x13c;" horiz-adv-x="530" d="M168 1495h104v-1284q0 -129 111 -129q65 0 129 22l20 -84q-84 -32 -174 -32q-86 0 -138 52t-52 140v1315zM295 -383l31 139h-33v144h100v-144l-43 -139h-55z" />
<glyph unicode="&#x13d;" horiz-adv-x="1189" d="M850 1300l-72 33l125 174h119zM190 0v1454h105v-1360h868v-94h-973z" />
<glyph unicode="&#x13e;" horiz-adv-x="530" d="M168 1495h104v-1284q0 -129 111 -129q65 0 129 22l20 -84q-84 -32 -174 -32q-86 0 -138 52t-52 140v1315zM440 1288l-71 33l125 174h118z" />
<glyph unicode="&#x13f;" horiz-adv-x="1189" d="M190 0v1454h105v-1360h868v-94h-973zM750 723v207h90v-207h-90z" />
<glyph unicode="&#x140;" horiz-adv-x="598" d="M168 1495h104v-1284q0 -129 111 -129q65 0 129 22l20 -84q-84 -32 -174 -32q-86 0 -138 52t-52 140v1315zM473 508v207h90v-207h-90z" />
<glyph unicode="&#x141;" horiz-adv-x="1204" d="M309 94h869v-94h-973v573l-123 -110l-39 63l162 144v784h104v-690l342 305l39 -61l-381 -342v-572z" />
<glyph unicode="&#x142;" horiz-adv-x="567" d="M547 104l20 -84q-84 -32 -174 -32q-86 0 -138 52t-52 140v541l-137 -117l-41 60l178 153v678h104v-588l185 158l40 -61l-225 -193v-600q0 -129 111 -129q65 0 129 22z" />
<glyph unicode="&#x143;" horiz-adv-x="1583" d="M834 1671l-72 33l125 174h119zM295 1260v-1260h-105v1454h86l1014 -1280v1280h105v-1454h-103z" />
<glyph unicode="&#x144;" horiz-adv-x="1179" d="M629 1288l-72 33l125 174h119zM1030 0h-102v594q0 205 -59 300t-185 95q-136 0 -258.5 -95t-163.5 -235v-659h-102v1065h96v-254q65 122 190.5 197t266.5 75q168 0 242.5 -118.5t74.5 -352.5v-612z" />
<glyph unicode="&#x145;" horiz-adv-x="1583" d="M295 1260v-1260h-105v1454h86l1014 -1280v1280h105v-1454h-103zM748 -383l30 139h-33v144h101v-144l-43 -139h-55z" />
<glyph unicode="&#x146;" horiz-adv-x="1179" d="M1030 0h-102v594q0 205 -59 300t-185 95q-136 0 -258.5 -95t-163.5 -235v-659h-102v1065h96v-254q65 122 190.5 197t266.5 75q168 0 242.5 -118.5t74.5 -352.5v-612zM532 -383l31 139h-33v144h101v-144l-43 -139h-56z" />
<glyph unicode="&#x147;" horiz-adv-x="1583" d="M625 1878l174 -129l174 129l61 -35l-198 -166h-76l-197 166zM295 1260v-1260h-105v1454h86l1014 -1280v1280h105v-1454h-103z" />
<glyph unicode="&#x148;" horiz-adv-x="1179" d="M420 1495l174 -129l174 129l61 -35l-198 -166h-76l-197 166zM1030 0h-102v594q0 205 -59 300t-185 95q-136 0 -258.5 -95t-163.5 -235v-659h-102v1065h96v-254q65 122 190.5 197t266.5 75q168 0 242.5 -118.5t74.5 -352.5v-612z" />
<glyph unicode="&#x14a;" horiz-adv-x="1576" d="M295 1255v-1255h-105v1454h80l1012 -1276v1274h104v-1511q0 -128 -92.5 -215.5t-206.5 -87.5q-143 0 -223 75l56 68q57 -49 157 -49q78 0 142.5 60.5t64.5 146.5v69z" />
<glyph unicode="&#x14b;" horiz-adv-x="1179" d="M510 -287l55 68q57 -49 158 -49q78 0 141.5 60.5t63.5 146.5v655q0 205 -59 300t-185 95q-136 0 -258.5 -95t-163.5 -235v-659h-102v1065h96v-254q65 122 190.5 197t266.5 75q168 0 242.5 -118.5t74.5 -352.5v-669q0 -129 -91 -217t-206 -88q-145 0 -223 75z" />
<glyph unicode="&#x14c;" horiz-adv-x="1542" d="M481 1759v76h584v-76h-584zM90 727q0 143 52.5 278t142.5 236t217.5 162t269.5 61q118 0 226 -41.5t189.5 -114t142 -165.5t91.5 -200.5t31 -215.5q0 -145 -52.5 -280t-142.5 -235.5t-217.5 -161t-269.5 -60.5q-147 1 -275.5 64t-216 165.5t-138 235.5t-50.5 272zM772 86 q126 0 235.5 56t182.5 146.5t114.5 205.5t41.5 233q0 124 -43.5 241t-118.5 205t-183 141.5t-229 53.5q-126 0 -236 -55.5t-183.5 -146t-115.5 -205.5t-42 -234q0 -125 43 -241t117.5 -204.5t183.5 -142t233 -53.5z" />
<glyph unicode="&#x14d;" horiz-adv-x="1212" d="M315 1376v76h584v-76h-584zM86 530q0 111 40 212.5t109 176.5t166 119.5t205 44.5q143 0 263.5 -75.5t188.5 -202.5t68 -275q0 -147 -67.5 -273t-187.5 -201.5t-265 -75.5q-146 0 -266 75.5t-187 201.5t-67 273zM604 72q172 0 295 135t123 325q0 92 -33.5 177 t-89.5 146.5t-132.5 98.5t-160.5 37q-170 0 -294 -137.5t-124 -327.5q0 -189 122 -321.5t294 -132.5z" />
<glyph unicode="&#x14e;" horiz-adv-x="1542" d="M887 1878h67q0 -78 -54 -133t-128 -55q-75 0 -128.5 55t-53.5 133h67q0 -51 35.5 -91t79.5 -40q42 0 75.5 38t39.5 93zM90 727q0 143 52.5 278t142.5 236t217.5 162t269.5 61q118 0 226 -41.5t189.5 -114t142 -165.5t91.5 -200.5t31 -215.5q0 -145 -52.5 -280 t-142.5 -235.5t-217.5 -161t-269.5 -60.5q-147 1 -275.5 64t-216 165.5t-138 235.5t-50.5 272zM772 86q126 0 235.5 56t182.5 146.5t114.5 205.5t41.5 233q0 124 -43.5 241t-118.5 205t-183 141.5t-229 53.5q-126 0 -236 -55.5t-183.5 -146t-115.5 -205.5t-42 -234 q0 -125 43 -241t117.5 -204.5t183.5 -142t233 -53.5z" />
<glyph unicode="&#x14f;" horiz-adv-x="1212" d="M721 1495h67q0 -78 -54 -133t-128 -55q-75 0 -128.5 55t-53.5 133h68q0 -51 35 -91t79 -40q42 0 75.5 38t39.5 93zM86 530q0 111 40 212.5t109 176.5t166 119.5t205 44.5q143 0 263.5 -75.5t188.5 -202.5t68 -275q0 -147 -67.5 -273t-187.5 -201.5t-265 -75.5 q-146 0 -266 75.5t-187 201.5t-67 273zM604 72q172 0 295 135t123 325q0 92 -33.5 177t-89.5 146.5t-132.5 98.5t-160.5 37q-170 0 -294 -137.5t-124 -327.5q0 -189 122 -321.5t294 -132.5z" />
<glyph unicode="&#x150;" horiz-adv-x="1542" d="M643 1671l-59 33l121 174h108zM881 1671l-62 33l123 174h109zM90 727q0 143 52.5 278t142.5 236t217.5 162t269.5 61q118 0 226 -41.5t189.5 -114t142 -165.5t91.5 -200.5t31 -215.5q0 -145 -52.5 -280t-142.5 -235.5t-217.5 -161t-269.5 -60.5q-147 1 -275.5 64 t-216 165.5t-138 235.5t-50.5 272zM772 86q126 0 235.5 56t182.5 146.5t114.5 205.5t41.5 233q0 124 -43.5 241t-118.5 205t-183 141.5t-229 53.5q-126 0 -236 -55.5t-183.5 -146t-115.5 -205.5t-42 -234q0 -125 43 -241t117.5 -204.5t183.5 -142t233 -53.5z" />
<glyph unicode="&#x151;" horiz-adv-x="1212" d="M477 1288l-59 33l121 174h108zM715 1288l-62 33l123 174h109zM86 530q0 111 40 212.5t109 176.5t166 119.5t205 44.5q143 0 263.5 -75.5t188.5 -202.5t68 -275q0 -147 -67.5 -273t-187.5 -201.5t-265 -75.5q-146 0 -266 75.5t-187 201.5t-67 273zM604 72q172 0 295 135 t123 325q0 92 -33.5 177t-89.5 146.5t-132.5 98.5t-160.5 37q-170 0 -294 -137.5t-124 -327.5q0 -189 122 -321.5t294 -132.5z" />
<glyph unicode="&#x152;" horiz-adv-x="2402" d="M2310 94v-94h-960v410q-73 -183 -229 -301.5t-347 -118.5q-148 0 -277.5 63t-217.5 166t-138.5 235.5t-50.5 272.5q0 143 52.5 278t142.5 236t217.5 162t269.5 61q197 0 352 -120t226 -302v412h942v-94h-840v-569h729v-97h-729v-600h858zM1346 729q0 123 -43.5 239.5 t-118.5 204.5t-183 141.5t-229 53.5q-126 0 -236 -55.5t-183.5 -146t-115.5 -205.5t-42 -234q0 -125 43 -241t117.5 -204.5t183.5 -142t233 -53.5q126 0 235.5 55.5t182.5 146.5t114.5 206t41.5 235z" />
<glyph unicode="&#x153;" horiz-adv-x="2129" d="M86 528q0 152 69 279.5t189 201.5t264 74q160 0 286 -98t177 -262q53 169 178 264.5t295 95.5q218 0 359 -149.5t161 -401.5v-40h-936q15 -181 142.5 -306t300.5 -125q117 0 215 57.5t133 147.5l88 -24q-49 -116 -173 -189t-269 -73q-161 0 -295.5 99t-194.5 259 q-62 -165 -188 -261.5t-285 -96.5q-143 0 -261.5 72.5t-186.5 198.5t-68 277zM1964 567q-12 188 -132 310t-290 122q-169 0 -287 -122.5t-127 -309.5h836zM1022 530q0 192 -121 326.5t-293 134.5q-173 0 -296.5 -137t-123.5 -330q0 -190 121 -321t295 -131q175 0 296.5 133 t121.5 325z" />
<glyph unicode="&#x154;" horiz-adv-x="1329" d="M651 1677l-71 33l125 174h118zM190 0v1454h605q89 0 169.5 -39.5t135.5 -103t87 -144t32 -163.5q0 -164 -95.5 -290t-246.5 -149l362 -565h-121l-352 549h-471v-549h-105zM295 645h510q91 0 163 52t109 133.5t37 173.5q0 141 -95.5 248.5t-227.5 107.5h-496v-715z" />
<glyph unicode="&#x155;" horiz-adv-x="698" d="M426 1288l-72 33l125 174h119zM664 973q-143 -5 -251 -86.5t-151 -220.5v-666h-102v1065h98v-262q55 112 147 182.5t195 81.5q27 2 64 2v-96z" />
<glyph unicode="&#x156;" horiz-adv-x="1329" d="M190 0v1454h605q89 0 169.5 -39.5t135.5 -103t87 -144t32 -163.5q0 -164 -95.5 -290t-246.5 -149l362 -565h-121l-352 549h-471v-549h-105zM295 645h510q91 0 163 52t109 133.5t37 173.5q0 141 -95.5 248.5t-227.5 107.5h-496v-715zM608 -383l31 139h-33v144h101v-144 l-43 -139h-56z" />
<glyph unicode="&#x157;" horiz-adv-x="698" d="M664 973q-143 -5 -251 -86.5t-151 -220.5v-666h-102v1065h98v-262q55 112 147 182.5t195 81.5q27 2 64 2v-96zM156 -383l30 139h-32v144h100v-144l-43 -139h-55z" />
<glyph unicode="&#x158;" horiz-adv-x="1329" d="M442 1884l174 -129l175 129l61 -35l-199 -166h-75l-197 166zM190 0v1454h605q89 0 169.5 -39.5t135.5 -103t87 -144t32 -163.5q0 -164 -95.5 -290t-246.5 -149l362 -565h-121l-352 549h-471v-549h-105zM295 645h510q91 0 163 52t109 133.5t37 173.5q0 141 -95.5 248.5 t-227.5 107.5h-496v-715z" />
<glyph unicode="&#x159;" horiz-adv-x="698" d="M217 1495l174 -129l174 129l62 -35l-199 -166h-76l-196 166zM664 973q-143 -5 -251 -86.5t-151 -220.5v-666h-102v1065h98v-262q55 112 147 182.5t195 81.5q27 2 64 2v-96z" />
<glyph unicode="&#x15a;" horiz-adv-x="1239" d="M676 1708l-72 33l125 174h119zM1036 1212q-143 158 -399 158q-207 0 -307.5 -78.5t-100.5 -220.5q0 -56 17 -97t46.5 -70t85.5 -53t117.5 -40.5t159.5 -36.5q104 -23 174.5 -43.5t139.5 -52.5t109 -72t64.5 -98.5t24.5 -134.5q0 -187 -140.5 -286t-379.5 -99 q-339 0 -575 217l55 84q93 -98 227.5 -153.5t296.5 -55.5q192 0 299 71.5t107 208.5q0 57 -19 101.5t-52.5 77t-92.5 59t-126.5 46t-166.5 40.5q-101 22 -169 41.5t-131 49.5t-99 67t-57 91t-21 124q0 193 140 300t374 107q274 0 453 -170z" />
<glyph unicode="&#x15b;" horiz-adv-x="980" d="M537 1288l-72 33l125 174h119zM496 -20q-264 0 -426 174l47 71q165 -159 375 -159q139 0 223 58t84 159q0 90 -81 137q-56 32 -223 74q-8 2 -25 6h-1l-1 1h-1h-1h-1l-1 1h-1q-73 19 -119.5 34t-91 37.5t-68.5 49t-38.5 64t-14.5 87.5q0 149 110 229t281 80q122 0 216 -40 t145 -109l-56 -66q-48 63 -131 96t-182 33q-124 0 -204.5 -51.5t-80.5 -159.5q0 -26 6 -47t14.5 -37t28.5 -30.5t36.5 -24t50.5 -21t59 -18.5t72 -20q65 -16 101.5 -26.5t86 -26.5t76.5 -30.5t57.5 -36t45.5 -46t25.5 -57t10.5 -72.5q0 -145 -110 -229t-293 -84z" />
<glyph unicode="&#x15c;" horiz-adv-x="1239" d="M406 1749l196 166h76l199 -166l-62 -35l-174 129l-174 -129zM1036 1212q-143 158 -399 158q-207 0 -307.5 -78.5t-100.5 -220.5q0 -56 17 -97t46.5 -70t85.5 -53t117.5 -40.5t159.5 -36.5q104 -23 174.5 -43.5t139.5 -52.5t109 -72t64.5 -98.5t24.5 -134.5 q0 -187 -140.5 -286t-379.5 -99q-339 0 -575 217l55 84q93 -98 227.5 -153.5t296.5 -55.5q192 0 299 71.5t107 208.5q0 57 -19 101.5t-52.5 77t-92.5 59t-126.5 46t-166.5 40.5q-101 22 -169 41.5t-131 49.5t-99 67t-57 91t-21 124q0 193 140 300t374 107q274 0 453 -170z " />
<glyph unicode="&#x15d;" horiz-adv-x="980" d="M266 1329l197 166h76l198 -166l-61 -35l-174 129l-174 -129zM496 -20q-264 0 -426 174l47 71q165 -159 375 -159q139 0 223 58t84 159q0 90 -81 137q-56 32 -223 74q-8 2 -25 6h-1l-1 1h-1h-1h-1l-1 1h-1q-73 19 -119.5 34t-91 37.5t-68.5 49t-38.5 64t-14.5 87.5 q0 149 110 229t281 80q122 0 216 -40t145 -109l-56 -66q-48 63 -131 96t-182 33q-124 0 -204.5 -51.5t-80.5 -159.5q0 -26 6 -47t14.5 -37t28.5 -30.5t36.5 -24t50.5 -21t59 -18.5t72 -20q65 -16 101.5 -26.5t86 -26.5t76.5 -30.5t57.5 -36t45.5 -46t25.5 -57t10.5 -72.5 q0 -145 -110 -229t-293 -84z" />
<glyph unicode="&#x15e;" horiz-adv-x="1239" d="M1167 373q0 -172 -119.5 -270t-326.5 -113q54 -39 81 -81.5t27 -98.5q0 -80 -55.5 -123t-150.5 -43q-122 0 -232 55l35 63q96 -47 178 -47q152 0 152 109q0 49 -31.5 87t-97.5 77q-325 6 -555 217l55 84q93 -98 227.5 -153.5t296.5 -55.5q192 0 299 71.5t107 208.5 q0 57 -19 101.5t-52.5 77t-92.5 59t-126.5 46t-166.5 40.5q-101 22 -169 41.5t-131 49.5t-99 67t-57 91t-21 124q0 193 140 300t374 107q274 0 453 -170l-54 -82q-143 158 -399 158q-207 0 -307.5 -78.5t-100.5 -220.5q0 -56 17 -97t46.5 -70t85.5 -53t117.5 -40.5 t159.5 -36.5q104 -23 174.5 -43.5t139.5 -52.5t109 -72t64.5 -98.5t24.5 -134.5z" />
<glyph unicode="&#x15f;" horiz-adv-x="980" d="M899 293q0 -128 -86 -209t-235 -100q102 -76 102 -174q0 -80 -56 -123t-151 -43q-121 0 -231 55l34 63q96 -47 179 -47q151 0 151 109q0 87 -114 156q-260 0 -422 174l47 71q165 -159 375 -159q139 0 223 58t84 159q0 90 -81 137q-56 32 -223 74q-8 2 -25 6h-1l-1 1h-1 h-1h-1l-1 1h-1q-73 19 -119.5 34t-91 37.5t-68.5 49t-38.5 64t-14.5 87.5q0 149 110 229t281 80q122 0 216 -40t145 -109l-56 -66q-48 63 -131 96t-182 33q-124 0 -204.5 -51.5t-80.5 -159.5q0 -26 6 -47t14.5 -37t28.5 -30.5t36.5 -24t50.5 -21t59 -18.5t72 -20 q65 -16 101.5 -26.5t86 -26.5t76.5 -30.5t57.5 -36t45.5 -46t25.5 -57t10.5 -72.5z" />
<glyph unicode="&#x160;" horiz-adv-x="1239" d="M467 1915l174 -129l174 129l62 -35l-199 -166h-76l-196 166zM1036 1212q-143 158 -399 158q-207 0 -307.5 -78.5t-100.5 -220.5q0 -56 17 -97t46.5 -70t85.5 -53t117.5 -40.5t159.5 -36.5q104 -23 174.5 -43.5t139.5 -52.5t109 -72t64.5 -98.5t24.5 -134.5 q0 -187 -140.5 -286t-379.5 -99q-339 0 -575 217l55 84q93 -98 227.5 -153.5t296.5 -55.5q192 0 299 71.5t107 208.5q0 57 -19 101.5t-52.5 77t-92.5 59t-126.5 46t-166.5 40.5q-101 22 -169 41.5t-131 49.5t-99 67t-57 91t-21 124q0 193 140 300t374 107q274 0 453 -170z " />
<glyph unicode="&#x161;" horiz-adv-x="980" d="M328 1495l174 -129l174 129l61 -35l-198 -166h-76l-197 166zM496 -20q-264 0 -426 174l47 71q165 -159 375 -159q139 0 223 58t84 159q0 90 -81 137q-56 32 -223 74q-8 2 -25 6h-1l-1 1h-1h-1h-1l-1 1h-1q-73 19 -119.5 34t-91 37.5t-68.5 49t-38.5 64t-14.5 87.5 q0 149 110 229t281 80q122 0 216 -40t145 -109l-56 -66q-48 63 -131 96t-182 33q-124 0 -204.5 -51.5t-80.5 -159.5q0 -26 6 -47t14.5 -37t28.5 -30.5t36.5 -24t50.5 -21t59 -18.5t72 -20q65 -16 101.5 -26.5t86 -26.5t76.5 -30.5t57.5 -36t45.5 -46t25.5 -57t10.5 -72.5 q0 -145 -110 -229t-293 -84z" />
<glyph unicode="&#x162;" horiz-adv-x="1241" d="M1206 1360h-532v-1352q68 -44 101.5 -90.5t33.5 -107.5q0 -80 -56 -123t-151 -43q-121 0 -231 55l35 63q96 -47 178 -47q151 0 151 109q0 53 -36.5 93.5t-112.5 82.5h-17v1360h-532v94h1169v-94z" />
<glyph unicode="&#x163;" horiz-adv-x="655" d="M483 -6q115 -78 115 -184q0 -80 -56 -123t-151 -43q-121 0 -231 55l35 63q96 -47 178 -47q151 0 151 109q0 49 -31.5 87t-97.5 77q-82 5 -137 55.5t-55 134.5v803h-150v84h150v365h102v-365h248v-84h-248v-778q3 -57 41 -88t92 -31q38 0 78 11.5t58.5 21t29.5 16.5 l31 -82q-1 -1 -11 -6t-18.5 -9.5t-23.5 -11t-29 -11.5t-32.5 -10.5t-37.5 -8.5z" />
<glyph unicode="&#x164;" horiz-adv-x="1241" d="M449 1878l174 -129l174 129l61 -35l-199 -166h-75l-197 166zM1206 1360h-532v-1360h-105v1360h-532v94h1169v-94z" />
<glyph unicode="&#x165;" horiz-adv-x="655" d="M524 1288l-71 33l125 174h118zM635 51l-12 -7q-12 -6 -21 -10t-26.5 -11.5t-34.5 -13t-37.5 -10.5t-44 -8t-47.5 -3q-89 0 -149 50.5t-60 139.5v803h-150v84h150v365h102v-365h248v-84h-248v-778q3 -57 41 -88t92 -31q38 0 78 11.5t58.5 21t29.5 16.5z" />
<glyph unicode="&#x166;" horiz-adv-x="1312" d="M1241 1360h-532v-647h446v-82h-446v-631h-105v631h-446v82h446v647h-532v94h1169v-94z" />
<glyph unicode="&#x167;" horiz-adv-x="659" d="M606 133l31 -82l-12 -7q-12 -6 -21 -10t-26.5 -11.5t-34.5 -13t-37.5 -10.5t-44 -8t-47.5 -3q-89 0 -149 50.5t-60 139.5v410h-142v74h142v319h-150v84h150v365h102v-365h248v-84h-248v-319h225v-74h-225v-385q3 -57 41 -88t92 -31q38 0 78 11.5t58.5 21t29.5 16.5z" />
<glyph unicode="&#x168;" horiz-adv-x="1548" d="M639 1790q-31 0 -53.5 -13.5t-32 -32.5t-13 -32t-3.5 -20h-70q0 14 7 37.5t23.5 55.5t53.5 54.5t88 22.5q57 0 133.5 -41t126.5 -41q31 0 54 9.5t34.5 22.5t18.5 28.5t8.5 24t1.5 13.5h71q0 -10 -4 -27.5t-16.5 -43t-32 -47t-55 -37t-80.5 -15.5q-52 0 -99 20.5t-86.5 41 t-74.5 20.5zM776 -10q-134 0 -240.5 41.5t-174 110t-112 164.5t-63 198.5t-18.5 218.5v731h104v-731q0 -102 14.5 -190.5t51 -172.5t92.5 -143t144 -95t200 -36q114 0 203 36.5t144 97t91 145t50 172t14 186.5v731h104v-731q0 -121 -19.5 -226t-65 -199.5t-114 -162 t-172 -106.5t-233.5 -39z" />
<glyph unicode="&#x169;" horiz-adv-x="1202" d="M451 1407q-31 0 -53.5 -13.5t-32 -32.5t-13.5 -32t-4 -20h-69q0 14 7 37.5t23.5 55.5t53.5 54.5t88 22.5q57 0 133.5 -41t126.5 -41q31 0 54 9.5t34 22.5t18 28.5t8.5 24t1.5 13.5h72q0 -10 -4 -27.5t-16.5 -43t-32 -47t-55 -37t-80.5 -15.5q-52 0 -99 20.5t-86.5 41 t-74.5 20.5zM150 451v614h102v-600q0 -393 268 -393q135 0 251 89t163 232v672h102v-930q0 -48 43 -51v-84q-35 -3 -51 0q-34 5 -57.5 31t-24.5 61l-2 160q-69 -127 -191 -199.5t-264 -72.5q-167 0 -253 119t-86 352z" />
<glyph unicode="&#x16a;" horiz-adv-x="1548" d="M485 1759v76h584v-76h-584zM776 -10q-134 0 -240.5 41.5t-174 110t-112 164.5t-63 198.5t-18.5 218.5v731h104v-731q0 -102 14.5 -190.5t51 -172.5t92.5 -143t144 -95t200 -36q114 0 203 36.5t144 97t91 145t50 172t14 186.5v731h104v-731q0 -121 -19.5 -226t-65 -199.5 t-114 -162t-172 -106.5t-233.5 -39z" />
<glyph unicode="&#x16b;" horiz-adv-x="1202" d="M297 1376v76h584v-76h-584zM150 451v614h102v-600q0 -393 268 -393q135 0 251 89t163 232v672h102v-930q0 -48 43 -51v-84q-35 -3 -51 0q-34 5 -57.5 31t-24.5 61l-2 160q-69 -127 -191 -199.5t-264 -72.5q-167 0 -253 119t-86 352z" />
<glyph unicode="&#x16c;" horiz-adv-x="1548" d="M891 1878h67q0 -78 -54 -133t-128 -55q-75 0 -128.5 55t-53.5 133h68q0 -51 35 -91t79 -40q42 0 75.5 38t39.5 93zM776 -10q-134 0 -240.5 41.5t-174 110t-112 164.5t-63 198.5t-18.5 218.5v731h104v-731q0 -102 14.5 -190.5t51 -172.5t92.5 -143t144 -95t200 -36 q114 0 203 36.5t144 97t91 145t50 172t14 186.5v731h104v-731q0 -121 -19.5 -226t-65 -199.5t-114 -162t-172 -106.5t-233.5 -39z" />
<glyph unicode="&#x16d;" horiz-adv-x="1202" d="M702 1495h68q0 -78 -54 -133t-128 -55q-75 0 -128.5 55t-53.5 133h67q0 -51 35.5 -91t79.5 -40q41 0 74.5 38t39.5 93zM150 451v614h102v-600q0 -393 268 -393q135 0 251 89t163 232v672h102v-930q0 -48 43 -51v-84q-35 -3 -51 0q-34 5 -57.5 31t-24.5 61l-2 160 q-69 -127 -191 -199.5t-264 -72.5q-167 0 -253 119t-86 352z" />
<glyph unicode="&#x16e;" horiz-adv-x="1548" d="M776 1929q74 0 123 -47t49 -119q0 -70 -49 -117t-123 -47t-123 47t-49 117q0 72 49 119t123 47zM672 1763q0 -44 30 -74t74 -30q41 0 73 30t32 74q0 48 -30.5 76.5t-74.5 28.5t-74 -28.5t-30 -76.5zM776 -10q-134 0 -240.5 41.5t-174 110t-112 164.5t-63 198.5 t-18.5 218.5v731h104v-731q0 -102 14.5 -190.5t51 -172.5t92.5 -143t144 -95t200 -36q114 0 203 36.5t144 97t91 145t50 172t14 186.5v731h104v-731q0 -121 -19.5 -226t-65 -199.5t-114 -162t-172 -106.5t-233.5 -39z" />
<glyph unicode="&#x16f;" horiz-adv-x="1202" d="M588 1546q74 0 123 -47t49 -119q0 -70 -49 -116.5t-123 -46.5t-123 46.5t-49 116.5q0 72 49 119t123 47zM483 1380q0 -44 30.5 -74t74.5 -30q41 0 72.5 30t31.5 74q0 48 -30 76.5t-74 28.5t-74.5 -28.5t-30.5 -76.5zM150 451v614h102v-600q0 -393 268 -393q135 0 251 89 t163 232v672h102v-930q0 -48 43 -51v-84q-35 -3 -51 0q-34 5 -57.5 31t-24.5 61l-2 160q-69 -127 -191 -199.5t-264 -72.5q-167 0 -253 119t-86 352z" />
<glyph unicode="&#x170;" horiz-adv-x="1548" d="M647 1671l-59 33l121 174h108zM885 1671l-62 33l123 174h109zM776 -10q-134 0 -240.5 41.5t-174 110t-112 164.5t-63 198.5t-18.5 218.5v731h104v-731q0 -102 14.5 -190.5t51 -172.5t92.5 -143t144 -95t200 -36q114 0 203 36.5t144 97t91 145t50 172t14 186.5v731h104 v-731q0 -121 -19.5 -226t-65 -199.5t-114 -162t-172 -106.5t-233.5 -39z" />
<glyph unicode="&#x171;" horiz-adv-x="1202" d="M459 1288l-60 33l121 174h109zM696 1288l-61 33l123 174h108zM150 451v614h102v-600q0 -393 268 -393q135 0 251 89t163 232v672h102v-930q0 -48 43 -51v-84q-35 -3 -51 0q-34 5 -57.5 31t-24.5 61l-2 160q-69 -127 -191 -199.5t-264 -72.5q-167 0 -253 119t-86 352z" />
<glyph unicode="&#x172;" horiz-adv-x="1548" d="M1276 1454h104v-731q0 -109 -16 -205t-52.5 -184.5t-91.5 -156t-137.5 -114t-185.5 -63.5q-84 -65 -120 -110.5t-36 -86.5q0 -39 35.5 -59.5t116.5 -32.5l-31 -69q-110 13 -154 51t-44 96q0 98 124 201h-12q-134 0 -240.5 41.5t-174 110t-112 164.5t-63 198.5 t-18.5 218.5v731h104v-731q0 -102 14.5 -190.5t51 -172.5t92.5 -143t144 -95t200 -36q114 0 203 36.5t144 97t91 145t50 172t14 186.5v731z" />
<glyph unicode="&#x173;" horiz-adv-x="1202" d="M1079 0q-84 -64 -120.5 -110t-36.5 -87q0 -39 35 -59.5t116 -32.5l-31 -69q-110 13 -154 51t-44 96q0 103 151 221q-46 25 -49 82l-2 160q-69 -127 -191 -199.5t-264 -72.5q-167 0 -253 119t-86 352v614h102v-600q0 -393 268 -393q135 0 251 89t163 232v672h102v-930 q0 -48 43 -51v-84z" />
<glyph unicode="&#x174;" horiz-adv-x="2136" d="M831 1712l197 166h76l199 -166l-62 -35l-174 129l-174 -129zM748 1444h102l217 -529l217 529h102l-256 -613l306 -708l557 1331h114l-622 -1454h-96l-320 748l-321 -748h-97l-620 1454h112l559 -1331l302 708z" />
<glyph unicode="&#x175;" horiz-adv-x="1650" d="M590 1329l196 166h76l199 -166l-62 -35l-174 129l-174 -129zM1509 1065h103l-461 -1065h-90l-236 555l-235 -555h-90l-461 1065h100l408 -952l219 520l-178 430h92l145 -350l144 350h94l-178 -430l219 -520z" />
<glyph unicode="&#x176;" horiz-adv-x="1325" d="M426 1712l197 166h75l199 -166l-61 -35l-174 129l-175 -129zM154 1454l508 -805l509 805h117l-573 -905v-549h-105v553l-571 901h115z" />
<glyph unicode="&#x177;" horiz-adv-x="1105" d="M330 1329l196 166h76l199 -166l-62 -35l-174 129l-174 -129zM231 -360q78 -4 97 8q27 7 58.5 68t123.5 284l-475 1065h108l422 -956l391 956h105l-584 -1401q-44 -111 -160 -117q-33 -5 -86 -2v95z" />
<glyph unicode="&#x178;" horiz-adv-x="1325" d="M477 1694v180h90v-180h-90zM756 1694v180h90v-180h-90zM154 1454l508 -805l509 805h117l-573 -905v-549h-105v553l-571 901h115z" />
<glyph unicode="&#x179;" horiz-adv-x="1284" d="M711 1671l-72 33l125 174h119zM61 86l1035 1274h-1020v94h1143v-86l-1026 -1274h1021v-94h-1153v86z" />
<glyph unicode="&#x17a;" horiz-adv-x="1003" d="M561 1288l-72 33l125 174h119zM66 74l749 911h-737v80h856v-74l-748 -911h744v-80h-864v74z" />
<glyph unicode="&#x17b;" horiz-adv-x="1284" d="M629 1694v184h94v-184h-94zM61 86l1035 1274h-1020v94h1143v-86l-1026 -1274h1021v-94h-1153v86z" />
<glyph unicode="&#x17c;" horiz-adv-x="1003" d="M479 1311v184h94v-184h-94zM66 74l749 911h-737v80h856v-74l-748 -911h744v-80h-864v74z" />
<glyph unicode="&#x17d;" horiz-adv-x="1284" d="M502 1878l174 -129l174 129l61 -35l-198 -166h-76l-197 166zM61 86l1035 1274h-1020v94h1143v-86l-1026 -1274h1021v-94h-1153v86z" />
<glyph unicode="&#x17e;" horiz-adv-x="1003" d="M352 1495l174 -129l174 129l62 -35l-199 -166h-76l-196 166zM66 74l749 911h-737v80h856v-74l-748 -911h744v-80h-864v74z" />
<glyph unicode="&#x18f;" horiz-adv-x="1511" d="M61 719q0 24 5 49h1239q-13 168 -93 305.5t-206 215t-273 77.5q-155 0 -287.5 -83.5t-181.5 -215.5l-100 47q68 153 230.5 251.5t348.5 98.5q137 0 262.5 -59.5t216 -159.5t144 -239t53.5 -291q0 -201 -89 -369t-243 -265t-339 -97q-142 0 -269.5 58t-219 156t-145 234 t-53.5 287zM1307 674h-1131q17 -255 179.5 -423.5t392.5 -168.5q149 0 274 76.5t200.5 212t84.5 303.5z" />
<glyph unicode="&#x192;" horiz-adv-x="1062" d="M61 -287l56 68q57 -49 157 -49q79 0 143 60.5t64 146.5v917h-151v84h151v160q0 195 80 305.5t221 110.5q60 0 117 -18.5t96 -49.5l-39 -74q-26 23 -69 37t-88 14q-104 0 -159.5 -83t-55.5 -240v-162h303v-84h-303v-915q0 -129 -92 -216t-207 -87q-144 0 -224 75z" />
<glyph unicode="&#x1a0;" horiz-adv-x="1542" d="M1049 1401q183 -91 293 -278.5t110 -395.5q0 -145 -52.5 -280t-142.5 -235.5t-217.5 -161t-269.5 -60.5q-147 1 -275.5 64t-216 165.5t-138 235.5t-50.5 272q0 143 52.5 278t142.5 236t217.5 162t269.5 61q54 0 119 -10q123 0 164 47q32 37 35 125h90q-5 -66 -16 -103.5 t-42 -72.5q-24 -30 -73 -49zM772 86q126 0 235.5 56t182.5 146.5t114.5 205.5t41.5 233q0 124 -43.5 241t-118.5 205t-183 141.5t-229 53.5q-126 0 -236 -55.5t-183.5 -146t-115.5 -205.5t-42 -234q0 -125 43 -241t117.5 -204.5t183.5 -142t233 -53.5z" />
<glyph unicode="&#x1a1;" horiz-adv-x="1212" d="M870 1008q118 -74 187 -202t69 -276q0 -147 -67.5 -273t-187.5 -201.5t-265 -75.5q-146 0 -266 75.5t-187 201.5t-67 273q0 111 40 212.5t109 176.5t166 119.5t205 44.5q61 0 127 -16q123 0 164 47q32 37 35 125h90q-5 -67 -15.5 -104t-41.5 -72q-28 -36 -95 -55zM604 72 q172 0 295 135t123 325q0 92 -33.5 177t-89.5 146.5t-132.5 98.5t-160.5 37q-170 0 -294 -137.5t-124 -327.5q0 -189 122 -321.5t294 -132.5z" />
<glyph unicode="&#x1af;" horiz-adv-x="1548" d="M1516 1628h90q-5 -66 -16 -103.5t-42 -72.5q-46 -58 -168 -72v-657q0 -121 -19.5 -226t-65 -199.5t-114 -162t-172 -106.5t-233.5 -39q-134 0 -240.5 41.5t-174 110t-112 164.5t-63 198.5t-18.5 218.5v731h104v-731q0 -102 14.5 -190.5t51 -172.5t92.5 -143t144 -95 t200 -36q114 0 203 36.5t144 97t91 145t50 172t14 186.5v731h41v2q123 0 164 47q32 37 35 125z" />
<glyph unicode="&#x1b0;" horiz-adv-x="1202" d="M1165 1237h90q-5 -67 -15.5 -104t-41.5 -72q-46 -55 -162 -72v-854q0 -48 43 -51v-84q-35 -3 -51 0q-34 5 -57.5 31t-24.5 61l-2 160q-69 -127 -191 -199.5t-264 -72.5q-167 0 -253 119t-86 352v614h102v-600q0 -393 268 -393q135 0 251 89t163 232v672h33q122 0 163 47 q32 37 35 125z" />
<glyph unicode="&#x1e6;" horiz-adv-x="1468" d="M795 1677h-76l-197 166l62 35l174 -129l174 129l61 -35zM932 707h420v-707h-90v227q-212 -237 -490 -237q-144 0 -272.5 64t-217 168t-140.5 237t-52 270q0 143 50.5 277t138 235t213.5 162t268 61q395 0 555 -317l-86 -51q-140 272 -471 272q-126 0 -233.5 -55 t-178.5 -145t-111 -205t-40 -236q0 -169 77 -316.5t212 -236t294 -88.5q270 0 484 256v281h-330v84z" />
<glyph unicode="&#x1e7;" d="M442 1495l174 -129l175 129l61 -35l-199 -166h-75l-197 166zM86 530q0 146 62 272t177 203.5t257 77.5q245 0 417 -249v231h95v-1085q0 -105 -40.5 -189.5t-110 -138t-159.5 -81.5t-192 -28q-177 0 -289 63t-184 183l69 47q61 -104 168.5 -156.5t235.5 -52.5q82 0 154 23 t127 66t86.5 111t31.5 153v233q-65 -103 -174 -166t-227 -63q-142 0 -259 78.5t-181 203t-64 264.5zM991 358v351q-47 123 -158.5 202.5t-234.5 79.5q-92 0 -171 -41t-129.5 -107t-79 -148t-28.5 -167q0 -185 124.5 -320.5t299.5 -135.5q87 0 172 43t140 109t65 134z" />
<glyph unicode="&#x1ea;" horiz-adv-x="1542" d="M893 2q-82 -63 -117 -107t-35 -85q0 -39 36 -60t116 -33l-31 -69q-110 13 -154 51t-44 96q0 95 118 195h-12q-147 1 -275.5 64t-216 165.5t-138 235.5t-50.5 272q0 143 52.5 278t142.5 236t217.5 162t269.5 61q118 0 226 -41.5t189.5 -114t142 -165.5t91.5 -200.5 t31 -215.5q0 -172 -71 -327t-199.5 -261t-288.5 -137zM195 727q0 -125 43 -241t117.5 -204.5t183.5 -142t233 -53.5q126 0 235.5 56t182.5 146.5t114.5 205.5t41.5 233q0 124 -43.5 241t-118.5 205t-183 141.5t-229 53.5q-126 0 -236 -55.5t-183.5 -146t-115.5 -205.5 t-42 -234z" />
<glyph unicode="&#x1eb;" horiz-adv-x="1212" d="M727 -6q-79 -61 -114 -106t-35 -85q0 -39 35 -59.5t116 -32.5l-31 -69q-110 13 -154 51t-44 96q0 94 112 191h-6q-146 0 -266 75.5t-187 201.5t-67 273q0 111 40 212.5t109 176.5t166 119.5t205 44.5q143 0 263.5 -75.5t188.5 -202.5t68 -275q0 -191 -111.5 -341.5 t-287.5 -194.5zM604 72q172 0 295 135t123 325q0 92 -33.5 177t-89.5 146.5t-132.5 98.5t-160.5 37q-170 0 -294 -137.5t-124 -327.5q0 -189 122 -321.5t294 -132.5z" />
<glyph unicode="&#x1fa;" horiz-adv-x="1382" d="M745 1436l607 -1436h-111l-203 479h-694l-203 -479h-112l610 1436q-53 15 -86 58t-33 99q0 69 45.5 115t114.5 51l111 150h118l-141 -166q45 -19 70.5 -58.5t25.5 -91.5q0 -56 -33 -99t-86 -58zM588 1593q0 -44 30 -74t74 -30q41 0 73 30t32 74q0 48 -30.5 76.5 t-74.5 28.5t-74 -28.5t-30 -76.5zM369 565h641l-318 762z" />
<glyph unicode="&#x1fb;" horiz-adv-x="1099" d="M584 1671l-72 33l125 174h119zM535 1546q74 0 123 -47t49 -119q0 -70 -49 -116.5t-123 -46.5t-123.5 46.5t-49.5 116.5q0 72 49.5 119t123.5 47zM430 1380q0 -44 30.5 -74t74.5 -30q41 0 72.5 30t31.5 74q0 48 -30 76.5t-74 28.5t-74.5 -28.5t-30.5 -76.5zM72 307 q0 141 124 229.5t322 88.5q177 0 328 -54v101q0 148 -86.5 235.5t-233.5 87.5q-158 0 -342 -127l-43 74q210 141 396 141q190 0 300.5 -112.5t110.5 -306.5v-529q0 -48 45 -51v-84q-45 -3 -51 -2q-38 4 -60 31t-24 61v84q-73 -91 -189 -142.5t-243 -51.5q-152 0 -253 94 t-101 233zM805 219q41 50 41 96v177q-143 57 -318 57q-162 0 -260 -64.5t-98 -171.5q0 -104 77.5 -178t198.5 -74q113 0 210 43.5t149 114.5z" />
<glyph unicode="&#x1fc;" horiz-adv-x="1970" d="M1202 1671l-72 33l125 174h119zM889 1454h971v-94h-840v-569h729v-97h-729v-600h858v-94h-960v479h-547l-310 -479h-116zM911 573v750l-491 -750h491z" />
<glyph unicode="&#x1fd;" horiz-adv-x="1904" d="M954 1288l-71 33l125 174h118zM72 309q0 138 123.5 227t318.5 89q145 0 283 -41q7 98 39 172q-22 114 -104 179.5t-206 65.5q-158 0 -342 -127l-41 70q207 139 392 139q132 0 226.5 -59.5t139.5 -167.5q68 104 177 165.5t237 61.5q147 0 268 -74.5t189 -200.5t69 -276 l-2 -40h-944q13 -184 138 -307.5t294 -123.5q113 0 210.5 57.5t137.5 147.5l90 -24q-48 -115 -171 -188.5t-271 -73.5q-134 0 -248 64.5t-186 174.5q-32 -61 -86 -108.5t-118 -75t-130.5 -41.5t-132.5 -14q-148 0 -249 95t-101 234zM1741 567q-14 189 -133.5 310.5 t-292.5 121.5q-172 0 -291.5 -122.5t-128.5 -309.5h846zM813 225q30 42 33 72q-46 90 -49 215q-128 41 -271 41q-159 0 -257.5 -66t-98.5 -172q0 -107 78.5 -180.5t193.5 -73.5q119 0 219.5 44.5t151.5 119.5z" />
<glyph unicode="&#x1fe;" horiz-adv-x="1542" d="M979 1878l-172 -207l-72 33l125 174h119zM1204 1294q117 -107 182.5 -257.5t65.5 -309.5q0 -145 -52.5 -280t-142.5 -235.5t-217.5 -161t-269.5 -60.5q-195 0 -354 108l-64 -98h-116l104 158q-118 105 -184 256t-66 313q0 143 52.5 278t142.5 236t217.5 162t269.5 61 q195 0 354 -108l64 98h119zM195 727q0 -139 52 -266.5t146 -218.5l678 1032q-137 94 -299 94q-126 0 -236 -55.5t-183.5 -146t-115.5 -205.5t-42 -234zM772 86q126 0 235.5 56t182.5 146.5t114.5 205.5t41.5 233q0 137 -52 264.5t-145 218.5l-680 -1032q139 -92 303 -92z " />
<glyph unicode="&#x1ff;" horiz-adv-x="1212" d="M702 1495l-172 -207l-71 33l125 174h118zM936 958q89 -77 139.5 -189.5t50.5 -238.5q0 -147 -67.5 -273t-187.5 -201.5t-265 -75.5t-268 77l-43 -59h-96l77 104q-90 77 -140 189t-50 239q0 111 40 212.5t109 176.5t166 119.5t205 44.5q143 0 266 -77l43 61h99zM188 526 q0 -102 39.5 -193t108.5 -155l479 750q-94 63 -209 63q-170 0 -294 -137.5t-124 -327.5zM604 72q172 0 295 135t123 325q0 101 -39 192t-106 155l-482 -746q95 -61 209 -61z" />
<glyph unicode="&#x200;" horiz-adv-x="1382" d="M395 1878h109l121 -174l-60 -33zM633 1878h106l123 -174l-59 -33zM647 1454h90l615 -1454h-111l-203 479h-694l-203 -479h-112zM1010 565l-318 762l-323 -762h641z" />
<glyph unicode="&#x201;" horiz-adv-x="1099" d="M238 1495h108l121 -174l-59 -33zM475 1495h107l123 -174l-60 -33zM72 307q0 141 124 229.5t322 88.5q177 0 328 -54v101q0 148 -86.5 235.5t-233.5 87.5q-158 0 -342 -127l-43 74q210 141 396 141q190 0 300.5 -112.5t110.5 -306.5v-529q0 -48 45 -51v-84q-45 -3 -51 -2 q-38 4 -60 31t-24 61v84q-73 -91 -189 -142.5t-243 -51.5q-152 0 -253 94t-101 233zM805 219q41 50 41 96v177q-143 57 -318 57q-162 0 -260 -64.5t-98 -171.5q0 -104 77.5 -178t198.5 -74q113 0 210 43.5t149 114.5z" />
<glyph unicode="&#x202;" horiz-adv-x="1382" d="M578 1690h-68q0 78 53.5 133t128.5 55q74 0 128 -55t54 -133h-67q-6 55 -39.5 93t-75.5 38q-44 0 -79 -40t-35 -91zM647 1454h90l615 -1454h-111l-203 479h-694l-203 -479h-112zM1010 565l-318 762l-323 -762h641z" />
<glyph unicode="&#x203;" horiz-adv-x="1099" d="M420 1307h-68q0 78 54 133t129 55q74 0 128 -55t54 -133h-68q-6 55 -39.5 93t-74.5 38q-44 0 -79.5 -40t-35.5 -91zM72 307q0 141 124 229.5t322 88.5q177 0 328 -54v101q0 148 -86.5 235.5t-233.5 87.5q-158 0 -342 -127l-43 74q210 141 396 141q190 0 300.5 -112.5 t110.5 -306.5v-529q0 -48 45 -51v-84q-45 -3 -51 -2q-38 4 -60 31t-24 61v84q-73 -91 -189 -142.5t-243 -51.5q-152 0 -253 94t-101 233zM805 219q41 50 41 96v177q-143 57 -318 57q-162 0 -260 -64.5t-98 -171.5q0 -104 77.5 -178t198.5 -74q113 0 210 43.5t149 114.5z" />
<glyph unicode="&#x204;" d="M399 1878h109l121 -174l-60 -33zM637 1878h106l123 -174l-59 -33zM1159 94v-94h-969v1454h951v-94h-846v-572h739v-90h-739v-604h864z" />
<glyph unicode="&#x205;" horiz-adv-x="1193" d="M307 1495h109l121 -174l-60 -33zM545 1495h106l123 -174l-59 -33zM612 -20q-146 0 -267.5 75.5t-190 203.5t-68.5 278q0 149 67.5 274t187 198.5t265.5 73.5q147 0 267.5 -74.5t187.5 -199.5t67 -272q0 -35 -2 -45h-933q13 -184 135 -307.5t288 -123.5q111 0 209.5 57.5 t137.5 147.5l90 -24q-46 -114 -170 -188t-271 -74zM188 571h842q-13 187 -133 307.5t-289 120.5q-170 0 -290 -121.5t-130 -306.5z" />
<glyph unicode="&#x206;" d="M582 1690h-68q0 78 53.5 133t128.5 55q74 0 128.5 -55.5t54.5 -132.5h-68q-6 55 -39.5 93t-75.5 38q-44 0 -79 -40t-35 -91zM1159 94v-94h-969v1454h951v-94h-846v-572h739v-90h-739v-604h864z" />
<glyph unicode="&#x207;" horiz-adv-x="1193" d="M489 1307h-67q0 78 53.5 133t128.5 55q74 0 128 -55t54 -133h-67q-6 55 -39.5 93t-75.5 38q-44 0 -79.5 -40t-35.5 -91zM612 -20q-146 0 -267.5 75.5t-190 203.5t-68.5 278q0 149 67.5 274t187 198.5t265.5 73.5q147 0 267.5 -74.5t187.5 -199.5t67 -272q0 -35 -2 -45 h-933q13 -184 135 -307.5t288 -123.5q111 0 209.5 57.5t137.5 147.5l90 -24q-46 -114 -170 -188t-271 -74zM188 571h842q-13 187 -133 307.5t-289 120.5q-170 0 -290 -121.5t-130 -306.5z" />
<glyph unicode="&#x208;" horiz-adv-x="485" d="M-55 1878h108l121 -174l-59 -33zM182 1878h107l123 -174l-60 -33zM190 0v1454h105v-1454h-105z" />
<glyph unicode="&#x209;" horiz-adv-x="423" d="M-86 1495h109l120 -174l-59 -33zM152 1495h106l123 -174l-59 -33zM160 0v1065h102v-1065h-102z" />
<glyph unicode="&#x20a;" horiz-adv-x="485" d="M127 1690h-68q0 78 54 133t129 55q74 0 128 -55t54 -133h-68q-6 55 -39.5 93t-74.5 38q-44 0 -79.5 -40t-35.5 -91zM190 0v1454h105v-1454h-105z" />
<glyph unicode="&#x20b;" horiz-adv-x="423" d="M96 1307h-67q0 78 53.5 133t128.5 55q74 0 128 -55t54 -133h-67q-6 55 -39.5 93t-75.5 38q-44 0 -79.5 -40t-35.5 -91zM160 0v1065h102v-1065h-102z" />
<glyph unicode="&#x20c;" horiz-adv-x="1542" d="M475 1878h109l121 -174l-60 -33zM713 1878h106l123 -174l-59 -33zM90 727q0 143 52.5 278t142.5 236t217.5 162t269.5 61q118 0 226 -41.5t189.5 -114t142 -165.5t91.5 -200.5t31 -215.5q0 -145 -52.5 -280t-142.5 -235.5t-217.5 -161t-269.5 -60.5q-147 1 -275.5 64 t-216 165.5t-138 235.5t-50.5 272zM772 86q126 0 235.5 56t182.5 146.5t114.5 205.5t41.5 233q0 124 -43.5 241t-118.5 205t-183 141.5t-229 53.5q-126 0 -236 -55.5t-183.5 -146t-115.5 -205.5t-42 -234q0 -125 43 -241t117.5 -204.5t183.5 -142t233 -53.5z" />
<glyph unicode="&#x20d;" horiz-adv-x="1212" d="M309 1495h109l121 -174l-60 -33zM547 1495h106l123 -174l-59 -33zM86 530q0 111 40 212.5t109 176.5t166 119.5t205 44.5q143 0 263.5 -75.5t188.5 -202.5t68 -275q0 -147 -67.5 -273t-187.5 -201.5t-265 -75.5q-146 0 -266 75.5t-187 201.5t-67 273zM604 72 q172 0 295 135t123 325q0 92 -33.5 177t-89.5 146.5t-132.5 98.5t-160.5 37q-170 0 -294 -137.5t-124 -327.5q0 -189 122 -321.5t294 -132.5z" />
<glyph unicode="&#x20e;" horiz-adv-x="1542" d="M657 1690h-67q0 78 53.5 133t128.5 55q74 0 128 -55t54 -133h-67q-6 55 -39.5 93t-75.5 38q-44 0 -79.5 -40t-35.5 -91zM90 727q0 143 52.5 278t142.5 236t217.5 162t269.5 61q118 0 226 -41.5t189.5 -114t142 -165.5t91.5 -200.5t31 -215.5q0 -145 -52.5 -280 t-142.5 -235.5t-217.5 -161t-269.5 -60.5q-147 1 -275.5 64t-216 165.5t-138 235.5t-50.5 272zM772 86q126 0 235.5 56t182.5 146.5t114.5 205.5t41.5 233q0 124 -43.5 241t-118.5 205t-183 141.5t-229 53.5q-126 0 -236 -55.5t-183.5 -146t-115.5 -205.5t-42 -234 q0 -125 43 -241t117.5 -204.5t183.5 -142t233 -53.5z" />
<glyph unicode="&#x20f;" horiz-adv-x="1212" d="M492 1307h-68q0 78 53.5 133t128.5 55q74 0 128 -55t54 -133h-67q-6 55 -39.5 93t-75.5 38q-44 0 -79 -40t-35 -91zM86 530q0 111 40 212.5t109 176.5t166 119.5t205 44.5q143 0 263.5 -75.5t188.5 -202.5t68 -275q0 -147 -67.5 -273t-187.5 -201.5t-265 -75.5 q-146 0 -266 75.5t-187 201.5t-67 273zM604 72q172 0 295 135t123 325q0 92 -33.5 177t-89.5 146.5t-132.5 98.5t-160.5 37q-170 0 -294 -137.5t-124 -327.5q0 -189 122 -321.5t294 -132.5z" />
<glyph unicode="&#x210;" horiz-adv-x="1329" d="M319 1884h109l121 -174l-60 -33zM557 1884h107l122 -174l-59 -33zM190 0v1454h605q89 0 169.5 -39.5t135.5 -103t87 -144t32 -163.5q0 -164 -95.5 -290t-246.5 -149l362 -565h-121l-352 549h-471v-549h-105zM295 645h510q91 0 163 52t109 133.5t37 173.5 q0 141 -95.5 248.5t-227.5 107.5h-496v-715z" />
<glyph unicode="&#x211;" horiz-adv-x="698" d="M94 1495h109l121 -174l-60 -33zM332 1495h106l123 -174l-59 -33zM664 973q-143 -5 -251 -86.5t-151 -220.5v-666h-102v1065h98v-262q55 112 147 182.5t195 81.5q27 2 64 2v-96z" />
<glyph unicode="&#x212;" horiz-adv-x="1329" d="M502 1696h-68q0 78 53.5 133t128.5 55q74 0 128.5 -55.5t54.5 -132.5h-68q-6 55 -39.5 93t-75.5 38q-44 0 -79 -40t-35 -91zM190 0v1454h605q89 0 169.5 -39.5t135.5 -103t87 -144t32 -163.5q0 -164 -95.5 -290t-246.5 -149l362 -565h-121l-352 549h-471v-549h-105z M295 645h510q91 0 163 52t109 133.5t37 173.5q0 141 -95.5 248.5t-227.5 107.5h-496v-715z" />
<glyph unicode="&#x213;" horiz-adv-x="698" d="M276 1307h-67q0 78 53.5 133t128.5 55q74 0 128 -55t54 -133h-67q-6 55 -39.5 93t-75.5 38q-44 0 -79.5 -40t-35.5 -91zM664 973q-143 -5 -251 -86.5t-151 -220.5v-666h-102v1065h98v-262q55 112 147 182.5t195 81.5q27 2 64 2v-96z" />
<glyph unicode="&#x214;" horiz-adv-x="1548" d="M479 1878h109l121 -174l-60 -33zM717 1878h106l123 -174l-59 -33zM776 -10q-134 0 -240.5 41.5t-174 110t-112 164.5t-63 198.5t-18.5 218.5v731h104v-731q0 -102 14.5 -190.5t51 -172.5t92.5 -143t144 -95t200 -36q114 0 203 36.5t144 97t91 145t50 172t14 186.5v731 h104v-731q0 -121 -19.5 -226t-65 -199.5t-114 -162t-172 -106.5t-233.5 -39z" />
<glyph unicode="&#x215;" horiz-adv-x="1202" d="M291 1495h108l121 -174l-59 -33zM528 1495h107l123 -174l-60 -33zM150 451v614h102v-600q0 -393 268 -393q135 0 251 89t163 232v672h102v-930q0 -48 43 -51v-84q-35 -3 -51 0q-34 5 -57.5 31t-24.5 61l-2 160q-69 -127 -191 -199.5t-264 -72.5q-167 0 -253 119t-86 352z " />
<glyph unicode="&#x216;" horiz-adv-x="1548" d="M662 1690h-68q0 78 53.5 133t128.5 55q74 0 128 -55t54 -133h-67q-6 55 -39.5 93t-75.5 38q-44 0 -79 -40t-35 -91zM776 -10q-134 0 -240.5 41.5t-174 110t-112 164.5t-63 198.5t-18.5 218.5v731h104v-731q0 -102 14.5 -190.5t51 -172.5t92.5 -143t144 -95t200 -36 q114 0 203 36.5t144 97t91 145t50 172t14 186.5v731h104v-731q0 -121 -19.5 -226t-65 -199.5t-114 -162t-172 -106.5t-233.5 -39z" />
<glyph unicode="&#x217;" horiz-adv-x="1202" d="M473 1307h-67q0 78 53.5 133t128.5 55q74 0 128 -55t54 -133h-68q-6 55 -39.5 93t-74.5 38q-44 0 -79.5 -40t-35.5 -91zM150 451v614h102v-600q0 -393 268 -393q135 0 251 89t163 232v672h102v-930q0 -48 43 -51v-84q-35 -3 -51 0q-34 5 -57.5 31t-24.5 61l-2 160 q-69 -127 -191 -199.5t-264 -72.5q-167 0 -253 119t-86 352z" />
<glyph unicode="&#x218;" horiz-adv-x="1239" d="M1036 1212q-143 158 -399 158q-207 0 -307.5 -78.5t-100.5 -220.5q0 -56 17 -97t46.5 -70t85.5 -53t117.5 -40.5t159.5 -36.5q104 -23 174.5 -43.5t139.5 -52.5t109 -72t64.5 -98.5t24.5 -134.5q0 -187 -140.5 -286t-379.5 -99q-339 0 -575 217l55 84 q93 -98 227.5 -153.5t296.5 -55.5q192 0 299 71.5t107 208.5q0 57 -19 101.5t-52.5 77t-92.5 59t-126.5 46t-166.5 40.5q-101 22 -169 41.5t-131 49.5t-99 67t-57 91t-21 124q0 193 140 300t374 107q274 0 453 -170zM590 -383l31 139h-33v144h100v-144l-43 -139h-55z" />
<glyph unicode="&#x219;" horiz-adv-x="980" d="M496 -20q-264 0 -426 174l47 71q165 -159 375 -159q139 0 223 58t84 159q0 90 -81 137q-56 32 -223 74q-8 2 -25 6h-1l-1 1h-1h-1h-1l-1 1h-1q-73 19 -119.5 34t-91 37.5t-68.5 49t-38.5 64t-14.5 87.5q0 149 110 229t281 80q122 0 216 -40t145 -109l-56 -66 q-48 63 -131 96t-182 33q-124 0 -204.5 -51.5t-80.5 -159.5q0 -26 6 -47t14.5 -37t28.5 -30.5t36.5 -24t50.5 -21t59 -18.5t72 -20q65 -16 101.5 -26.5t86 -26.5t76.5 -30.5t57.5 -36t45.5 -46t25.5 -57t10.5 -72.5q0 -145 -110 -229t-293 -84zM440 -383l31 139h-33v144h101 v-144l-43 -139h-56z" />
<glyph unicode="&#x21a;" horiz-adv-x="1241" d="M1206 1360h-532v-1360h-105v1360h-532v94h1169v-94zM569 -383l31 139h-33v144h101v-144l-43 -139h-56z" />
<glyph unicode="&#x21b;" horiz-adv-x="655" d="M635 51l-12 -7q-12 -6 -21 -10t-26.5 -11.5t-34.5 -13t-37.5 -10.5t-44 -8t-47.5 -3q-89 0 -149 50.5t-60 139.5v803h-150v84h150v365h102v-365h248v-84h-248v-778q3 -57 41 -88t92 -31q38 0 78 11.5t58.5 21t29.5 16.5zM358 -383l31 139h-33v144h101v-144l-43 -139h-56z " />
<glyph unicode="&#x22a;" horiz-adv-x="1542" d="M481 2169v76h584v-76h-584zM588 1694v180h90v-180h-90zM866 1694v180h90v-180h-90zM90 727q0 143 52.5 278t142.5 236t217.5 162t269.5 61q118 0 226 -41.5t189.5 -114t142 -165.5t91.5 -200.5t31 -215.5q0 -145 -52.5 -280t-142.5 -235.5t-217.5 -161t-269.5 -60.5 q-147 1 -275.5 64t-216 165.5t-138 235.5t-50.5 272zM772 86q126 0 235.5 56t182.5 146.5t114.5 205.5t41.5 233q0 124 -43.5 241t-118.5 205t-183 141.5t-229 53.5q-126 0 -236 -55.5t-183.5 -146t-115.5 -205.5t-42 -234q0 -125 43 -241t117.5 -204.5t183.5 -142 t233 -53.5z" />
<glyph unicode="&#x22b;" horiz-adv-x="1212" d="M315 1786v76h584v-76h-584zM422 1311v180h90v-180h-90zM700 1311v180h91v-180h-91zM86 530q0 111 40 212.5t109 176.5t166 119.5t205 44.5q143 0 263.5 -75.5t188.5 -202.5t68 -275q0 -147 -67.5 -273t-187.5 -201.5t-265 -75.5q-146 0 -266 75.5t-187 201.5t-67 273z M604 72q172 0 295 135t123 325q0 92 -33.5 177t-89.5 146.5t-132.5 98.5t-160.5 37q-170 0 -294 -137.5t-124 -327.5q0 -189 122 -321.5t294 -132.5z" />
<glyph unicode="&#x22c;" horiz-adv-x="1542" d="M481 2189v76h584v-76h-584zM635 1790q-31 0 -53.5 -13.5t-32 -32.5t-13.5 -32t-4 -20h-69q0 14 7 37.5t23.5 55.5t53.5 54.5t88 22.5q57 0 133.5 -41t126.5 -41q31 0 54 9.5t34.5 22.5t18.5 28.5t8.5 24t1.5 13.5h71q0 -10 -4 -27.5t-16.5 -43t-32 -47t-55 -37 t-80.5 -15.5q-52 0 -99 20.5t-86.5 41t-74.5 20.5zM90 727q0 143 52.5 278t142.5 236t217.5 162t269.5 61q118 0 226 -41.5t189.5 -114t142 -165.5t91.5 -200.5t31 -215.5q0 -145 -52.5 -280t-142.5 -235.5t-217.5 -161t-269.5 -60.5q-147 1 -275.5 64t-216 165.5 t-138 235.5t-50.5 272zM772 86q126 0 235.5 56t182.5 146.5t114.5 205.5t41.5 233q0 124 -43.5 241t-118.5 205t-183 141.5t-229 53.5q-126 0 -236 -55.5t-183.5 -146t-115.5 -205.5t-42 -234q0 -125 43 -241t117.5 -204.5t183.5 -142t233 -53.5z" />
<glyph unicode="&#x22d;" horiz-adv-x="1212" d="M315 1806v76h584v-76h-584zM469 1407q-31 0 -53.5 -13.5t-32 -32.5t-13 -32t-3.5 -20h-70q0 14 7 37.5t23.5 55.5t53.5 54.5t88 22.5q57 0 133.5 -41t126.5 -41q31 0 54 9.5t34.5 22.5t18.5 28.5t8.5 24t1.5 13.5h72q0 -14 -8 -38t-26 -55.5t-59 -54t-96 -22.5 q-52 0 -99 20.5t-86.5 41t-74.5 20.5zM86 530q0 111 40 212.5t109 176.5t166 119.5t205 44.5q143 0 263.5 -75.5t188.5 -202.5t68 -275q0 -147 -67.5 -273t-187.5 -201.5t-265 -75.5q-146 0 -266 75.5t-187 201.5t-67 273zM604 72q172 0 295 135t123 325q0 92 -33.5 177 t-89.5 146.5t-132.5 98.5t-160.5 37q-170 0 -294 -137.5t-124 -327.5q0 -189 122 -321.5t294 -132.5z" />
<glyph unicode="&#x230;" horiz-adv-x="1542" d="M481 2189v76h584v-76h-584zM725 1694v184h94v-184h-94zM90 727q0 143 52.5 278t142.5 236t217.5 162t269.5 61q118 0 226 -41.5t189.5 -114t142 -165.5t91.5 -200.5t31 -215.5q0 -145 -52.5 -280t-142.5 -235.5t-217.5 -161t-269.5 -60.5q-147 1 -275.5 64t-216 165.5 t-138 235.5t-50.5 272zM772 86q126 0 235.5 56t182.5 146.5t114.5 205.5t41.5 233q0 124 -43.5 241t-118.5 205t-183 141.5t-229 53.5q-126 0 -236 -55.5t-183.5 -146t-115.5 -205.5t-42 -234q0 -125 43 -241t117.5 -204.5t183.5 -142t233 -53.5z" />
<glyph unicode="&#x231;" horiz-adv-x="1212" d="M315 1806v76h584v-76h-584zM559 1311v184h94v-184h-94zM86 530q0 111 40 212.5t109 176.5t166 119.5t205 44.5q143 0 263.5 -75.5t188.5 -202.5t68 -275q0 -147 -67.5 -273t-187.5 -201.5t-265 -75.5q-146 0 -266 75.5t-187 201.5t-67 273zM604 72q172 0 295 135t123 325 q0 92 -33.5 177t-89.5 146.5t-132.5 98.5t-160.5 37q-170 0 -294 -137.5t-124 -327.5q0 -189 122 -321.5t294 -132.5z" />
<glyph unicode="&#x232;" horiz-adv-x="1325" d="M371 1759v76h583v-76h-583zM154 1454l508 -805l509 805h117l-573 -905v-549h-105v553l-571 901h115z" />
<glyph unicode="&#x233;" horiz-adv-x="1105" d="M274 1376v76h584v-76h-584zM231 -360q78 -4 97 8q27 7 58.5 68t123.5 284l-475 1065h108l422 -956l391 956h105l-584 -1401q-44 -111 -160 -117q-33 -5 -86 -2v95z" />
<glyph unicode="&#x237;" horiz-adv-x="423" d="M-258 -287l55 68q54 -49 158 -49q78 0 141.5 60.5t63.5 146.5v1126h102v-1122q0 -129 -91 -217t-208 -88q-143 0 -221 75z" />
<glyph unicode="&#x259;" horiz-adv-x="1193" d="M590 -20q-147 0 -268 74t-189.5 200t-69.5 276q0 6 1.5 20t1.5 19h935q-13 185 -134.5 307.5t-288.5 122.5q-113 0 -211 -56.5t-138 -145.5l-90 24q48 114 171.5 188t271.5 74q146 0 267.5 -76t190 -204t68.5 -279q0 -148 -67 -272.5t-186.5 -198t-264.5 -73.5zM590 61 q168 0 285.5 123.5t128.5 309.5h-838q12 -188 133 -310.5t291 -122.5z" />
<glyph unicode="&#x2b9;" horiz-adv-x="378" d="M143 1104v358h93l-37 -358h-56z" />
<glyph unicode="&#x2ba;" horiz-adv-x="759" d="M143 1104v358h93l-37 -358h-56zM522 1104v358h92l-36 -358h-56z" />
<glyph unicode="&#x2bb;" horiz-adv-x="288" d="M172 1495l-31 -127h33v-135h-100v135l43 127h55z" />
<glyph unicode="&#x2bc;" horiz-adv-x="436" d="M172 1288l-72 33l125 174h119z" />
<glyph unicode="&#x2be;" horiz-adv-x="327" d="M78 1217v59q41 0 73.5 30t32.5 74q0 48 -30.5 76.5t-75.5 28.5v61q74 0 123 -47t49 -119q0 -70 -49 -116.5t-123 -46.5z" />
<glyph unicode="&#x2bf;" horiz-adv-x="327" d="M250 1217q-74 0 -123 46.5t-49 116.5q0 72 49 119t123 47v-61q-44 0 -74.5 -28.5t-30.5 -76.5q0 -44 30.5 -74t74.5 -30v-59z" />
<glyph unicode="&#x2c6;" horiz-adv-x="655" d="M92 1329l197 166h76l198 -166l-61 -35l-174 129l-174 -129z" />
<glyph unicode="&#x2c7;" horiz-adv-x="655" d="M154 1495l174 -129l174 129l61 -35l-198 -166h-76l-197 166z" />
<glyph unicode="&#x2c8;" horiz-adv-x="462" d="M279 1587v-839h-93v839h93z" />
<glyph unicode="&#x2c9;" horiz-adv-x="798" d="M109 1376v76h583v-76h-583z" />
<glyph unicode="&#x2ca;" horiz-adv-x="378" d="M143 1104v358h93l-37 -358h-56z" />
<glyph unicode="&#x2cb;" horiz-adv-x="378" d="M182 1104l-39 358h93v-358h-54z" />
<glyph unicode="&#x2cc;" horiz-adv-x="462" d="M279 573v-839h-93v839h93z" />
<glyph unicode="&#x2d8;" horiz-adv-x="550" d="M391 1495h68q0 -77 -54.5 -132.5t-128.5 -55.5q-75 0 -128.5 55t-53.5 133h68q0 -51 35 -91t79 -40q42 0 75.5 38t39.5 93z" />
<glyph unicode="&#x2d9;" horiz-adv-x="299" d="M102 1311v184h95v-184h-95z" />
<glyph unicode="&#x2da;" horiz-adv-x="499" d="M250 1546q74 0 123 -47t49 -119q0 -70 -49 -116.5t-123 -46.5t-123 46.5t-49 116.5q0 72 49 119t123 47zM145 1380q0 -44 30.5 -74t74.5 -30q41 0 72.5 30t31.5 74q0 48 -30 76.5t-74 28.5t-74.5 -28.5t-30.5 -76.5z" />
<glyph unicode="&#x2db;" horiz-adv-x="462" d="M109 -211q0 113 178 242h26l31 -31q-85 -65 -121.5 -110.5t-36.5 -86.5q0 -39 35.5 -59.5t116.5 -32.5l-31 -69q-110 13 -154 51t-44 96z" />
<glyph unicode="&#x2dc;" horiz-adv-x="813" d="M270 1407q-31 0 -53.5 -13.5t-32.5 -32.5t-14 -32t-4 -20h-70q0 10 3.5 27t15.5 42.5t30 47.5t51 37.5t74 15.5q56 0 132.5 -41t127.5 -41q31 0 54 9.5t34.5 22.5t18.5 28.5t8.5 24t1.5 13.5h70q0 -10 -4 -27.5t-16.5 -43t-32 -47t-55 -37t-81.5 -15.5q-51 0 -98 20.5 t-86.5 41t-73.5 20.5z" />
<glyph unicode="&#x2dd;" horiz-adv-x="647" d="M154 1288l-60 33l121 174h109zM391 1288l-61 33l123 174h108z" />
<glyph unicode="&#x300;" horiz-adv-x="0" d="M-336 1495h117l127 -174l-70 -33z" />
<glyph unicode="&#x301;" horiz-adv-x="0" d="M-264 1288l-72 33l125 174h119z" />
<glyph unicode="&#x302;" horiz-adv-x="0" d="M-563 1329l196 166h76l199 -166l-62 -35l-174 129l-174 -129z" />
<glyph unicode="&#x303;" horiz-adv-x="0" d="M-598 1407q-31 0 -53.5 -13.5t-32 -32.5t-13 -32t-3.5 -20h-70q0 14 7 37.5t23.5 55.5t53.5 54.5t88 22.5q57 0 133.5 -41t126.5 -41q31 0 54 9.5t34.5 22.5t18.5 28.5t8.5 24t1.5 13.5h71q0 -10 -4 -27.5t-16.5 -43t-32 -47t-55 -37t-80.5 -15.5q-52 0 -99 20.5 t-86.5 41t-74.5 20.5z" />
<glyph unicode="&#x304;" horiz-adv-x="0" d="M-690 1376v76h584v-76h-584z" />
<glyph unicode="&#x306;" horiz-adv-x="0" d="M-160 1495h68q0 -78 -54 -133t-128 -55q-75 0 -129 55t-54 133h68q0 -51 35.5 -91t79.5 -40q41 0 74.5 38t39.5 93z" />
<glyph unicode="&#x307;" horiz-adv-x="0" d="M-197 1311v184h95v-184h-95z" />
<glyph unicode="&#x308;" horiz-adv-x="0" d="M-485 1311v180h90v-180h-90zM-207 1311v180h90v-180h-90z" />
<glyph unicode="&#x309;" horiz-adv-x="0" d="M-709 1409l-45 45q39 34 73 51t77 17q59 0 94 -35.5t35 -89.5q0 -39 -23 -74.5t-73 -83.5l-35 39q63 66 63 111q0 31 -17.5 50t-51.5 19q-26 0 -46 -10.5t-51 -38.5z" />
<glyph unicode="&#x30a;" horiz-adv-x="0" d="M-250 1546q74 0 123 -47t49 -119q0 -70 -49 -116.5t-123 -46.5t-123 46.5t-49 116.5q0 72 49 119t123 47zM-354 1380q0 -44 30 -74t74 -30q41 0 73 30t32 74q0 48 -30.5 76.5t-74.5 28.5t-74 -28.5t-30 -76.5z" />
<glyph unicode="&#x30b;" horiz-adv-x="0" d="M-494 1288l-59 33l121 174h108zM-256 1288l-61 33l122 174h109z" />
<glyph unicode="&#x30c;" horiz-adv-x="0" d="M-502 1495l174 -129l174 129l62 -35l-199 -166h-76l-196 166z" />
<glyph unicode="&#x30f;" horiz-adv-x="0" d="M-561 1495h108l121 -174l-59 -33zM-324 1495h107l123 -174l-60 -33z" />
<glyph unicode="&#x311;" horiz-adv-x="0" d="M-389 1307h-68q0 78 54 133t129 55q74 0 128 -55t54 -133h-68q-6 55 -39.5 93t-74.5 38q-44 0 -79.5 -40t-35.5 -91z" />
<glyph unicode="&#x312;" horiz-adv-x="0" d="M-117 1495l-30 -127h32v-135h-100v135l43 127h55z" />
<glyph unicode="&#x31b;" horiz-adv-x="0" d="M-393 1061l2 80q123 0 164 47q31 36 34 125h91q-5 -66 -16 -103.5t-42 -72.5q-30 -36 -93.5 -56t-139.5 -20z" />
<glyph unicode="&#x323;" horiz-adv-x="0" d="M-197 -313v182h95v-182h-95z" />
<glyph unicode="&#x324;" horiz-adv-x="0" d="M-485 -313v180h90v-180h-90zM-207 -313v180h90v-180h-90z" />
<glyph unicode="&#x326;" horiz-adv-x="0" d="M-172 -383l31 139h-33v144h100v-144l-43 -139h-55z" />
<glyph unicode="&#x327;" horiz-adv-x="0" d="M-301 -356q-121 0 -231 55l34 63q96 -47 179 -47q151 0 151 109q0 53 -36.5 93.5t-112.5 82.5l51 31q86 -50 129 -101t43 -120q0 -80 -56 -123t-151 -43z" />
<glyph unicode="&#x328;" horiz-adv-x="0" d="M-354 -211q0 113 178 242h26l31 -31q-84 -64 -120.5 -110t-36.5 -87q0 -39 35 -59.5t116 -32.5l-31 -69q-110 13 -154 51t-44 96z" />
<glyph unicode="&#x32e;" horiz-adv-x="0" d="M-160 -98h68q0 -76 -54 -132.5t-128 -56.5q-75 0 -129 56t-54 133h68q0 -50 35.5 -89.5t79.5 -39.5q41 0 74.5 37.5t39.5 91.5z" />
<glyph unicode="&#x331;" horiz-adv-x="0" d="M-690 -238v76h584v-76h-584z" />
<glyph unicode="&#x335;" horiz-adv-x="0" d="M-571 588v74h469v-74h-469z" />
<glyph unicode="&#x3c0;" horiz-adv-x="1169" d="M315 971v-971h-100v971h-164v94h1034v-94h-225v-760q0 -60 34.5 -94.5t94.5 -34.5q53 0 111 20l20 -82q-84 -32 -174 -32q-85 0 -135.5 52t-50.5 140v791h-445z" />
<glyph unicode="&#x400;" d="M524 1878h117l127 -174l-70 -33zM1159 94v-94h-969v1454h951v-94h-846v-572h739v-90h-739v-604h864z" />
<glyph unicode="&#x401;" d="M512 1694v180h90v-180h-90zM791 1694v180h90v-180h-90zM1159 94v-94h-969v1454h951v-94h-846v-572h739v-90h-739v-604h864z" />
<glyph unicode="&#x402;" horiz-adv-x="1478" d="M940 -14q-80 0 -160 18l19 88q90 -16 133 -16q161 0 248.5 89t87.5 265q0 181 -103.5 279t-267.5 98q-193 0 -391 -127v-680h-103v1360h-366v94h1036v-94h-567v-584q200 123 401 123q205 0 334 -125t129 -344q0 -221 -114.5 -332.5t-315.5 -111.5z" />
<glyph unicode="&#x403;" horiz-adv-x="1042" d="M678 1677l-72 33l125 174h119zM190 0v1454h807v-94h-702v-1360h-105z" />
<glyph unicode="&#x404;" horiz-adv-x="1449" d="M774 -12q-139 0 -266 60.5t-218.5 161.5t-145.5 239t-54 288q0 106 29 210.5t88 197t140.5 163.5t194.5 112.5t242 41.5q190 0 331.5 -86.5t211.5 -230.5l-86 -49q-72 141 -195 205.5t-270 64.5q-104 0 -196 -34t-158.5 -91.5t-116 -132.5t-76 -156.5t-30.5 -163.5h723 v-90h-723q4 -163 81.5 -303.5t211 -225.5t290.5 -85q144 0 280.5 73.5t207.5 211.5l88 -43q-47 -105 -143.5 -183.5t-210.5 -116.5t-230 -38z" />
<glyph unicode="&#x405;" horiz-adv-x="1239" d="M1036 1212q-143 158 -399 158q-207 0 -307.5 -78.5t-100.5 -220.5q0 -56 17 -97t46.5 -70t85.5 -53t117.5 -40.5t159.5 -36.5q104 -23 174.5 -43.5t139.5 -52.5t109 -72t64.5 -98.5t24.5 -134.5q0 -187 -140.5 -286t-379.5 -99q-339 0 -575 217l55 84 q93 -98 227.5 -153.5t296.5 -55.5q192 0 299 71.5t107 208.5q0 57 -19 101.5t-52.5 77t-92.5 59t-126.5 46t-166.5 40.5q-101 22 -169 41.5t-131 49.5t-99 67t-57 91t-21 124q0 193 140 300t374 107q274 0 453 -170z" />
<glyph unicode="&#x406;" horiz-adv-x="485" d="M190 0v1454h105v-1454h-105z" />
<glyph unicode="&#x407;" horiz-adv-x="485" d="M57 1694v180h90v-180h-90zM336 1694v180h90v-180h-90zM190 0v1454h105v-1454h-105z" />
<glyph unicode="&#x408;" horiz-adv-x="978" d="M66 152q114 -78 282 -78q66 0 117 14t88.5 38.5t63.5 66t42.5 89t26 115.5t13 137t3.5 162v758h105v-739q0 -102 -4 -179.5t-16 -158t-32.5 -137.5t-54.5 -109.5t-81.5 -84.5t-114.5 -50.5t-152 -18.5q-186 0 -319 91z" />
<glyph unicode="&#x409;" horiz-adv-x="2058" d="M84 -2v94q110 2 178.5 94.5t106.5 317.5t41 604l2 346h788v-584h303q226 0 342.5 -118t116.5 -316q0 -188 -117.5 -312t-333.5 -124h-415v1360h-588v-352q-1 -250 -24 -434t-59.5 -293t-93 -174t-114.5 -87t-133 -22zM1200 90h301q92 0 162.5 28.5t112 78t62 110 t20.5 129.5q0 70 -18 128.5t-57.5 108t-112 77.5t-173.5 28h-297v-688z" />
<glyph unicode="&#x40a;" horiz-adv-x="2052" d="M190 0v1454h105v-637h795v637h104v-635h303q226 0 343.5 -108.5t117.5 -292.5q0 -86 -29 -161t-84 -133t-142.5 -91t-197.5 -33h-415v721h-795v-721h-105zM1194 90h301q74 0 134.5 18t101 49t68 73t40 89t12.5 99q0 64 -17.5 117t-57 98t-112 70.5t-173.5 25.5h-297v-639 z" />
<glyph unicode="&#x40b;" horiz-adv-x="1464" d="M403 0v1360h-366v94h1028v-94h-559v-555q184 82 395 82q229 0 339 -106.5t110 -334.5v-446h-103v434q0 185 -85 269.5t-273 84.5q-104 0 -211.5 -25.5t-171.5 -64.5v-698h-103z" />
<glyph unicode="&#x40c;" horiz-adv-x="1267" d="M670 1677l-72 33l125 174h119zM190 0v1454h105v-663h244l518 663h123l-553 -706l583 -748h-129l-538 694h-248v-694h-105z" />
<glyph unicode="&#x40d;" horiz-adv-x="1546" d="M602 1884h117l127 -174l-70 -33zM195 0v1454h104v-1311l954 1311h99v-1454h-105v1290l-944 -1290h-108z" />
<glyph unicode="&#x40e;" horiz-adv-x="1251" d="M643 1642q-120 0 -183 45t-63 115h64q0 -44 44.5 -74t137.5 -30q92 0 131 26.5t53 77.5h62q0 -70 -62 -115t-184 -45zM354 -2v90h92q38 0 59.5 23t55.5 86l72 151l-633 1106h117l565 -999l467 999h111l-617 -1309q-41 -82 -77.5 -114.5t-100.5 -32.5h-111z" />
<glyph unicode="&#x40f;" horiz-adv-x="1421" d="M664 -279v279h-474v1454h105v-1360h831v1360h105v-1454h-473v-279h-94z" />
<glyph unicode="&#x410;" horiz-adv-x="1382" d="M647 1454h90l615 -1454h-111l-203 479h-694l-203 -479h-112zM1010 565l-318 762l-323 -762h641z" />
<glyph unicode="&#x411;" horiz-adv-x="1327" d="M190 0v1454h955v-94h-850v-549h504q228 0 345.5 -107.5t117.5 -287.5q0 -86 -28.5 -161t-83.5 -132t-143 -90t-198 -33h-619zM295 94h504q92 0 163 27t112 74t61 103t20 120q0 63 -17 115t-56.5 96.5t-112.5 69t-176 24.5h-498v-629z" />
<glyph unicode="&#x412;" horiz-adv-x="1355" d="M870 0h-680v1454h678q98 0 176 -55.5t117 -139t39 -176.5q0 -110 -56.5 -203t-152.5 -135q124 -37 197.5 -137.5t73.5 -230.5q0 -159 -115 -268t-277 -109zM295 1360v-582h532q115 0 193 87.5t78 203.5q0 121 -73 206t-185 85h-545zM885 690h-590v-596h575q119 0 203 90 t84 207q0 120 -78.5 209.5t-193.5 89.5z" />
<glyph unicode="&#x413;" horiz-adv-x="1042" d="M190 0v1454h807v-94h-702v-1360h-105z" />
<glyph unicode="&#x414;" horiz-adv-x="1519" d="M84 -279v373h55q82 1 134 86.5t84.5 298t43.5 578.5l11 397h841v-1360h172v-373h-96v279h-1151v-279h-94zM309 94h840v1266h-641l-8 -313q-10 -438 -56 -661t-135 -292z" />
<glyph unicode="&#x415;" d="M1159 94v-94h-969v1454h951v-94h-846v-572h739v-90h-739v-604h864z" />
<glyph unicode="&#x416;" horiz-adv-x="1968" d="M57 0l566 750l-535 704h125l500 -663h219v663h104v-663h217l502 663h123l-535 -704l568 -750h-125l-529 694h-221v-694h-104v694h-223l-529 -694h-123z" />
<glyph unicode="&#x417;" horiz-adv-x="1081" d="M522 -18q-140 0 -253.5 61.5t-176.5 173.5l84 49q51 -92 141 -142t205 -50q164 0 261.5 86.5t97.5 232.5q0 141 -89.5 229.5t-242.5 88.5h-129v88h131q116 0 194 82.5t78 203.5q0 127 -85 209t-218 82q-104 0 -184.5 -47.5t-124.5 -134.5l-80 49q60 109 161 169.5 t232 60.5q175 0 288.5 -105t113.5 -270q0 -113 -57.5 -204t-155.5 -134q127 -35 200.5 -136t73.5 -237q0 -185 -129 -295t-336 -110z" />
<glyph unicode="&#x418;" horiz-adv-x="1546" d="M195 0v1454h104v-1311l954 1311h99v-1454h-105v1290l-944 -1290h-108z" />
<glyph unicode="&#x419;" horiz-adv-x="1546" d="M774 1642q-120 0 -183 45t-63 115h64q0 -44 44.5 -74t137.5 -30q92 0 131 26.5t53 77.5h62q0 -70 -62 -115t-184 -45zM195 0v1454h104v-1311l954 1311h99v-1454h-105v1290l-944 -1290h-108z" />
<glyph unicode="&#x41a;" horiz-adv-x="1267" d="M190 0v1454h105v-663h244l518 663h123l-553 -706l583 -748h-129l-538 694h-248v-694h-105z" />
<glyph unicode="&#x41b;" horiz-adv-x="1482" d="M1190 0v1360h-641l-8 -324q-9 -303 -40 -504t-89.5 -318.5t-136.5 -165.5t-191 -48v94q85 0 144 43.5t105.5 150.5t72 296t34.5 473l13 397h841v-1454h-104z" />
<glyph unicode="&#x41c;" horiz-adv-x="1802" d="M1507 0v1251l-571 -979h-70l-571 979v-1251h-105v1454h105l606 -1040l606 1040h105v-1454h-105z" />
<glyph unicode="&#x41d;" horiz-adv-x="1505" d="M1317 1454v-1454h-105v696h-917v-696h-105v1454h105v-663h917v663h105z" />
<glyph unicode="&#x41e;" horiz-adv-x="1542" d="M90 727q0 143 52.5 278t142.5 236t217.5 162t269.5 61q118 0 226 -41.5t189.5 -114t142 -165.5t91.5 -200.5t31 -215.5q0 -145 -52.5 -280t-142.5 -235.5t-217.5 -161t-269.5 -60.5q-147 1 -275.5 64t-216 165.5t-138 235.5t-50.5 272zM772 86q126 0 235.5 56 t182.5 146.5t114.5 205.5t41.5 233q0 124 -43.5 241t-118.5 205t-183 141.5t-229 53.5q-126 0 -236 -55.5t-183.5 -146t-115.5 -205.5t-42 -234q0 -125 43 -241t117.5 -204.5t183.5 -142t233 -53.5z" />
<glyph unicode="&#x41f;" horiz-adv-x="1454" d="M190 0v1454h1074v-1454h-105v1360h-864v-1360h-105z" />
<glyph unicode="&#x420;" horiz-adv-x="1271" d="M190 0v1454h598q89 0 169.5 -39.5t135.5 -103t87 -144t32 -163.5q0 -117 -50.5 -220.5t-146 -169t-214.5 -65.5h-506v-549h-105zM295 645h502q137 0 223 107t86 252q0 143 -95.5 249.5t-226.5 106.5h-489v-715z" />
<glyph unicode="&#x421;" horiz-adv-x="1413" d="M778 1462q187 0 327 -86.5t210 -230.5l-86 -49q-49 96 -127 158.5t-159.5 87t-172.5 24.5q-133 0 -244.5 -56t-182 -147t-109.5 -203t-39 -229q0 -170 76 -318.5t210.5 -238.5t294.5 -90q92 0 180 28.5t169.5 95t129.5 161.5l91 -43q-46 -105 -142 -183.5t-209 -116.5 t-227 -38q-144 0 -272.5 65t-216 171t-138.5 240.5t-51 272.5q0 133 47 261.5t132.5 232t218.5 167.5t290 64z" />
<glyph unicode="&#x422;" horiz-adv-x="1241" d="M1206 1360h-532v-1360h-105v1360h-532v94h1169v-94z" />
<glyph unicode="&#x423;" horiz-adv-x="1251" d="M354 -2v90h92q38 0 59.5 23t55.5 86l72 151l-633 1106h117l565 -999l467 999h111l-617 -1309q-41 -82 -77.5 -114.5t-100.5 -32.5h-111z" />
<glyph unicode="&#x424;" horiz-adv-x="1648" d="M774 0v135q-189 5 -345 85.5t-248 225.5t-91 326q1 143 56.5 263t149.5 200t217.5 126t260.5 50v107h100v-107q139 -4 264 -51.5t218.5 -129.5t148 -201t54.5 -257q0 -141 -57 -261t-152.5 -200t-218.5 -126t-257 -50v-135h-100zM776 225v1096q-120 -4 -225.5 -44 t-184.5 -109.5t-125 -172t-46 -223.5q0 -162 82.5 -287t213 -190t285.5 -70zM872 225q160 5 292 72.5t211 191.5t79 283q0 122 -47.5 225.5t-128.5 172t-185.5 108t-220.5 43.5v-1096z" />
<glyph unicode="&#x425;" horiz-adv-x="1286" d="M137 1454l508 -659l506 659h121l-570 -737l553 -717h-120l-490 639l-491 -639h-123l553 717l-570 737h123z" />
<glyph unicode="&#x426;" horiz-adv-x="1492" d="M1305 -276v276h-1115v1454h105v-1360h829v1360h103v-1360h172v-370h-94z" />
<glyph unicode="&#x427;" horiz-adv-x="1310" d="M1018 0v643q-195 -84 -404 -84q-241 0 -352.5 104t-111.5 328v463h102v-450q0 -183 88.5 -265t286.5 -82q113 0 218.5 23.5t172.5 60.5v713h102v-1454h-102z" />
<glyph unicode="&#x428;" horiz-adv-x="1906" d="M190 0v1454h105v-1360h606v1360h105v-1360h606v1360h104v-1454h-1526z" />
<glyph unicode="&#x429;" horiz-adv-x="1982" d="M1792 -276v276h-1602v1454h105v-1360h606v1360h105v-1360h606v1360h104v-1360h170v-370h-94z" />
<glyph unicode="&#x42a;" horiz-adv-x="1482" d="M440 0v1362h-405v92h510v-577h379q228 0 346.5 -119t118.5 -320q0 -91 -29 -169.5t-84.5 -138.5t-144 -95t-199.5 -35h-492zM545 90h377q93 0 164.5 29t113 79t62 110.5t20.5 129.5q0 57 -10.5 105.5t-36.5 94.5t-66.5 78t-104.5 51t-146 19h-373v-696z" />
<glyph unicode="&#x42b;" horiz-adv-x="1703" d="M190 0v1454h105v-577h387q229 0 347 -119t118 -320q0 -90 -29.5 -169t-85 -139t-143 -95t-197.5 -35h-502zM1409 0v1452h104v-1452h-104zM295 90h385q93 0 164.5 29t113 79t62 110.5t20.5 129.5q0 57 -10.5 105.5t-36.5 94.5t-66.5 78t-104.5 51t-146 19h-381v-696z" />
<glyph unicode="&#x42c;" horiz-adv-x="1241" d="M190 0v1454h105v-577h387q229 0 347 -119t118 -320q0 -90 -29.5 -169t-85 -139t-143 -95t-197.5 -35h-502zM295 90h385q93 0 164.5 29t113 79t62 110.5t20.5 129.5q0 57 -10.5 105.5t-36.5 94.5t-66.5 78t-104.5 51t-146 19h-381v-696z" />
<glyph unicode="&#x42d;" horiz-adv-x="1464" d="M686 -12q-184 0 -345 90.5t-237 247.5l91 43q71 -139 204.5 -212t280.5 -73q158 0 292 85t211 225.5t81 303.5h-723v90h721q-8 111 -50.5 213.5t-114 184.5t-179 131t-234.5 49q-144 0 -267.5 -66t-195.5 -204l-88 49q76 145 215 231t330 86q129 0 241.5 -41.5 t194 -112.5t141 -164t88.5 -197.5t29 -211.5q0 -140 -51 -274.5t-139 -239.5t-218 -169t-278 -64z" />
<glyph unicode="&#x42e;" horiz-adv-x="1990" d="M1237 -10q-277 2 -454 192t-189 500h-299v-682h-105v1454h105v-678h299q7 155 59 285t138 218t201.5 136.5t246.5 48.5q145 0 268.5 -55t209 -152.5t133.5 -234t48 -295.5q0 -169 -50.5 -308.5t-139 -233t-210 -144.5t-261.5 -51zM1239 86q249 0 401 179t152 462 q0 289 -156 465t-399 176q-161 0 -284.5 -82t-190 -227.5t-66.5 -331.5q0 -291 151 -466t392 -175z" />
<glyph unicode="&#x42f;" horiz-adv-x="1275" d="M133 0l397 625q-160 33 -248.5 145.5t-88.5 271.5q0 175 129.5 293.5t345.5 118.5h419v-1454h-104v610h-291q-35 0 -53 2l-385 -612h-121zM666 705h317v655h-307q-168 0 -272.5 -88.5t-104.5 -229.5q0 -149 96 -243t271 -94z" />
<glyph unicode="&#x430;" horiz-adv-x="1099" d="M72 307q0 141 124 229.5t322 88.5q177 0 328 -54v101q0 148 -86.5 235.5t-233.5 87.5q-158 0 -342 -127l-43 74q210 141 396 141q190 0 300.5 -112.5t110.5 -306.5v-529q0 -48 45 -51v-84q-45 -3 -51 -2q-38 4 -60 31t-24 61v84q-73 -91 -189 -142.5t-243 -51.5 q-152 0 -253 94t-101 233zM805 219q41 50 41 96v177q-143 57 -318 57q-162 0 -260 -64.5t-98 -171.5q0 -104 77.5 -178t198.5 -74q113 0 210 43.5t149 114.5z" />
<glyph unicode="&#x431;" horiz-adv-x="1236" d="M639 -20q-251 0 -381.5 155t-130.5 430q0 159 21.5 280.5t59 206t100.5 147t134.5 102t171.5 73.5l445 156l14 -90l-426 -148q-138 -49 -222 -114.5t-133.5 -173t-62.5 -271.5q52 125 165 193.5t265 68.5q232 0 362 -137.5t130 -363.5q0 -238 -134 -376t-378 -138z M639 72q194 0 301 112t107 305q0 189 -106.5 303.5t-301.5 114.5q-180 0 -294 -110t-114 -308q0 -186 107 -301.5t301 -115.5z" />
<glyph unicode="&#x432;" horiz-adv-x="1077" d="M160 0v1065h514q121 0 193.5 -78.5t72.5 -183.5q0 -85 -42.5 -153.5t-115.5 -102.5q92 -26 147.5 -98.5t55.5 -167.5q0 -122 -87 -201.5t-218 -79.5h-520zM258 573h387q84 0 139.5 65t55.5 150q0 82 -53 140.5t-134 58.5h-395v-414zM258 78h420q86 0 147.5 64t61.5 147 q0 86 -58 148.5t-143 62.5h-428v-422z" />
<glyph unicode="&#x433;" horiz-adv-x="819" d="M160 0v1065h616v-92h-514v-973h-102z" />
<glyph unicode="&#x434;" horiz-adv-x="1165" d="M41 -246v340h16q51 0 89 31t70 105t51.5 211t25.5 337l8 287h664v-971h143v-340h-94v246h-881v-246h-92zM231 94h631v879h-467l-6 -201q-9 -303 -48 -462.5t-110 -215.5z" />
<glyph unicode="&#x435;" horiz-adv-x="1193" d="M612 -20q-146 0 -267.5 75.5t-190 203.5t-68.5 278q0 149 67.5 274t187 198.5t265.5 73.5q147 0 267.5 -74.5t187.5 -199.5t67 -272q0 -35 -2 -45h-933q13 -184 135 -307.5t288 -123.5q111 0 209.5 57.5t137.5 147.5l90 -24q-46 -114 -170 -188t-271 -74zM188 571h842 q-13 187 -133 307.5t-289 120.5q-170 0 -290 -121.5t-130 -306.5z" />
<glyph unicode="&#x436;" horiz-adv-x="1585" d="M84 0l405 547l-364 518h119l334 -475h161v475h105v-475h166l329 475h119l-364 -518l407 -547h-119l-372 500h-166v-500h-105v500h-159l-377 -500h-119z" />
<glyph unicode="&#x437;" horiz-adv-x="921" d="M446 -12q-139 0 -241.5 55.5t-153.5 157.5l86 37q40 -77 119 -119.5t188 -42.5q134 0 214.5 63t80.5 168q0 95 -64 154.5t-173 60.5h-109v76h117q71 0 120.5 58t49.5 141q0 91 -61.5 143.5t-176.5 52.5q-188 0 -260 -151l-80 41q45 95 133 146.5t209 51.5 q149 0 240.5 -74t91.5 -200q0 -78 -38 -144t-101 -98q95 -29 147 -100t52 -170q0 -141 -108 -224t-282 -83z" />
<glyph unicode="&#x438;" horiz-adv-x="1206" d="M160 0v1063h102v-924l692 926h95v-1065h-103v909l-684 -909h-102z" />
<glyph unicode="&#x439;" horiz-adv-x="1206" d="M604 1253q-120 0 -183 45t-63 115h64q0 -44 44.5 -74t137.5 -30q92 0 131 26.5t53 77.5h62q0 -70 -62 -115t-184 -45zM160 0v1063h102v-924l692 926h95v-1065h-103v909l-684 -909h-102z" />
<glyph unicode="&#x43a;" horiz-adv-x="1007" d="M160 0v1065h102v-473h139l377 473h121l-416 -518l471 -547h-125l-428 498h-139v-498h-102z" />
<glyph unicode="&#x43b;" horiz-adv-x="1148" d="M51 -4v94q58 1 101 32t79 106t57 212.5t27 337.5l11 287h663v-1065h-102v973h-469l-4 -201q-7 -224 -33 -375.5t-73 -238.5t-109 -124t-148 -38z" />
<glyph unicode="&#x43c;" horiz-adv-x="1419" d="M160 0v1065h102l449 -766l448 766h101v-1065h-99v903l-418 -713h-67l-418 711v-901h-98z" />
<glyph unicode="&#x43d;" horiz-adv-x="1181" d="M160 0v1065h102v-473h658v473h102v-1065h-102v500h-658v-500h-102z" />
<glyph unicode="&#x43e;" horiz-adv-x="1212" d="M86 530q0 111 40 212.5t109 176.5t166 119.5t205 44.5q143 0 263.5 -75.5t188.5 -202.5t68 -275q0 -147 -67.5 -273t-187.5 -201.5t-265 -75.5q-146 0 -266 75.5t-187 201.5t-67 273zM604 72q172 0 295 135t123 325q0 92 -33.5 177t-89.5 146.5t-132.5 98.5t-160.5 37 q-170 0 -294 -137.5t-124 -327.5q0 -189 122 -321.5t294 -132.5z" />
<glyph unicode="&#x43f;" horiz-adv-x="1150" d="M160 0v1065h829v-1065h-102v973h-625v-973h-102z" />
<glyph unicode="&#x440;" d="M262 229v-665h-102v1501h94v-213q68 104 176 167.5t227 63.5q144 0 262.5 -80t183 -206t64.5 -267q0 -111 -35.5 -211.5t-98.5 -175t-155 -119t-198 -44.5q-130 0 -239 69t-179 180zM1063 530q0 185 -125 323t-301 138q-74 0 -157.5 -39t-146 -106.5t-71.5 -140.5v-351 q54 -122 161.5 -202t231.5 -80q90 0 168 39.5t129.5 104t81 146.5t29.5 168z" />
<glyph unicode="&#x441;" horiz-adv-x="1116" d="M612 -20q-146 0 -267.5 75.5t-190 203.5t-68.5 278t66.5 275t187.5 198t270 73q144 0 255 -65.5t167 -181.5l-100 -33q-47 88 -134.5 138t-191.5 50q-176 0 -297 -130.5t-121 -323.5q0 -192 124 -328.5t296 -136.5q110 0 210.5 59t125.5 137l100 -28 q-41 -113 -162.5 -186.5t-269.5 -73.5z" />
<glyph unicode="&#x442;" horiz-adv-x="966" d="M432 0v973h-391v92h887v-92h-393v-973h-103z" />
<glyph unicode="&#x443;" horiz-adv-x="1105" d="M231 -360q78 -4 97 8q27 7 58.5 68t123.5 284l-475 1065h108l422 -956l391 956h105l-584 -1401q-44 -111 -160 -117q-33 -5 -86 -2v95z" />
<glyph unicode="&#x444;" horiz-adv-x="1402" d="M649 -436v436h-49q-151 0 -270 73t-181.5 193t-62.5 264t63.5 265.5t182.5 194.5t268 73h49v432h103v-432h51q149 0 267.5 -73t182.5 -194.5t64 -265.5t-62.5 -264t-181.5 -193t-270 -73h-51v-436h-103zM600 88h53v887h-53q-179 0 -296.5 -131t-117.5 -318 q0 -186 116 -312t298 -126zM748 88h55q182 0 298 126t116 312q0 187 -117.5 318t-296.5 131h-55v-887z" />
<glyph unicode="&#x445;" horiz-adv-x="1015" d="M152 1065l340 -440l16 -29l16 29l338 440h119l-414 -535l412 -530h-119l-336 438l-16 27l-16 -27l-338 -438h-117l409 530l-411 535h117z" />
<glyph unicode="&#x446;" horiz-adv-x="1171" d="M1020 -246v246h-860v1065h102v-973h604v973h103v-973h143v-338h-92z" />
<glyph unicode="&#x447;" horiz-adv-x="1036" d="M774 0v463q-134 -64 -299 -64q-179 0 -264.5 90t-85.5 279v297h102v-285q0 -156 63.5 -226.5t201.5 -70.5q79 0 157.5 18t124.5 46v518h103v-1065h-103z" />
<glyph unicode="&#x448;" horiz-adv-x="1601" d="M160 0v1065h102v-973h488v973h102v-973h487v973h103v-1065h-1282z" />
<glyph unicode="&#x449;" horiz-adv-x="1644" d="M1491 -246v246h-1331v1065h102v-973h488v973h102v-973h487v973h103v-973h143v-338h-94z" />
<glyph unicode="&#x44a;" horiz-adv-x="1189" d="M375 0v977h-338v88h440v-387h285q172 0 263 -90t91 -242t-90.5 -249t-257.5 -97h-393zM477 84h281q128 0 192 74.5t64 185.5q0 52 -13 95t-42 79t-81 56t-124 20h-277v-510z" />
<glyph unicode="&#x44b;" horiz-adv-x="1347" d="M160 0v1065h102v-387h262q174 0 265.5 -90t91.5 -242q0 -151 -91.5 -248.5t-257.5 -97.5h-372zM1083 0v1063h103v-1063h-103zM262 84h260q127 0 190.5 74.5t63.5 185.5t-60 180.5t-198 69.5h-256v-510z" />
<glyph unicode="&#x44c;" horiz-adv-x="976" d="M160 0v1065h102v-387h285q174 0 264 -89.5t90 -242.5q0 -151 -90 -248.5t-256 -97.5h-395zM262 84h281q128 0 192 74.5t64 185.5q0 52 -13 94.5t-41.5 79t-80.5 56.5t-125 20h-277v-510z" />
<glyph unicode="&#x44d;" horiz-adv-x="1134" d="M528 -18q-141 0 -265 67.5t-179 186.5l84 36q53 -101 149 -152.5t203 -51.5q113 0 209.5 61t153 161t61.5 216h-528v76h526q-6 79 -37 152t-83 132t-130 94t-170 35q-230 0 -336 -192l-82 39q58 112 164.5 176.5t253.5 64.5q122 0 224 -47.5t167 -125t100.5 -174 t35.5 -197.5q0 -105 -38 -205t-104.5 -178t-165.5 -126t-213 -48z" />
<glyph unicode="&#x44e;" horiz-adv-x="1564" d="M975 -20q-208 0 -342 141t-146 366h-225v-487h-102v1065h102v-487h225q13 227 149 366t339 139q149 0 265 -73t177.5 -198.5t61.5 -281.5q0 -246 -140.5 -398t-363.5 -152zM975 72q179 0 289 128t110 330q0 207 -113 334t-286 127q-172 0 -279.5 -128.5t-107.5 -332.5 q0 -208 108.5 -333t278.5 -125z" />
<glyph unicode="&#x44f;" horiz-adv-x="1042" d="M80 0l332 440q-116 12 -184 94.5t-68 219.5q0 134 94.5 223.5t247.5 89.5h381v-1067h-103v426h-264l-319 -426h-117zM487 508h293v475h-264q-114 0 -184 -65t-70 -166q0 -106 58 -175t167 -69z" />
<glyph unicode="&#x450;" horiz-adv-x="1193" d="M432 1495h117l127 -174l-70 -33zM612 -20q-146 0 -267.5 75.5t-190 203.5t-68.5 278q0 149 67.5 274t187 198.5t265.5 73.5q147 0 267.5 -74.5t187.5 -199.5t67 -272q0 -35 -2 -45h-933q13 -184 135 -307.5t288 -123.5q111 0 209.5 57.5t137.5 147.5l90 -24 q-46 -114 -170 -188t-271 -74zM188 571h842q-13 187 -133 307.5t-289 120.5q-170 0 -290 -121.5t-130 -306.5z" />
<glyph unicode="&#x451;" horiz-adv-x="1193" d="M420 1311v180h90v-180h-90zM698 1311v180h90v-180h-90zM612 -20q-146 0 -267.5 75.5t-190 203.5t-68.5 278q0 149 67.5 274t187 198.5t265.5 73.5q147 0 267.5 -74.5t187.5 -199.5t67 -272q0 -35 -2 -45h-933q13 -184 135 -307.5t288 -123.5q111 0 209.5 57.5 t137.5 147.5l90 -24q-46 -114 -170 -188t-271 -74zM188 571h842q-13 187 -133 307.5t-289 120.5q-170 0 -290 -121.5t-130 -306.5z" />
<glyph unicode="&#x452;" horiz-adv-x="1163" d="M657 -367q-147 0 -233 86l74 56q28 -25 72 -39.5t81 -14.5q159 0 229.5 144t75.5 434q5 291 -69 420t-246 129q-133 0 -226.5 -69.5t-142.5 -194.5v-584h-102v1159h-152v74h152v262h102v-262h490v-74h-490v-438q141 223 398 223q207 0 298 -141.5t91 -452.5 q0 -357 -92 -537t-310 -180z" />
<glyph unicode="&#x453;" horiz-adv-x="819" d="M539 1288l-72 33l125 174h119zM160 0v1065h616v-92h-514v-973h-102z" />
<glyph unicode="&#x454;" horiz-adv-x="1134" d="M610 -18q-114 0 -214 48t-167 126t-105 178t-38 205q0 101 35.5 197.5t100 174t166.5 125t224 47.5q146 0 252 -64.5t164 -176.5l-80 -39q-109 192 -334 192q-122 0 -218 -61t-147 -153.5t-59 -198.5h529v-76h-529q6 -117 62.5 -217t152.5 -159.5t209 -59.5q107 0 203 51 t150 151l86 -36q-60 -120 -182 -187t-261 -67z" />
<glyph unicode="&#x455;" horiz-adv-x="980" d="M496 -20q-264 0 -426 174l47 71q165 -159 375 -159q139 0 223 58t84 159q0 90 -81 137q-56 32 -223 74q-8 2 -25 6h-1l-1 1h-1h-1h-1l-1 1h-1q-73 19 -119.5 34t-91 37.5t-68.5 49t-38.5 64t-14.5 87.5q0 149 110 229t281 80q122 0 216 -40t145 -109l-56 -66 q-48 63 -131 96t-182 33q-124 0 -204.5 -51.5t-80.5 -159.5q0 -26 6 -47t14.5 -37t28.5 -30.5t36.5 -24t50.5 -21t59 -18.5t72 -20q65 -16 101.5 -26.5t86 -26.5t76.5 -30.5t57.5 -36t45.5 -46t25.5 -57t10.5 -72.5q0 -145 -110 -229t-293 -84z" />
<glyph unicode="&#x456;" horiz-adv-x="423" d="M160 1307v188h102v-188h-102zM160 0v1065h102v-1065h-102z" />
<glyph unicode="&#x457;" horiz-adv-x="423" d="M27 1311v180h90v-180h-90zM305 1311v180h90v-180h-90zM160 0v1065h102v-1065h-102z" />
<glyph unicode="&#x458;" horiz-adv-x="438" d="M176 1307v188h103v-188h-103zM-244 -287l56 68q57 -49 157 -49q79 0 143 60.5t64 146.5v1126h103v-1122q0 -129 -92 -217t-207 -88q-144 0 -224 75z" />
<glyph unicode="&#x459;" horiz-adv-x="1619" d="M51 -4v94q58 1 101 32t79 106t57 212.5t27 337.5l11 287h628v-438h236q173 0 264.5 -83.5t91.5 -221.5q0 -141 -91 -231.5t-257 -90.5h-346v973h-434l-4 -201q-7 -224 -33 -375.5t-73 -238.5t-109 -124t-148 -38zM954 84h232q128 0 192 67t64 168q0 99 -60 161.5 t-198 62.5h-230v-459z" />
<glyph unicode="&#x45a;" horiz-adv-x="1642" d="M160 0v1065h102v-449h578v449h102v-438h270q173 0 265 -83.5t92 -221.5q0 -141 -91 -231.5t-257 -90.5h-381v524h-578v-524h-102zM942 84h266q128 0 192 67t64 168q0 99 -60 161.5t-198 62.5h-264v-459z" />
<glyph unicode="&#x45b;" horiz-adv-x="1191" d="M170 0v1159h-152v74h152v262h102v-262h490v-74h-490v-440q137 225 408 225q190 0 276 -105t86 -315v-524h-102v506q0 174 -66.5 258t-218.5 84q-140 0 -237.5 -68t-145.5 -196v-584h-102z" />
<glyph unicode="&#x45c;" horiz-adv-x="1007" d="M520 1288l-71 33l124 174h119zM160 0v1065h102v-473h139l377 473h121l-416 -518l471 -547h-125l-428 498h-139v-498h-102z" />
<glyph unicode="&#x45d;" horiz-adv-x="1206" d="M432 1495h117l127 -174l-70 -33zM160 0v1063h102v-924l692 926h95v-1065h-103v909l-684 -909h-102z" />
<glyph unicode="&#x45e;" horiz-adv-x="1105" d="M553 1253q-120 0 -183 45t-63 115h64q0 -44 44.5 -74t137.5 -30q92 0 131 26.5t53 77.5h62q0 -70 -62 -115t-184 -45zM231 -360q78 -4 97 8q27 7 58.5 68t123.5 284l-475 1065h108l422 -956l391 956h105l-584 -1401q-44 -111 -160 -117q-33 -5 -86 -2v95z" />
<glyph unicode="&#x45f;" horiz-adv-x="1140" d="M524 -246v246h-364v1065h102v-973h617v973h102v-1065h-365v-246h-92z" />
<glyph unicode="&#x462;" horiz-adv-x="1280" d="M721 877q228 0 346.5 -119t118.5 -320q0 -122 -50 -219.5t-155.5 -158t-251.5 -60.5h-502v1137h-245v86h245v231h105v-231h428v-86h-428v-260h389zM719 90q93 0 164.5 29t113 79t62 110.5t20.5 129.5q0 57 -10.5 105.5t-36.5 94.5t-66.5 78t-104.5 51t-146 19h-383v-696 h387z" />
<glyph unicode="&#x463;" horiz-adv-x="1046" d="M229 0v1067h-256v74h256v354h103v-354h409v-74h-409v-389h284q174 0 265.5 -90t91.5 -242q0 -151 -91 -248.5t-257 -97.5h-396zM332 84h282q127 0 190.5 74.5t63.5 185.5t-60 180.5t-198 69.5h-278v-510z" />
<glyph unicode="&#x46a;" horiz-adv-x="1961" d="M57 0l566 745l-535 709h1786l-537 -709l570 -745h-121l-529 690h-225v-690h-102v690h-223l-529 -690h-121zM711 786h540l449 594h-1436z" />
<glyph unicode="&#x46b;" horiz-adv-x="1552" d="M84 0l418 547l-373 518h1294l-372 -518l417 -547h-122l-379 500h-138v-500h-104v500h-135l-381 -500h-125zM594 584h367l290 415h-952z" />
<glyph unicode="&#x472;" horiz-adv-x="1552" d="M772 1464q118 0 226 -41.5t189.5 -114t142 -165.5t91.5 -200.5t31 -215.5q0 -145 -52.5 -280t-142.5 -235.5t-217.5 -161t-269.5 -60.5q-147 1 -275.5 64t-216 165.5t-138 235.5t-50.5 272q0 143 52.5 278t142.5 236t217.5 162t269.5 61zM772 1368q-96 0 -184 -32.5 t-155 -89.5t-118.5 -131.5t-81 -161.5t-36.5 -177h1146q-9 117 -55.5 224.5t-120 189t-177 130t-218.5 48.5zM772 86q124 0 232 54t181 142.5t115.5 200.5t45.5 228h-1151q3 -122 47 -235.5t118.5 -200t182 -138t229.5 -51.5z" />
<glyph unicode="&#x473;" horiz-adv-x="1210" d="M606 1083q143 0 263.5 -75.5t188.5 -202.5t68 -275q0 -147 -67.5 -273t-187.5 -201.5t-265 -75.5q-146 0 -266 75.5t-187 201.5t-67 273q0 111 40 212.5t109 176.5t166 119.5t205 44.5zM606 991q-159 0 -279 -122t-137 -296h830q-14 174 -133.5 296t-280.5 122zM604 72 q168 0 290 129t128 313h-834q4 -184 125.5 -313t290.5 -129z" />
<glyph unicode="&#x474;" horiz-adv-x="1492" d="M647 0l-616 1454h110l553 -1319l473 1114q45 112 98 158.5t152 46.5h72v-92h-62q-66 0 -102 -34.5t-72 -117.5l-514 -1210h-92z" />
<glyph unicode="&#x475;" horiz-adv-x="1105" d="M465 0l-422 1065h107l368 -959l295 764q36 104 89.5 149.5t148.5 45.5h61v-84h-47q-67 0 -102.5 -32t-63.5 -115l-328 -834h-106z" />
<glyph unicode="&#x490;" horiz-adv-x="1042" d="M190 0v1454h711v287h96v-381h-702v-1360h-105z" />
<glyph unicode="&#x491;" horiz-adv-x="819" d="M160 0v1065h522v246h94v-338h-514v-973h-102z" />
<glyph unicode="&#x492;" horiz-adv-x="1091" d="M1044 1360h-702v-610h430v-78h-430v-672h-104v672h-238v78h238v704h806v-94z" />
<glyph unicode="&#x493;" horiz-adv-x="835" d="M791 973h-515v-436h330v-74h-330v-463h-102v463h-192v74h192v528h617v-92z" />
<glyph unicode="&#x494;" horiz-adv-x="1273" d="M692 803q225 0 346 -138.5t121 -392.5q0 -253 -113.5 -379t-316.5 -126q-77 0 -160 18l19 88q90 -16 133 -16q161 0 248.5 104t87.5 311q0 216 -96.5 327.5t-282.5 111.5q-183 0 -383 -107v-604h-105v1454h807v-94h-702v-660q198 103 397 103z" />
<glyph unicode="&#x495;" horiz-adv-x="1042" d="M567 713q196 0 292.5 -117.5t96.5 -343.5v-35q-6 -584 -401 -584q-128 0 -205 60l56 67q49 -34 139 -34q82 0 141.5 32t95 93t53 142.5t19.5 188.5v37q0 211 -76.5 309.5t-240.5 98.5q-85 0 -149.5 -26t-125.5 -79v-522h-102v1065h616v-92h-514v-357q129 97 305 97z" />
<glyph unicode="&#x496;" horiz-adv-x="1972" d="M1839 94h125v-370h-96v276h-99v23l-512 671h-221v-694h-104v694h-223l-529 -694h-123l566 750l-535 704h125l500 -663h219v663h104v-663h217l502 663h123l-535 -704z" />
<glyph unicode="&#x497;" horiz-adv-x="1572" d="M1432 92h135v-338h-92v246h-93l-372 500h-166v-500h-105v500h-159l-377 -500h-119l405 547l-364 518h119l334 -475h161v475h105v-475h166l329 475h119l-364 -518z" />
<glyph unicode="&#x498;" horiz-adv-x="1081" d="M987 387q0 -157 -95.5 -262t-256.5 -133q55 -40 82.5 -83t27.5 -99q0 -80 -55.5 -123t-150.5 -43q-122 0 -232 55l35 63q96 -47 178 -47q152 0 152 109q0 47 -29.5 84t-89.5 74h-31q-140 0 -253.5 61.5t-176.5 173.5l84 49q51 -92 141 -142t205 -50q164 0 261.5 86.5 t97.5 232.5q0 141 -89.5 229.5t-242.5 88.5h-129v88h131q116 0 194 82.5t78 203.5q0 127 -85 209t-218 82q-104 0 -184.5 -47.5t-124.5 -134.5l-80 49q60 109 161 169.5t232 60.5q175 0 288.5 -105t113.5 -270q0 -113 -57.5 -204t-155.5 -134q127 -35 200.5 -136t73.5 -237z " />
<glyph unicode="&#x499;" horiz-adv-x="921" d="M836 295q0 -122 -83.5 -202t-222.5 -99q113 -82 113 -184q0 -80 -56 -123t-151 -43q-121 0 -231 55l35 63q96 -47 178 -47q151 0 151 109q0 49 -31 87t-96 77q-137 1 -238.5 57t-152.5 156l86 37q40 -77 119 -119.5t188 -42.5q134 0 214.5 63t80.5 168q0 95 -64 154.5 t-173 60.5h-109v76h117q71 0 120.5 58t49.5 141q0 91 -61.5 143.5t-176.5 52.5q-188 0 -260 -151l-80 41q45 95 133 146.5t209 51.5q149 0 240.5 -74t91.5 -200q0 -78 -38 -144t-101 -98q95 -29 147 -100t52 -170z" />
<glyph unicode="&#x49a;" horiz-adv-x="1290" d="M1137 94h145v-370h-96v276h-105l-538 694h-248v-694h-105v1454h105v-663h244l518 663h123l-553 -706z" />
<glyph unicode="&#x49b;" horiz-adv-x="1017" d="M874 92h138v-338h-94v246h-89l-428 498h-139v-498h-102v1065h102v-473h139l377 473h121l-416 -518z" />
<glyph unicode="&#x49c;" horiz-adv-x="1230" d="M705 748l520 -748h-121l-483 698h-64v-292h-61v292h-203v-698h-103v1454h103v-668h203v271h61v-271h59l463 668h115z" />
<glyph unicode="&#x49d;" horiz-adv-x="1083" d="M608 547l422 -547h-119l-389 500h-45v-228h-63v228h-152v-500h-102v1065h102v-475h152v211h63v-211h45l336 475h115z" />
<glyph unicode="&#x4a0;" horiz-adv-x="1435" d="M846 748l584 -748h-130l-538 694h-248v-694h-104v1362h-406v92h510v-663h244l518 663h123z" />
<glyph unicode="&#x4a1;" horiz-adv-x="1159" d="M664 547l471 -547h-125l-428 498h-140v-498h-102v977h-336v88h438v-473h140l376 473h121z" />
<glyph unicode="&#x4a2;" horiz-adv-x="1583" d="M1317 94h172v-370h-94v276h-183v696h-917v-696h-105v1454h105v-663h917v663h105v-1360z" />
<glyph unicode="&#x4a3;" horiz-adv-x="1228" d="M1022 92h147v-338h-92v246h-157v500h-658v-500h-102v1065h102v-473h658v473h102v-973z" />
<glyph unicode="&#x4a4;" horiz-adv-x="2062" d="M2017 1454v-94h-700v-1360h-105v696h-917v-696h-105v1454h105v-663h917v661l-2 2h807z" />
<glyph unicode="&#x4a5;" horiz-adv-x="1581" d="M1536 1065v-92h-514v-973h-102v500h-658v-500h-102v1065h102v-473h658v473h616z" />
<glyph unicode="&#x4aa;" horiz-adv-x="1413" d="M1346 326q-65 -146 -213 -234.5t-316 -101.5v-275h-90v275q-110 7 -210 52.5t-176.5 119t-133.5 166t-87 198t-30 211.5q0 133 47 261.5t132.5 232t218.5 167.5t290 64q187 0 327 -86.5t210 -230.5l-86 -49q-49 96 -127 158.5t-159.5 87t-172.5 24.5q-133 0 -244.5 -56 t-182 -147t-109.5 -203t-39 -229q0 -170 76 -318.5t210.5 -238.5t294.5 -90q92 0 180 28.5t169.5 95t129.5 161.5z" />
<glyph unicode="&#x4ab;" horiz-adv-x="1116" d="M1044 240q-38 -104 -146 -176t-243 -82v-228h-90v228q-205 19 -342 179t-137 376q0 150 66.5 275t187.5 198t270 73q144 0 255 -65.5t167 -181.5l-100 -33q-47 88 -134.5 138t-191.5 50q-176 0 -297 -130.5t-121 -323.5q0 -192 124 -328.5t296 -136.5q110 0 210.5 59 t125.5 137z" />
<glyph unicode="&#x4ae;" horiz-adv-x="1325" d="M154 1454l508 -805l509 805h117l-573 -905v-549h-105v553l-571 901h115z" />
<glyph unicode="&#x4af;" horiz-adv-x="1083" d="M489 -436v440l-446 1061h109l393 -963l393 963h100l-446 -1061v-440h-103z" />
<glyph unicode="&#x4b0;" horiz-adv-x="1304" d="M600 0v428h-291v78h291v47l-571 901h114l508 -805l510 805h117l-576 -905v-43h293v-78h-293v-428h-102z" />
<glyph unicode="&#x4b1;" horiz-adv-x="1140" d="M522 -436v373h-239v63h239v4l-446 1061h106l393 -969l396 969h100l-446 -1061v-4h239v-63h-239v-373h-103z" />
<glyph unicode="&#x4b6;" horiz-adv-x="1398" d="M1120 94h185v-370h-95v276h-192v643q-195 -84 -404 -84q-241 0 -352.5 104t-111.5 328v463h102v-450q0 -183 88.5 -265t286.5 -82q113 0 218.5 23.5t172.5 60.5v713h102v-1360z" />
<glyph unicode="&#x4b7;" horiz-adv-x="1064" d="M877 92h129v-338h-93v246h-157v92h18v371q-134 -64 -299 -64q-179 0 -264.5 90t-85.5 279v297h102v-285q0 -156 63.5 -226.5t201.5 -70.5q79 0 157.5 18t124.5 46v518h103v-973z" />
<glyph unicode="&#x4b8;" horiz-adv-x="1310" d="M1018 1454h102v-1454h-102v643q-178 -79 -379 -84v-260h-61v260q-221 7 -324.5 112t-103.5 320v463h102v-450q0 -171 77.5 -253.5t248.5 -91.5v291h61v-293q110 1 211.5 25t167.5 59v713z" />
<glyph unicode="&#x4b9;" horiz-adv-x="1036" d="M772 1065h105v-1065h-105v463q-115 -56 -246 -62v-198h-63v196q-172 3 -255 93t-83 276v297h102v-285q0 -149 56.5 -219t179.5 -78v248h63v-248q156 10 246 64v518z" />
<glyph unicode="&#x4ba;" horiz-adv-x="1310" d="M293 1454v-643q195 84 403 84q241 0 353 -104t112 -328v-463h-102v451q0 183 -88.5 264.5t-286.5 81.5q-113 0 -218.5 -23.5t-172.5 -60.5v-713h-103v1454h103z" />
<glyph unicode="&#x4bb;" horiz-adv-x="1179" d="M1030 0h-102v594q0 395 -264 395q-130 0 -246 -95t-156 -235v-659h-102v1495h102v-684q64 124 181 198t249 74q172 0 255 -122.5t83 -348.5v-612z" />
<glyph unicode="&#x4c0;" horiz-adv-x="485" d="M190 0v1454h105v-1454h-105z" />
<glyph unicode="&#x4c1;" horiz-adv-x="1968" d="M983 1642q-120 0 -183 45t-63 115h64q0 -44 44.5 -74t137.5 -30q92 0 131 26.5t53 77.5h62q0 -70 -62 -115t-184 -45zM57 0l566 750l-535 704h125l500 -663h219v663h104v-663h217l502 663h123l-535 -704l568 -750h-125l-529 694h-221v-694h-104v694h-223l-529 -694h-123z " />
<glyph unicode="&#x4c2;" horiz-adv-x="1585" d="M793 1253q-120 0 -183 45t-63 115h63q0 -44 45 -74t138 -30q92 0 131 26.5t53 77.5h61q0 -70 -62 -115t-183 -45zM84 0l405 547l-364 518h119l334 -475h161v475h105v-475h166l329 475h119l-364 -518l407 -547h-119l-372 500h-166v-500h-105v500h-159l-377 -500h-119z" />
<glyph unicode="&#x4cb;" horiz-adv-x="1310" d="M1018 1454h102v-1454h-202v-276h-95v370h195v549q-195 -84 -404 -84q-241 0 -352.5 104t-111.5 328v463h102v-450q0 -183 88.5 -265t286.5 -82q113 0 218.5 23.5t172.5 60.5v713z" />
<glyph unicode="&#x4cc;" horiz-adv-x="1030" d="M625 -246v307h143v412q-129 -63 -289 -63q-180 0 -267 92t-87 280v283h98v-270q0 -158 64 -229.5t205 -71.5q77 0 153 18.5t123 46.5v506h102v-1065h-155v-246h-90z" />
<glyph unicode="&#x4cf;" horiz-adv-x="423" d="M160 0v1065h102v-1065h-102z" />
<glyph unicode="&#x4d0;" horiz-adv-x="1382" d="M692 1642q-120 0 -183 45t-63 115h64q0 -44 44.5 -74t137.5 -30q92 0 131.5 26.5t53.5 77.5h61q0 -70 -62 -115t-184 -45zM647 1454h90l615 -1454h-111l-203 479h-694l-203 -479h-112zM1010 565l-318 762l-323 -762h641z" />
<glyph unicode="&#x4d1;" horiz-adv-x="1099" d="M551 1253q-120 0 -183 45t-63 115h64q0 -44 44.5 -74t137.5 -30q92 0 131 26.5t53 77.5h62q0 -70 -62 -115t-184 -45zM72 307q0 141 124 229.5t322 88.5q177 0 328 -54v101q0 148 -86.5 235.5t-233.5 87.5q-158 0 -342 -127l-43 74q210 141 396 141q190 0 300.5 -112.5 t110.5 -306.5v-529q0 -48 45 -51v-84q-45 -3 -51 -2q-38 4 -60 31t-24 61v84q-73 -91 -189 -142.5t-243 -51.5q-152 0 -253 94t-101 233zM805 219q41 50 41 96v177q-143 57 -318 57q-162 0 -260 -64.5t-98 -171.5q0 -104 77.5 -178t198.5 -74q113 0 210 43.5t149 114.5z" />
<glyph unicode="&#x4d2;" horiz-adv-x="1382" d="M508 1700v180h90v-180h-90zM786 1700v180h91v-180h-91zM647 1454h90l615 -1454h-111l-203 479h-694l-203 -479h-112zM1010 565l-318 762l-323 -762h641z" />
<glyph unicode="&#x4d3;" horiz-adv-x="1099" d="M367 1311v180h90v-180h-90zM645 1311v180h90v-180h-90zM72 307q0 141 124 229.5t322 88.5q177 0 328 -54v101q0 148 -86.5 235.5t-233.5 87.5q-158 0 -342 -127l-43 74q210 141 396 141q190 0 300.5 -112.5t110.5 -306.5v-529q0 -48 45 -51v-84q-45 -3 -51 -2 q-38 4 -60 31t-24 61v84q-73 -91 -189 -142.5t-243 -51.5q-152 0 -253 94t-101 233zM805 219q41 50 41 96v177q-143 57 -318 57q-162 0 -260 -64.5t-98 -171.5q0 -104 77.5 -178t198.5 -74q113 0 210 43.5t149 114.5z" />
<glyph unicode="&#x4d4;" horiz-adv-x="1970" d="M889 1454h971v-94h-840v-569h729v-97h-729v-600h858v-94h-960v479h-547l-310 -479h-116zM911 573v750l-491 -750h491z" />
<glyph unicode="&#x4d5;" horiz-adv-x="1904" d="M72 309q0 138 123.5 227t318.5 89q145 0 283 -41q7 98 39 172q-22 114 -104 179.5t-206 65.5q-158 0 -342 -127l-41 70q207 139 392 139q132 0 226.5 -59.5t139.5 -167.5q68 104 177 165.5t237 61.5q147 0 268 -74.5t189 -200.5t69 -276l-2 -40h-944q13 -184 138 -307.5 t294 -123.5q113 0 210.5 57.5t137.5 147.5l90 -24q-48 -115 -171 -188.5t-271 -73.5q-134 0 -248 64.5t-186 174.5q-32 -61 -86 -108.5t-118 -75t-130.5 -41.5t-132.5 -14q-148 0 -249 95t-101 234zM1741 567q-14 189 -133.5 310.5t-292.5 121.5q-172 0 -291.5 -122.5 t-128.5 -309.5h846zM813 225q30 42 33 72q-46 90 -49 215q-128 41 -271 41q-159 0 -257.5 -66t-98.5 -172q0 -107 78.5 -180.5t193.5 -73.5q119 0 219.5 44.5t151.5 119.5z" />
<glyph unicode="&#x4d6;" d="M696 1636q-120 0 -182.5 45t-62.5 115h63q0 -44 44.5 -74t137.5 -30q92 0 131.5 26.5t53.5 77.5h61q0 -70 -62 -115t-184 -45zM1159 94v-94h-969v1454h951v-94h-846v-572h739v-90h-739v-604h864z" />
<glyph unicode="&#x4d7;" horiz-adv-x="1193" d="M604 1253q-120 0 -183 45t-63 115h64q0 -44 44.5 -74t137.5 -30q92 0 131 26.5t53 77.5h62q0 -70 -62 -115t-184 -45zM612 -20q-146 0 -267.5 75.5t-190 203.5t-68.5 278q0 149 67.5 274t187 198.5t265.5 73.5q147 0 267.5 -74.5t187.5 -199.5t67 -272q0 -35 -2 -45h-933 q13 -184 135 -307.5t288 -123.5q111 0 209.5 57.5t137.5 147.5l90 -24q-46 -114 -170 -188t-271 -74zM188 571h842q-13 187 -133 307.5t-289 120.5q-170 0 -290 -121.5t-130 -306.5z" />
<glyph unicode="&#x4d8;" horiz-adv-x="1511" d="M61 719q0 24 5 49h1239q-13 168 -93 305.5t-206 215t-273 77.5q-155 0 -287.5 -83.5t-181.5 -215.5l-100 47q68 153 230.5 251.5t348.5 98.5q137 0 262.5 -59.5t216 -159.5t144 -239t53.5 -291q0 -201 -89 -369t-243 -265t-339 -97q-142 0 -269.5 58t-219 156t-145 234 t-53.5 287zM1307 674h-1131q17 -255 179.5 -423.5t392.5 -168.5q149 0 274 76.5t200.5 212t84.5 303.5z" />
<glyph unicode="&#x4d9;" horiz-adv-x="1193" d="M590 -20q-147 0 -268 74t-189.5 200t-69.5 276q0 6 1.5 20t1.5 19h935q-13 185 -134.5 307.5t-288.5 122.5q-113 0 -211 -56.5t-138 -145.5l-90 24q48 114 171.5 188t271.5 74q146 0 267.5 -76t190 -204t68.5 -279q0 -148 -67 -272.5t-186.5 -198t-264.5 -73.5zM590 61 q168 0 285.5 123.5t128.5 309.5h-838q12 -188 133 -310.5t291 -122.5z" />
<glyph unicode="&#x4dc;" horiz-adv-x="1968" d="M799 1700v180h90v-180h-90zM1077 1700v180h90v-180h-90zM57 0l566 750l-535 704h125l500 -663h219v663h104v-663h217l502 663h123l-535 -704l568 -750h-125l-529 694h-221v-694h-104v694h-223l-529 -694h-123z" />
<glyph unicode="&#x4dd;" horiz-adv-x="1585" d="M608 1311v180h90v-180h-90zM887 1311v180h90v-180h-90zM84 0l405 547l-364 518h119l334 -475h161v475h105v-475h166l329 475h119l-364 -518l407 -547h-119l-372 500h-166v-500h-105v500h-159l-377 -500h-119z" />
<glyph unicode="&#x4de;" horiz-adv-x="1081" d="M373 1700v180h90v-180h-90zM651 1700v180h90v-180h-90zM522 -18q-140 0 -253.5 61.5t-176.5 173.5l84 49q51 -92 141 -142t205 -50q164 0 261.5 86.5t97.5 232.5q0 141 -89.5 229.5t-242.5 88.5h-129v88h131q116 0 194 82.5t78 203.5q0 127 -85 209t-218 82 q-104 0 -184.5 -47.5t-124.5 -134.5l-80 49q60 109 161 169.5t232 60.5q175 0 288.5 -105t113.5 -270q0 -113 -57.5 -204t-155.5 -134q127 -35 200.5 -136t73.5 -237q0 -185 -129 -295t-336 -110z" />
<glyph unicode="&#x4df;" horiz-adv-x="921" d="M256 1311v180h90v-180h-90zM535 1311v180h90v-180h-90zM446 -12q-139 0 -241.5 55.5t-153.5 157.5l86 37q40 -77 119 -119.5t188 -42.5q134 0 214.5 63t80.5 168q0 95 -64 154.5t-173 60.5h-109v76h117q71 0 120.5 58t49.5 141q0 91 -61.5 143.5t-176.5 52.5 q-188 0 -260 -151l-80 41q45 95 133 146.5t209 51.5q149 0 240.5 -74t91.5 -200q0 -78 -38 -144t-101 -98q95 -29 147 -100t52 -170q0 -141 -108 -224t-282 -83z" />
<glyph unicode="&#x4e2;" horiz-adv-x="1546" d="M483 1765v76h584v-76h-584zM195 0v1454h104v-1311l954 1311h99v-1454h-105v1290l-944 -1290h-108z" />
<glyph unicode="&#x4e3;" horiz-adv-x="1206" d="M313 1376v76h584v-76h-584zM160 0v1063h102v-924l692 926h95v-1065h-103v909l-684 -909h-102z" />
<glyph unicode="&#x4e4;" horiz-adv-x="1546" d="M590 1700v180h90v-180h-90zM868 1700v180h90v-180h-90zM195 0v1454h104v-1311l954 1311h99v-1454h-105v1290l-944 -1290h-108z" />
<glyph unicode="&#x4e5;" horiz-adv-x="1206" d="M420 1311v180h90v-180h-90zM698 1311v180h90v-180h-90zM160 0v1063h102v-924l692 926h95v-1065h-103v909l-684 -909h-102z" />
<glyph unicode="&#x4e6;" horiz-adv-x="1542" d="M588 1694v180h90v-180h-90zM866 1694v180h90v-180h-90zM90 727q0 143 52.5 278t142.5 236t217.5 162t269.5 61q118 0 226 -41.5t189.5 -114t142 -165.5t91.5 -200.5t31 -215.5q0 -145 -52.5 -280t-142.5 -235.5t-217.5 -161t-269.5 -60.5q-147 1 -275.5 64t-216 165.5 t-138 235.5t-50.5 272zM772 86q126 0 235.5 56t182.5 146.5t114.5 205.5t41.5 233q0 124 -43.5 241t-118.5 205t-183 141.5t-229 53.5q-126 0 -236 -55.5t-183.5 -146t-115.5 -205.5t-42 -234q0 -125 43 -241t117.5 -204.5t183.5 -142t233 -53.5z" />
<glyph unicode="&#x4e7;" horiz-adv-x="1212" d="M422 1311v180h90v-180h-90zM700 1311v180h91v-180h-91zM86 530q0 111 40 212.5t109 176.5t166 119.5t205 44.5q143 0 263.5 -75.5t188.5 -202.5t68 -275q0 -147 -67.5 -273t-187.5 -201.5t-265 -75.5q-146 0 -266 75.5t-187 201.5t-67 273zM604 72q172 0 295 135t123 325 q0 92 -33.5 177t-89.5 146.5t-132.5 98.5t-160.5 37q-170 0 -294 -137.5t-124 -327.5q0 -189 122 -321.5t294 -132.5z" />
<glyph unicode="&#x4e8;" horiz-adv-x="1552" d="M772 1464q118 0 226 -41.5t189.5 -114t142 -165.5t91.5 -200.5t31 -215.5q0 -145 -52.5 -280t-142.5 -235.5t-217.5 -161t-269.5 -60.5q-147 1 -275.5 64t-216 165.5t-138 235.5t-50.5 272q0 143 52.5 278t142.5 236t217.5 162t269.5 61zM772 1368q-96 0 -184 -32.5 t-155 -89.5t-118.5 -131.5t-81 -161.5t-36.5 -177h1146q-9 117 -55.5 224.5t-120 189t-177 130t-218.5 48.5zM772 86q124 0 232 54t181 142.5t115.5 200.5t45.5 228h-1151q3 -122 47 -235.5t118.5 -200t182 -138t229.5 -51.5z" />
<glyph unicode="&#x4e9;" horiz-adv-x="1210" d="M606 1083q143 0 263.5 -75.5t188.5 -202.5t68 -275q0 -147 -67.5 -273t-187.5 -201.5t-265 -75.5q-146 0 -266 75.5t-187 201.5t-67 273q0 111 40 212.5t109 176.5t166 119.5t205 44.5zM606 991q-159 0 -279 -122t-137 -296h830q-14 174 -133.5 296t-280.5 122zM604 72 q168 0 290 129t128 313h-834q4 -184 125.5 -313t290.5 -129z" />
<glyph unicode="&#x4ee;" horiz-adv-x="1251" d="M352 1765v76h584v-76h-584zM354 -2v90h92q38 0 59.5 23t55.5 86l72 151l-633 1106h117l565 -999l467 999h111l-617 -1309q-41 -82 -77.5 -114.5t-100.5 -32.5h-111z" />
<glyph unicode="&#x4ef;" horiz-adv-x="1105" d="M262 1376v76h584v-76h-584zM231 -360q78 -4 97 8q27 7 58.5 68t123.5 284l-475 1065h108l422 -956l391 956h105l-584 -1401q-44 -111 -160 -117q-33 -5 -86 -2v95z" />
<glyph unicode="&#x4f0;" horiz-adv-x="1251" d="M459 1700v180h90v-180h-90zM737 1700v180h90v-180h-90zM354 -2v90h92q38 0 59.5 23t55.5 86l72 151l-633 1106h117l565 -999l467 999h111l-617 -1309q-41 -82 -77.5 -114.5t-100.5 -32.5h-111z" />
<glyph unicode="&#x4f1;" horiz-adv-x="1105" d="M369 1311v180h90v-180h-90zM647 1311v180h90v-180h-90zM231 -360q78 -4 97 8q27 7 58.5 68t123.5 284l-475 1065h108l422 -956l391 956h105l-584 -1401q-44 -111 -160 -117q-33 -5 -86 -2v95z" />
<glyph unicode="&#x4f2;" horiz-adv-x="1251" d="M514 1677l-59 33l120 174h109zM752 1677l-62 33l123 174h109zM354 -2v90h92q38 0 59.5 23t55.5 86l72 151l-633 1106h117l565 -999l467 999h111l-617 -1309q-41 -82 -77.5 -114.5t-100.5 -32.5h-111z" />
<glyph unicode="&#x4f3;" horiz-adv-x="1105" d="M424 1288l-59 33l120 174h109zM662 1288l-62 33l123 174h108zM231 -360q78 -4 97 8q27 7 58.5 68t123.5 284l-475 1065h108l422 -956l391 956h105l-584 -1401q-44 -111 -160 -117q-33 -5 -86 -2v95z" />
<glyph unicode="&#x4f4;" horiz-adv-x="1310" d="M475 1700v180h90v-180h-90zM754 1700v180h90v-180h-90zM1018 0v643q-195 -84 -404 -84q-241 0 -352.5 104t-111.5 328v463h102v-450q0 -183 88.5 -265t286.5 -82q113 0 218.5 23.5t172.5 60.5v713h102v-1454h-102z" />
<glyph unicode="&#x4f5;" horiz-adv-x="1036" d="M338 1311v180h90v-180h-90zM616 1311v180h91v-180h-91zM774 0v463q-134 -64 -299 -64q-179 0 -264.5 90t-85.5 279v297h102v-285q0 -156 63.5 -226.5t201.5 -70.5q79 0 157.5 18t124.5 46v518h103v-1065h-103z" />
<glyph unicode="&#x4f6;" horiz-adv-x="1042" d="M997 1360h-702v-1266h203v-370h-95v276h-213v1454h807v-94z" />
<glyph unicode="&#x4f7;" horiz-adv-x="819" d="M776 973h-514v-881h180v-338h-92v246h-190v1065h616v-92z" />
<glyph unicode="&#x4f8;" horiz-adv-x="1703" d="M668 1700v180h90v-180h-90zM946 1700v180h90v-180h-90zM190 0v1454h105v-577h387q229 0 347 -119t118 -320q0 -90 -29.5 -169t-85 -139t-143 -95t-197.5 -35h-502zM1409 0v1452h104v-1452h-104zM295 90h385q93 0 164.5 29t113 79t62 110.5t20.5 129.5q0 57 -10.5 105.5 t-36.5 94.5t-66.5 78t-104.5 51t-146 19h-381v-696z" />
<glyph unicode="&#x4f9;" horiz-adv-x="1347" d="M477 1311v180h90v-180h-90zM756 1311v180h90v-180h-90zM160 0v1065h102v-387h262q174 0 265.5 -90t91.5 -242q0 -151 -91.5 -248.5t-257.5 -97.5h-372zM1083 0v1063h103v-1063h-103zM262 84h260q127 0 190.5 74.5t63.5 185.5t-60 180.5t-198 69.5h-256v-510z" />
<glyph unicode="&#x51a;" horiz-adv-x="1540" d="M1452 727q0 -150 -56 -289t-155 -243l162 -195h-109l-114 139q-179 -149 -410 -149q-147 1 -275.5 64t-216 165.5t-138 235.5t-50.5 272q0 143 52.5 278t142.5 236t217.5 162t269.5 61q118 0 226 -41.5t189.5 -114t142 -165.5t91.5 -200.5t31 -215.5zM772 86 q196 0 344 129l-172 207h109l123 -150q81 92 125.5 211.5t44.5 243.5t-43.5 241t-118.5 205t-183 141.5t-229 53.5q-126 0 -236 -55.5t-183.5 -146t-115.5 -205.5t-42 -234q0 -125 43 -241t117.5 -204.5t183.5 -142t233 -53.5z" />
<glyph unicode="&#x51b;" d="M86 530q0 146 67.5 273t185.5 203.5t257 76.5q121 0 230.5 -65t172.5 -168v215h95v-1501h-103v665q-169 -249 -418 -249q-142 0 -255 78.5t-172.5 203.5t-59.5 268zM991 346v348q-17 116 -135.5 206.5t-243.5 90.5q-120 0 -218.5 -68t-151 -173.5t-52.5 -221.5 q0 -121 52 -225.5t147 -167.5t211 -63q127 0 227 76.5t164 197.5z" />
<glyph unicode="&#x51c;" horiz-adv-x="2136" d="M748 1444h102l217 -529l217 529h102l-256 -613l306 -708l557 1331h114l-622 -1454h-96l-320 748l-321 -748h-97l-620 1454h112l559 -1331l302 708z" />
<glyph unicode="&#x51d;" horiz-adv-x="1650" d="M1509 1065h103l-461 -1065h-90l-236 555l-235 -555h-90l-461 1065h100l408 -952l219 520l-178 430h92l145 -350l144 350h94l-178 -430l219 -520z" />
<glyph unicode="&#x524;" horiz-adv-x="1529" d="M1264 94h170v-370h-95v276h-180v1360h-864v-1360h-105v1454h1074v-1360z" />
<glyph unicode="&#x525;" horiz-adv-x="1196" d="M989 92h148v-338h-93v246h-157v973h-625v-973h-102v1065h829v-973z" />
<glyph unicode="&#x1e08;" horiz-adv-x="1413" d="M983 1878l-172 -207l-72 33l125 174h119zM1346 326q-62 -140 -200 -227t-300 -107q112 -78 112 -182q0 -80 -55.5 -123t-150.5 -43q-122 0 -232 55l35 63q96 -47 178 -47q152 0 152 109q0 49 -31.5 87t-97.5 77q-142 3 -268 69t-212 171.5t-136 239t-50 269.5 q0 133 47 261.5t132.5 232t218.5 167.5t290 64q187 0 327 -86.5t210 -230.5l-86 -49q-49 96 -127 158.5t-159.5 87t-172.5 24.5q-133 0 -244.5 -56t-182 -147t-109.5 -203t-39 -229q0 -170 76 -318.5t210.5 -238.5t294.5 -90q92 0 180 28.5t169.5 95t129.5 161.5z" />
<glyph unicode="&#x1e09;" horiz-adv-x="1116" d="M813 1495l-172 -207l-72 33l125 174h119zM1044 240q-35 -96 -130.5 -165t-219.5 -89q105 -75 105 -176q0 -80 -56 -123t-151 -43q-122 0 -232 55l35 63q96 -47 178 -47q152 0 152 109q0 86 -115 156q-145 0 -266 75.5t-189.5 203.5t-68.5 278t66.5 275t187.5 198t270 73 q144 0 255 -65.5t167 -181.5l-100 -33q-47 88 -134.5 138t-191.5 50q-176 0 -297 -130.5t-121 -323.5q0 -192 124 -328.5t296 -136.5q110 0 210.5 59t125.5 137z" />
<glyph unicode="&#x1e0c;" horiz-adv-x="1460" d="M190 0v1454h484q135 0 248.5 -37t194 -103t137 -157t83.5 -199t27 -229q0 -331 -187 -530t-503 -199h-484zM674 1360h-379v-1266h379q140 0 252.5 48.5t185 134t110.5 201t38 251.5q0 185 -67.5 326.5t-201.5 223t-317 81.5zM684 -313v182h94v-182h-94z" />
<glyph unicode="&#x1e0d;" horiz-adv-x="1259" d="M86 530q0 148 62.5 274.5t175.5 202.5t251 76q131 0 240.5 -70t175.5 -179v661h103v-1360q0 -48 43 -51v-84q-40 -3 -50 -2q-36 6 -61 34t-25 62v119q-65 -106 -175 -169.5t-228 -63.5q-144 0 -263 78.5t-184 204.5t-65 267zM991 358v351q-42 116 -158.5 199t-234.5 83 q-90 0 -168 -39.5t-129.5 -104.5t-81 -148t-29.5 -171q0 -121 56.5 -225.5t155 -167.5t214.5 -63q75 0 158.5 38t145.5 105.5t71 142.5zM584 -313v182h94v-182h-94z" />
<glyph unicode="&#x1e0e;" horiz-adv-x="1460" d="M190 0v1454h484q135 0 248.5 -37t194 -103t137 -157t83.5 -199t27 -229q0 -331 -187 -530t-503 -199h-484zM674 1360h-379v-1266h379q140 0 252.5 48.5t185 134t110.5 201t38 251.5q0 185 -67.5 326.5t-201.5 223t-317 81.5zM440 -238v76h584v-76h-584z" />
<glyph unicode="&#x1e0f;" horiz-adv-x="1259" d="M86 530q0 148 62.5 274.5t175.5 202.5t251 76q131 0 240.5 -70t175.5 -179v661h103v-1360q0 -48 43 -51v-84q-40 -3 -50 -2q-36 6 -61 34t-25 62v119q-65 -106 -175 -169.5t-228 -63.5q-144 0 -263 78.5t-184 204.5t-65 267zM991 358v351q-42 116 -158.5 199t-234.5 83 q-90 0 -168 -39.5t-129.5 -104.5t-81 -148t-29.5 -171q0 -121 56.5 -225.5t155 -167.5t214.5 -63q75 0 158.5 38t145.5 105.5t71 142.5zM340 -238v76h584v-76h-584z" />
<glyph unicode="&#x1e14;" d="M524 2265h117l127 -174l-70 -33zM406 1759v76h583v-76h-583zM1159 94v-94h-969v1454h951v-94h-846v-572h739v-90h-739v-604h864z" />
<glyph unicode="&#x1e15;" horiz-adv-x="1193" d="M432 1882h117l127 -174l-70 -33zM313 1376v76h584v-76h-584zM612 -20q-146 0 -267.5 75.5t-190 203.5t-68.5 278q0 149 67.5 274t187 198.5t265.5 73.5q147 0 267.5 -74.5t187.5 -199.5t67 -272q0 -35 -2 -45h-933q13 -184 135 -307.5t288 -123.5q111 0 209.5 57.5 t137.5 147.5l90 -24q-46 -114 -170 -188t-271 -74zM188 571h842q-13 187 -133 307.5t-289 120.5q-170 0 -290 -121.5t-130 -306.5z" />
<glyph unicode="&#x1e16;" d="M731 2058l-72 33l125 174h119zM406 1759v76h583v-76h-583zM1159 94v-94h-969v1454h951v-94h-846v-572h739v-90h-739v-604h864z" />
<glyph unicode="&#x1e17;" horiz-adv-x="1193" d="M639 1675l-72 33l125 174h119zM313 1376v76h584v-76h-584zM612 -20q-146 0 -267.5 75.5t-190 203.5t-68.5 278q0 149 67.5 274t187 198.5t265.5 73.5q147 0 267.5 -74.5t187.5 -199.5t67 -272q0 -35 -2 -45h-933q13 -184 135 -307.5t288 -123.5q111 0 209.5 57.5 t137.5 147.5l90 -24q-46 -114 -170 -188t-271 -74zM188 571h842q-13 187 -133 307.5t-289 120.5q-170 0 -290 -121.5t-130 -306.5z" />
<glyph unicode="&#x1e1c;" d="M696 1690q-75 0 -128.5 55t-53.5 133h68q0 -51 35 -91t79 -40q42 0 75.5 38t39.5 93h68q0 -77 -54.5 -132.5t-128.5 -55.5zM1159 94v-94h-399q61 -41 92 -86t31 -104q0 -80 -56 -123t-151 -43q-122 0 -232 55l35 63q96 -47 178 -47q152 0 152 109q0 53 -36.5 93.5 t-113.5 82.5h-469v1454h951v-94h-846v-572h739v-90h-739v-604h864z" />
<glyph unicode="&#x1e1d;" horiz-adv-x="1193" d="M604 1307q-75 0 -128.5 55t-53.5 133h67q0 -51 35.5 -91t79.5 -40q42 0 75.5 38t39.5 93h67q0 -78 -54 -133t-128 -55zM1128 537q0 -35 -2 -45h-933q13 -184 135 -307.5t288 -123.5q111 0 209.5 57.5t137.5 147.5l90 -24q-40 -98 -138 -167.5t-221 -88.5 q103 -80 103 -176q0 -80 -56 -123t-151 -43q-122 0 -232 55l35 63q96 -47 178 -47q152 0 152 109q0 86 -115 156q-145 1 -265.5 77t-188.5 203.5t-68 276.5t67.5 274t187 198.5t265.5 73.5q147 0 267.5 -74.5t187.5 -199.5t67 -272zM188 571h842q-13 187 -133 307.5 t-289 120.5q-170 0 -290 -121.5t-130 -306.5z" />
<glyph unicode="&#x1e20;" horiz-adv-x="1468" d="M1051 1835v-76h-584v76h584zM932 707h420v-707h-90v227q-212 -237 -490 -237q-144 0 -272.5 64t-217 168t-140.5 237t-52 270q0 143 50.5 277t138 235t213.5 162t268 61q395 0 555 -317l-86 -51q-140 272 -471 272q-126 0 -233.5 -55t-178.5 -145t-111 -205t-40 -236 q0 -169 77 -316.5t212 -236t294 -88.5q270 0 484 256v281h-330v84z" />
<glyph unicode="&#x1e21;" d="M326 1376v76h583v-76h-583zM86 530q0 146 62 272t177 203.5t257 77.5q245 0 417 -249v231h95v-1085q0 -105 -40.5 -189.5t-110 -138t-159.5 -81.5t-192 -28q-177 0 -289 63t-184 183l69 47q61 -104 168.5 -156.5t235.5 -52.5q82 0 154 23t127 66t86.5 111t31.5 153v233 q-65 -103 -174 -166t-227 -63q-142 0 -259 78.5t-181 203t-64 264.5zM991 358v351q-47 123 -158.5 202.5t-234.5 79.5q-92 0 -171 -41t-129.5 -107t-79 -148t-28.5 -167q0 -185 124.5 -320.5t299.5 -135.5q87 0 172 43t140 109t65 134z" />
<glyph unicode="&#x1e24;" horiz-adv-x="1505" d="M1317 1454v-1454h-105v696h-917v-696h-105v1454h105v-663h917v663h105zM707 -313v182h94v-182h-94z" />
<glyph unicode="&#x1e25;" horiz-adv-x="1179" d="M1030 0h-102v594q0 395 -264 395q-130 0 -246 -95t-156 -235v-659h-102v1495h102v-684q64 124 181 198t249 74q172 0 255 -122.5t83 -348.5v-612zM543 -313v182h94v-182h-94z" />
<glyph unicode="&#x1e2a;" horiz-adv-x="1505" d="M1317 1454v-1454h-105v696h-917v-696h-105v1454h105v-663h917v663h105zM868 -98h68q0 -76 -54 -132.5t-128 -56.5q-75 0 -129 56t-54 133h68q0 -50 35.5 -89.5t79.5 -39.5q41 0 74.5 37.5t39.5 91.5z" />
<glyph unicode="&#x1e2b;" horiz-adv-x="1179" d="M1030 0h-102v594q0 395 -264 395q-130 0 -246 -95t-156 -235v-659h-102v1495h102v-684q64 124 181 198t249 74q172 0 255 -122.5t83 -348.5v-612zM705 -98h67q0 -76 -54 -132.5t-128 -56.5q-75 0 -128.5 56t-53.5 133h67q0 -50 35.5 -89.5t79.5 -39.5q41 0 75 37.5 t40 91.5z" />
<glyph unicode="&#x1e2e;" horiz-adv-x="485" d="M276 2081l-71 33l125 174h119zM57 1694v180h90v-180h-90zM336 1694v180h90v-180h-90zM190 0v1454h105v-1454h-105z" />
<glyph unicode="&#x1e2f;" horiz-adv-x="423" d="M246 1698l-72 33l125 174h119zM27 1311v180h90v-180h-90zM305 1311v180h90v-180h-90zM160 0v1065h102v-1065h-102z" />
<glyph unicode="&#x1e36;" horiz-adv-x="1189" d="M190 0v1454h105v-1360h868v-94h-973zM635 -313v182h94v-182h-94z" />
<glyph unicode="&#x1e37;" horiz-adv-x="530" d="M168 1495h104v-1284q0 -129 111 -129q65 0 129 22l20 -84q-84 -32 -174 -32q-86 0 -138 52t-52 140v1315zM301 -313v182h94v-182h-94z" />
<glyph unicode="&#x1e3a;" horiz-adv-x="1189" d="M190 0v1454h105v-1360h868v-94h-973zM391 -238v76h584v-76h-584z" />
<glyph unicode="&#x1e3b;" horiz-adv-x="530" d="M168 1495h104v-1284q0 -129 111 -129q65 0 129 22l20 -84q-84 -32 -174 -32q-86 0 -138 52t-52 140v1315zM57 -238v76h584v-76h-584z" />
<glyph unicode="&#x1e42;" horiz-adv-x="1802" d="M1507 0v1251l-571 -979h-70l-571 979v-1251h-105v1454h105l606 -1040l606 1040h105v-1454h-105zM854 -313v182h94v-182h-94z" />
<glyph unicode="&#x1e43;" horiz-adv-x="1873" d="M1724 0h-102v594q0 201 -62.5 298t-191.5 97q-130 0 -232.5 -92t-142.5 -240v-657h-102v594q0 204 -61.5 299.5t-190.5 95.5t-231.5 -90.5t-145.5 -239.5v-659h-102v1065h96v-254q66 129 173 200.5t235 71.5q132 0 216.5 -78.5t102.5 -209.5q152 288 418 288 q168 0 245.5 -120t77.5 -351v-612zM891 -313v182h94v-182h-94z" />
<glyph unicode="&#x1e44;" horiz-adv-x="1583" d="M752 1694v184h94v-184h-94zM295 1260v-1260h-105v1454h86l1014 -1280v1280h105v-1454h-103z" />
<glyph unicode="&#x1e45;" horiz-adv-x="1179" d="M547 1311v184h94v-184h-94zM1030 0h-102v594q0 205 -59 300t-185 95q-136 0 -258.5 -95t-163.5 -235v-659h-102v1065h96v-254q65 122 190.5 197t266.5 75q168 0 242.5 -118.5t74.5 -352.5v-612z" />
<glyph unicode="&#x1e46;" horiz-adv-x="1583" d="M295 1260v-1260h-105v1454h86l1014 -1280v1280h105v-1454h-103zM754 -313v182h94v-182h-94z" />
<glyph unicode="&#x1e47;" horiz-adv-x="1179" d="M1030 0h-102v594q0 205 -59 300t-185 95q-136 0 -258.5 -95t-163.5 -235v-659h-102v1065h96v-254q65 122 190.5 197t266.5 75q168 0 242.5 -118.5t74.5 -352.5v-612zM539 -313v182h94v-182h-94z" />
<glyph unicode="&#x1e48;" horiz-adv-x="1583" d="M295 1260v-1260h-105v1454h86l1014 -1280v1280h105v-1454h-103zM510 -238v76h584v-76h-584z" />
<glyph unicode="&#x1e49;" horiz-adv-x="1179" d="M1030 0h-102v594q0 205 -59 300t-185 95q-136 0 -258.5 -95t-163.5 -235v-659h-102v1065h96v-254q65 122 190.5 197t266.5 75q168 0 242.5 -118.5t74.5 -352.5v-612zM295 -238v76h584v-76h-584z" />
<glyph unicode="&#x1e4c;" horiz-adv-x="1542" d="M807 2101l-72 33l125 174h119zM635 1790q-31 0 -53.5 -13.5t-32 -32.5t-13.5 -32t-4 -20h-69q0 14 7 37.5t23.5 55.5t53.5 54.5t88 22.5q57 0 133.5 -41t126.5 -41q31 0 54 9.5t34.5 22.5t18.5 28.5t8.5 24t1.5 13.5h71q0 -10 -4 -27.5t-16.5 -43t-32 -47t-55 -37 t-80.5 -15.5q-52 0 -99 20.5t-86.5 41t-74.5 20.5zM90 727q0 143 52.5 278t142.5 236t217.5 162t269.5 61q118 0 226 -41.5t189.5 -114t142 -165.5t91.5 -200.5t31 -215.5q0 -145 -52.5 -280t-142.5 -235.5t-217.5 -161t-269.5 -60.5q-147 1 -275.5 64t-216 165.5 t-138 235.5t-50.5 272zM772 86q126 0 235.5 56t182.5 146.5t114.5 205.5t41.5 233q0 124 -43.5 241t-118.5 205t-183 141.5t-229 53.5q-126 0 -236 -55.5t-183.5 -146t-115.5 -205.5t-42 -234q0 -125 43 -241t117.5 -204.5t183.5 -142t233 -53.5z" />
<glyph unicode="&#x1e4d;" horiz-adv-x="1212" d="M641 1718l-72 33l125 174h119zM469 1407q-31 0 -53.5 -13.5t-32 -32.5t-13 -32t-3.5 -20h-70q0 14 7 37.5t23.5 55.5t53.5 54.5t88 22.5q57 0 133.5 -41t126.5 -41q31 0 54 9.5t34.5 22.5t18.5 28.5t8.5 24t1.5 13.5h72q0 -14 -8 -38t-26 -55.5t-59 -54t-96 -22.5 q-52 0 -99 20.5t-86.5 41t-74.5 20.5zM86 530q0 111 40 212.5t109 176.5t166 119.5t205 44.5q143 0 263.5 -75.5t188.5 -202.5t68 -275q0 -147 -67.5 -273t-187.5 -201.5t-265 -75.5q-146 0 -266 75.5t-187 201.5t-67 273zM604 72q172 0 295 135t123 325q0 92 -33.5 177 t-89.5 146.5t-132.5 98.5t-160.5 37q-170 0 -294 -137.5t-124 -327.5q0 -189 122 -321.5t294 -132.5z" />
<glyph unicode="&#x1e4e;" horiz-adv-x="1542" d="M588 2124v180h90v-180h-90zM866 2124v180h90v-180h-90zM635 1790q-31 0 -53.5 -13.5t-32 -32.5t-13.5 -32t-4 -20h-69q0 14 7 37.5t23.5 55.5t53.5 54.5t88 22.5q57 0 133.5 -41t126.5 -41q31 0 54 9.5t34.5 22.5t18.5 28.5t8.5 24t1.5 13.5h71q0 -10 -4 -27.5t-16.5 -43 t-32 -47t-55 -37t-80.5 -15.5q-52 0 -99 20.5t-86.5 41t-74.5 20.5zM90 727q0 143 52.5 278t142.5 236t217.5 162t269.5 61q118 0 226 -41.5t189.5 -114t142 -165.5t91.5 -200.5t31 -215.5q0 -145 -52.5 -280t-142.5 -235.5t-217.5 -161t-269.5 -60.5q-147 1 -275.5 64 t-216 165.5t-138 235.5t-50.5 272zM772 86q126 0 235.5 56t182.5 146.5t114.5 205.5t41.5 233q0 124 -43.5 241t-118.5 205t-183 141.5t-229 53.5q-126 0 -236 -55.5t-183.5 -146t-115.5 -205.5t-42 -234q0 -125 43 -241t117.5 -204.5t183.5 -142t233 -53.5z" />
<glyph unicode="&#x1e4f;" horiz-adv-x="1212" d="M422 1741v180h90v-180h-90zM700 1741v180h91v-180h-91zM469 1407q-31 0 -53.5 -13.5t-32 -32.5t-13 -32t-3.5 -20h-70q0 14 7 37.5t23.5 55.5t53.5 54.5t88 22.5q57 0 133.5 -41t126.5 -41q31 0 54 9.5t34.5 22.5t18.5 28.5t8.5 24t1.5 13.5h72q0 -14 -8 -38t-26 -55.5 t-59 -54t-96 -22.5q-52 0 -99 20.5t-86.5 41t-74.5 20.5zM86 530q0 111 40 212.5t109 176.5t166 119.5t205 44.5q143 0 263.5 -75.5t188.5 -202.5t68 -275q0 -147 -67.5 -273t-187.5 -201.5t-265 -75.5q-146 0 -266 75.5t-187 201.5t-67 273zM604 72q172 0 295 135t123 325 q0 92 -33.5 177t-89.5 146.5t-132.5 98.5t-160.5 37q-170 0 -294 -137.5t-124 -327.5q0 -189 122 -321.5t294 -132.5z" />
<glyph unicode="&#x1e50;" horiz-adv-x="1542" d="M600 2265h117l127 -174l-70 -33zM481 1759v76h584v-76h-584zM90 727q0 143 52.5 278t142.5 236t217.5 162t269.5 61q118 0 226 -41.5t189.5 -114t142 -165.5t91.5 -200.5t31 -215.5q0 -145 -52.5 -280t-142.5 -235.5t-217.5 -161t-269.5 -60.5q-147 1 -275.5 64 t-216 165.5t-138 235.5t-50.5 272zM772 86q126 0 235.5 56t182.5 146.5t114.5 205.5t41.5 233q0 124 -43.5 241t-118.5 205t-183 141.5t-229 53.5q-126 0 -236 -55.5t-183.5 -146t-115.5 -205.5t-42 -234q0 -125 43 -241t117.5 -204.5t183.5 -142t233 -53.5z" />
<glyph unicode="&#x1e51;" horiz-adv-x="1212" d="M434 1882h117l127 -174l-70 -33zM315 1376v76h584v-76h-584zM86 530q0 111 40 212.5t109 176.5t166 119.5t205 44.5q143 0 263.5 -75.5t188.5 -202.5t68 -275q0 -147 -67.5 -273t-187.5 -201.5t-265 -75.5q-146 0 -266 75.5t-187 201.5t-67 273zM604 72q172 0 295 135 t123 325q0 92 -33.5 177t-89.5 146.5t-132.5 98.5t-160.5 37q-170 0 -294 -137.5t-124 -327.5q0 -189 122 -321.5t294 -132.5z" />
<glyph unicode="&#x1e52;" horiz-adv-x="1542" d="M807 2058l-72 33l125 174h119zM481 1759v76h584v-76h-584zM90 727q0 143 52.5 278t142.5 236t217.5 162t269.5 61q118 0 226 -41.5t189.5 -114t142 -165.5t91.5 -200.5t31 -215.5q0 -145 -52.5 -280t-142.5 -235.5t-217.5 -161t-269.5 -60.5q-147 1 -275.5 64t-216 165.5 t-138 235.5t-50.5 272zM772 86q126 0 235.5 56t182.5 146.5t114.5 205.5t41.5 233q0 124 -43.5 241t-118.5 205t-183 141.5t-229 53.5q-126 0 -236 -55.5t-183.5 -146t-115.5 -205.5t-42 -234q0 -125 43 -241t117.5 -204.5t183.5 -142t233 -53.5z" />
<glyph unicode="&#x1e53;" horiz-adv-x="1212" d="M641 1675l-72 33l125 174h119zM315 1376v76h584v-76h-584zM86 530q0 111 40 212.5t109 176.5t166 119.5t205 44.5q143 0 263.5 -75.5t188.5 -202.5t68 -275q0 -147 -67.5 -273t-187.5 -201.5t-265 -75.5q-146 0 -266 75.5t-187 201.5t-67 273zM604 72q172 0 295 135 t123 325q0 92 -33.5 177t-89.5 146.5t-132.5 98.5t-160.5 37q-170 0 -294 -137.5t-124 -327.5q0 -189 122 -321.5t294 -132.5z" />
<glyph unicode="&#x1e5a;" horiz-adv-x="1329" d="M190 0v1454h605q89 0 169.5 -39.5t135.5 -103t87 -144t32 -163.5q0 -164 -95.5 -290t-246.5 -149l362 -565h-121l-352 549h-471v-549h-105zM295 645h510q91 0 163 52t109 133.5t37 173.5q0 141 -95.5 248.5t-227.5 107.5h-496v-715zM614 -313v182h95v-182h-95z" />
<glyph unicode="&#x1e5b;" horiz-adv-x="698" d="M664 973q-143 -5 -251 -86.5t-151 -220.5v-666h-102v1065h98v-262q55 112 147 182.5t195 81.5q27 2 64 2v-96zM162 -313v182h94v-182h-94z" />
<glyph unicode="&#x1e5e;" horiz-adv-x="1329" d="M190 0v1454h605q89 0 169.5 -39.5t135.5 -103t87 -144t32 -163.5q0 -164 -95.5 -290t-246.5 -149l362 -565h-121l-352 549h-471v-549h-105zM295 645h510q91 0 163 52t109 133.5t37 173.5q0 141 -95.5 248.5t-227.5 107.5h-496v-715zM371 -238v76h583v-76h-583z" />
<glyph unicode="&#x1e5f;" horiz-adv-x="698" d="M664 973q-143 -5 -251 -86.5t-151 -220.5v-666h-102v1065h98v-262q55 112 147 182.5t195 81.5q27 2 64 2v-96zM-82 -238v76h584v-76h-584z" />
<glyph unicode="&#x1e60;" horiz-adv-x="1239" d="M594 1731v184h94v-184h-94zM1036 1212q-143 158 -399 158q-207 0 -307.5 -78.5t-100.5 -220.5q0 -56 17 -97t46.5 -70t85.5 -53t117.5 -40.5t159.5 -36.5q104 -23 174.5 -43.5t139.5 -52.5t109 -72t64.5 -98.5t24.5 -134.5q0 -187 -140.5 -286t-379.5 -99 q-339 0 -575 217l55 84q93 -98 227.5 -153.5t296.5 -55.5q192 0 299 71.5t107 208.5q0 57 -19 101.5t-52.5 77t-92.5 59t-126.5 46t-166.5 40.5q-101 22 -169 41.5t-131 49.5t-99 67t-57 91t-21 124q0 193 140 300t374 107q274 0 453 -170z" />
<glyph unicode="&#x1e61;" horiz-adv-x="980" d="M455 1311v184h94v-184h-94zM496 -20q-264 0 -426 174l47 71q165 -159 375 -159q139 0 223 58t84 159q0 90 -81 137q-56 32 -223 74q-8 2 -25 6h-1l-1 1h-1h-1h-1l-1 1h-1q-73 19 -119.5 34t-91 37.5t-68.5 49t-38.5 64t-14.5 87.5q0 149 110 229t281 80q122 0 216 -40 t145 -109l-56 -66q-48 63 -131 96t-182 33q-124 0 -204.5 -51.5t-80.5 -159.5q0 -26 6 -47t14.5 -37t28.5 -30.5t36.5 -24t50.5 -21t59 -18.5t72 -20q65 -16 101.5 -26.5t86 -26.5t76.5 -30.5t57.5 -36t45.5 -46t25.5 -57t10.5 -72.5q0 -145 -110 -229t-293 -84z" />
<glyph unicode="&#x1e62;" horiz-adv-x="1239" d="M1036 1212q-143 158 -399 158q-207 0 -307.5 -78.5t-100.5 -220.5q0 -56 17 -97t46.5 -70t85.5 -53t117.5 -40.5t159.5 -36.5q104 -23 174.5 -43.5t139.5 -52.5t109 -72t64.5 -98.5t24.5 -134.5q0 -187 -140.5 -286t-379.5 -99q-339 0 -575 217l55 84 q93 -98 227.5 -153.5t296.5 -55.5q192 0 299 71.5t107 208.5q0 57 -19 101.5t-52.5 77t-92.5 59t-126.5 46t-166.5 40.5q-101 22 -169 41.5t-131 49.5t-99 67t-57 91t-21 124q0 193 140 300t374 107q274 0 453 -170zM596 -313v182h94v-182h-94z" />
<glyph unicode="&#x1e63;" horiz-adv-x="980" d="M496 -20q-264 0 -426 174l47 71q165 -159 375 -159q139 0 223 58t84 159q0 90 -81 137q-56 32 -223 74q-8 2 -25 6h-1l-1 1h-1h-1h-1l-1 1h-1q-73 19 -119.5 34t-91 37.5t-68.5 49t-38.5 64t-14.5 87.5q0 149 110 229t281 80q122 0 216 -40t145 -109l-56 -66 q-48 63 -131 96t-182 33q-124 0 -204.5 -51.5t-80.5 -159.5q0 -26 6 -47t14.5 -37t28.5 -30.5t36.5 -24t50.5 -21t59 -18.5t72 -20q65 -16 101.5 -26.5t86 -26.5t76.5 -30.5t57.5 -36t45.5 -46t25.5 -57t10.5 -72.5q0 -145 -110 -229t-293 -84zM446 -313v182h95v-182h-95z " />
<glyph unicode="&#x1e64;" horiz-adv-x="1239" d="M680 2161v184h94v-184h-94zM676 1708l-72 33l125 174h119zM1036 1212q-143 158 -399 158q-207 0 -307.5 -78.5t-100.5 -220.5q0 -56 17 -97t46.5 -70t85.5 -53t117.5 -40.5t159.5 -36.5q104 -23 174.5 -43.5t139.5 -52.5t109 -72t64.5 -98.5t24.5 -134.5 q0 -187 -140.5 -286t-379.5 -99q-339 0 -575 217l55 84q93 -98 227.5 -153.5t296.5 -55.5q192 0 299 71.5t107 208.5q0 57 -19 101.5t-52.5 77t-92.5 59t-126.5 46t-166.5 40.5q-101 22 -169 41.5t-131 49.5t-99 67t-57 91t-21 124q0 193 140 300t374 107q274 0 453 -170z " />
<glyph unicode="&#x1e65;" horiz-adv-x="980" d="M541 1741v184h94v-184h-94zM537 1288l-72 33l125 174h119zM496 -20q-264 0 -426 174l47 71q165 -159 375 -159q139 0 223 58t84 159q0 90 -81 137q-56 32 -223 74q-8 2 -25 6h-1l-1 1h-1h-1h-1l-1 1h-1q-73 19 -119.5 34t-91 37.5t-68.5 49t-38.5 64t-14.5 87.5 q0 149 110 229t281 80q122 0 216 -40t145 -109l-56 -66q-48 63 -131 96t-182 33q-124 0 -204.5 -51.5t-80.5 -159.5q0 -26 6 -47t14.5 -37t28.5 -30.5t36.5 -24t50.5 -21t59 -18.5t72 -20q65 -16 101.5 -26.5t86 -26.5t76.5 -30.5t57.5 -36t45.5 -46t25.5 -57t10.5 -72.5 q0 -145 -110 -229t-293 -84z" />
<glyph unicode="&#x1e66;" horiz-adv-x="1239" d="M594 2161v184h94v-184h-94zM467 1915l174 -129l174 129l62 -35l-199 -166h-76l-196 166zM1036 1212q-143 158 -399 158q-207 0 -307.5 -78.5t-100.5 -220.5q0 -56 17 -97t46.5 -70t85.5 -53t117.5 -40.5t159.5 -36.5q104 -23 174.5 -43.5t139.5 -52.5t109 -72t64.5 -98.5 t24.5 -134.5q0 -187 -140.5 -286t-379.5 -99q-339 0 -575 217l55 84q93 -98 227.5 -153.5t296.5 -55.5q192 0 299 71.5t107 208.5q0 57 -19 101.5t-52.5 77t-92.5 59t-126.5 46t-166.5 40.5q-101 22 -169 41.5t-131 49.5t-99 67t-57 91t-21 124q0 193 140 300t374 107 q274 0 453 -170z" />
<glyph unicode="&#x1e67;" horiz-adv-x="980" d="M455 1741v184h94v-184h-94zM328 1495l174 -129l174 129l61 -35l-198 -166h-76l-197 166zM496 -20q-264 0 -426 174l47 71q165 -159 375 -159q139 0 223 58t84 159q0 90 -81 137q-56 32 -223 74q-8 2 -25 6h-1l-1 1h-1h-1h-1l-1 1h-1q-73 19 -119.5 34t-91 37.5t-68.5 49 t-38.5 64t-14.5 87.5q0 149 110 229t281 80q122 0 216 -40t145 -109l-56 -66q-48 63 -131 96t-182 33q-124 0 -204.5 -51.5t-80.5 -159.5q0 -26 6 -47t14.5 -37t28.5 -30.5t36.5 -24t50.5 -21t59 -18.5t72 -20q65 -16 101.5 -26.5t86 -26.5t76.5 -30.5t57.5 -36t45.5 -46 t25.5 -57t10.5 -72.5q0 -145 -110 -229t-293 -84z" />
<glyph unicode="&#x1e68;" horiz-adv-x="1239" d="M594 1731v184h94v-184h-94zM1036 1212q-143 158 -399 158q-207 0 -307.5 -78.5t-100.5 -220.5q0 -56 17 -97t46.5 -70t85.5 -53t117.5 -40.5t159.5 -36.5q104 -23 174.5 -43.5t139.5 -52.5t109 -72t64.5 -98.5t24.5 -134.5q0 -187 -140.5 -286t-379.5 -99 q-339 0 -575 217l55 84q93 -98 227.5 -153.5t296.5 -55.5q192 0 299 71.5t107 208.5q0 57 -19 101.5t-52.5 77t-92.5 59t-126.5 46t-166.5 40.5q-101 22 -169 41.5t-131 49.5t-99 67t-57 91t-21 124q0 193 140 300t374 107q274 0 453 -170zM596 -313v182h94v-182h-94z" />
<glyph unicode="&#x1e69;" horiz-adv-x="980" d="M455 1311v184h94v-184h-94zM496 -20q-264 0 -426 174l47 71q165 -159 375 -159q139 0 223 58t84 159q0 90 -81 137q-56 32 -223 74q-8 2 -25 6h-1l-1 1h-1h-1h-1l-1 1h-1q-73 19 -119.5 34t-91 37.5t-68.5 49t-38.5 64t-14.5 87.5q0 149 110 229t281 80q122 0 216 -40 t145 -109l-56 -66q-48 63 -131 96t-182 33q-124 0 -204.5 -51.5t-80.5 -159.5q0 -26 6 -47t14.5 -37t28.5 -30.5t36.5 -24t50.5 -21t59 -18.5t72 -20q65 -16 101.5 -26.5t86 -26.5t76.5 -30.5t57.5 -36t45.5 -46t25.5 -57t10.5 -72.5q0 -145 -110 -229t-293 -84zM446 -313 v182h95v-182h-95z" />
<glyph unicode="&#x1e6c;" horiz-adv-x="1241" d="M1206 1360h-532v-1360h-105v1360h-532v94h1169v-94zM575 -313v182h95v-182h-95z" />
<glyph unicode="&#x1e6d;" horiz-adv-x="655" d="M635 51l-12 -7q-12 -6 -21 -10t-26.5 -11.5t-34.5 -13t-37.5 -10.5t-44 -8t-47.5 -3q-89 0 -149 50.5t-60 139.5v803h-150v84h150v365h102v-365h248v-84h-248v-778q3 -57 41 -88t92 -31q38 0 78 11.5t58.5 21t29.5 16.5zM365 -313v182h94v-182h-94z" />
<glyph unicode="&#x1e6e;" horiz-adv-x="1241" d="M1206 1360h-532v-1360h-105v1360h-532v94h1169v-94zM332 -238v76h583v-76h-583z" />
<glyph unicode="&#x1e6f;" horiz-adv-x="655" d="M635 51l-12 -7q-12 -6 -21 -10t-26.5 -11.5t-34.5 -13t-37.5 -10.5t-44 -8t-47.5 -3q-89 0 -149 50.5t-60 139.5v803h-150v84h150v365h102v-365h248v-84h-248v-778q3 -57 41 -88t92 -31q38 0 78 11.5t58.5 21t29.5 16.5zM121 -238v76h584v-76h-584z" />
<glyph unicode="&#x1e78;" horiz-adv-x="1548" d="M811 2101l-72 33l125 174h119zM639 1790q-31 0 -53.5 -13.5t-32 -32.5t-13 -32t-3.5 -20h-70q0 14 7 37.5t23.5 55.5t53.5 54.5t88 22.5q57 0 133.5 -41t126.5 -41q31 0 54 9.5t34.5 22.5t18.5 28.5t8.5 24t1.5 13.5h71q0 -10 -4 -27.5t-16.5 -43t-32 -47t-55 -37 t-80.5 -15.5q-52 0 -99 20.5t-86.5 41t-74.5 20.5zM776 -10q-134 0 -240.5 41.5t-174 110t-112 164.5t-63 198.5t-18.5 218.5v731h104v-731q0 -102 14.5 -190.5t51 -172.5t92.5 -143t144 -95t200 -36q114 0 203 36.5t144 97t91 145t50 172t14 186.5v731h104v-731 q0 -121 -19.5 -226t-65 -199.5t-114 -162t-172 -106.5t-233.5 -39z" />
<glyph unicode="&#x1e79;" horiz-adv-x="1202" d="M623 1718l-72 33l125 174h119zM451 1407q-31 0 -53.5 -13.5t-32 -32.5t-13.5 -32t-4 -20h-69q0 14 7 37.5t23.5 55.5t53.5 54.5t88 22.5q57 0 133.5 -41t126.5 -41q31 0 54 9.5t34 22.5t18 28.5t8.5 24t1.5 13.5h72q0 -10 -4 -27.5t-16.5 -43t-32 -47t-55 -37 t-80.5 -15.5q-52 0 -99 20.5t-86.5 41t-74.5 20.5zM150 451v614h102v-600q0 -393 268 -393q135 0 251 89t163 232v672h102v-930q0 -48 43 -51v-84q-35 -3 -51 0q-34 5 -57.5 31t-24.5 61l-2 160q-69 -127 -191 -199.5t-264 -72.5q-167 0 -253 119t-86 352z" />
<glyph unicode="&#x1e7a;" horiz-adv-x="1548" d="M592 2081v180h90v-180h-90zM870 2081v180h91v-180h-91zM485 1759v76h584v-76h-584zM776 -10q-134 0 -240.5 41.5t-174 110t-112 164.5t-63 198.5t-18.5 218.5v731h104v-731q0 -102 14.5 -190.5t51 -172.5t92.5 -143t144 -95t200 -36q114 0 203 36.5t144 97t91 145t50 172 t14 186.5v731h104v-731q0 -121 -19.5 -226t-65 -199.5t-114 -162t-172 -106.5t-233.5 -39z" />
<glyph unicode="&#x1e7b;" horiz-adv-x="1202" d="M403 1698v180h91v-180h-91zM682 1698v180h90v-180h-90zM297 1376v76h584v-76h-584zM150 451v614h102v-600q0 -393 268 -393q135 0 251 89t163 232v672h102v-930q0 -48 43 -51v-84q-35 -3 -51 0q-34 5 -57.5 31t-24.5 61l-2 160q-69 -127 -191 -199.5t-264 -72.5 q-167 0 -253 119t-86 352z" />
<glyph unicode="&#x1e80;" horiz-adv-x="2136" d="M895 1878h117l127 -174l-70 -33zM748 1444h102l217 -529l217 529h102l-256 -613l306 -708l557 1331h114l-622 -1454h-96l-320 748l-321 -748h-97l-620 1454h112l559 -1331l302 708z" />
<glyph unicode="&#x1e81;" horiz-adv-x="1650" d="M653 1495h117l127 -174l-70 -33zM1509 1065h103l-461 -1065h-90l-236 555l-235 -555h-90l-461 1065h100l408 -952l219 520l-178 430h92l145 -350l144 350h94l-178 -430l219 -520z" />
<glyph unicode="&#x1e82;" horiz-adv-x="2136" d="M1102 1671l-72 33l125 174h119zM748 1444h102l217 -529l217 529h102l-256 -613l306 -708l557 1331h114l-622 -1454h-96l-320 748l-321 -748h-97l-620 1454h112l559 -1331l302 708z" />
<glyph unicode="&#x1e83;" horiz-adv-x="1650" d="M860 1288l-72 33l125 174h119zM1509 1065h103l-461 -1065h-90l-236 555l-235 -555h-90l-461 1065h100l408 -952l219 520l-178 430h92l145 -350l144 350h94l-178 -430l219 -520z" />
<glyph unicode="&#x1e84;" horiz-adv-x="2136" d="M883 1694v180h90v-180h-90zM1161 1694v180h90v-180h-90zM748 1444h102l217 -529l217 529h102l-256 -613l306 -708l557 1331h114l-622 -1454h-96l-320 748l-321 -748h-97l-620 1454h112l559 -1331l302 708z" />
<glyph unicode="&#x1e85;" horiz-adv-x="1650" d="M641 1311v180h90v-180h-90zM920 1311v180h90v-180h-90zM1509 1065h103l-461 -1065h-90l-236 555l-235 -555h-90l-461 1065h100l408 -952l219 520l-178 430h92l145 -350l144 350h94l-178 -430l219 -520z" />
<glyph unicode="&#x1e8e;" horiz-adv-x="1325" d="M614 1694v184h95v-184h-95zM154 1454l508 -805l509 805h117l-573 -905v-549h-105v553l-571 901h115z" />
<glyph unicode="&#x1e8f;" horiz-adv-x="1105" d="M518 1311v184h94v-184h-94zM231 -360q78 -4 97 8q27 7 58.5 68t123.5 284l-475 1065h108l422 -956l391 956h105l-584 -1401q-44 -111 -160 -117q-33 -5 -86 -2v95z" />
<glyph unicode="&#x1e92;" horiz-adv-x="1284" d="M61 86l1035 1274h-1020v94h1143v-86l-1026 -1274h1021v-94h-1153v86zM596 -313v182h94v-182h-94z" />
<glyph unicode="&#x1e93;" horiz-adv-x="1003" d="M66 74l749 911h-737v80h856v-74l-748 -911h744v-80h-864v74zM455 -313v182h94v-182h-94z" />
<glyph unicode="&#x1e97;" horiz-adv-x="655" d="M80 1700v180h90v-180h-90zM358 1700v180h91v-180h-91zM635 51l-12 -7q-12 -6 -21 -10t-26.5 -11.5t-34.5 -13t-37.5 -10.5t-44 -8t-47.5 -3q-89 0 -149 50.5t-60 139.5v803h-150v84h150v365h102v-365h248v-84h-248v-778q3 -57 41 -88t92 -31q38 0 78 11.5t58.5 21 t29.5 16.5z" />
<glyph unicode="&#x1e9e;" horiz-adv-x="1261" d="M778 588q50 -13 80 -21t71 -20t65.5 -22t54.5 -24t47.5 -28.5t36 -33.5t28 -40.5t15.5 -48t6 -57.5q0 -145 -110.5 -229t-295.5 -84q-262 0 -424 174l47 71q86 -83 176.5 -121t198.5 -38q138 0 222.5 58t84.5 159q0 38 -15.5 67.5t-33.5 47.5t-66.5 37.5t-80.5 29 t-110 29.5q-20 5 -30 8q-92 24 -147 44t-100.5 50.5t-64.5 73.5t-19 104q0 56 17 102t45 79.5t74 60t91.5 44t111 31.5t120.5 22t131 17q-20 112 -115 176t-227 64q-184 0 -293 -119.5t-109 -308.5v-942h-100v954q0 225 143 366.5t365 141.5q181 0 296.5 -97.5t139.5 -260.5 l4 -41q-268 -36 -359 -59q-179 -47 -223 -140q-16 -36 -16 -80q0 -26 6 -47.5t15.5 -37.5t29 -30t37.5 -23.5t50.5 -20.5t58.5 -18.5t71 -18.5z" />
<glyph unicode="&#x1ea0;" horiz-adv-x="1382" d="M647 1454h90l615 -1454h-111l-203 479h-694l-203 -479h-112zM1010 565l-318 762l-323 -762h641zM664 -313v182h94v-182h-94z" />
<glyph unicode="&#x1ea1;" horiz-adv-x="1099" d="M72 307q0 141 124 229.5t322 88.5q177 0 328 -54v101q0 148 -86.5 235.5t-233.5 87.5q-158 0 -342 -127l-43 74q210 141 396 141q190 0 300.5 -112.5t110.5 -306.5v-529q0 -48 45 -51v-84q-45 -3 -51 -2q-38 4 -60 31t-24 61v84q-73 -91 -189 -142.5t-243 -51.5 q-152 0 -253 94t-101 233zM805 219q41 50 41 96v177q-143 57 -318 57q-162 0 -260 -64.5t-98 -171.5q0 -104 77.5 -178t198.5 -74q113 0 210 43.5t149 114.5zM530 -313v182h95v-182h-95z" />
<glyph unicode="&#x1ea2;" horiz-adv-x="1382" d="M596 1792l-45 45q40 35 73.5 51.5t75.5 16.5q59 0 94 -35.5t35 -89.5q0 -39 -23 -74.5t-73 -83.5l-35 39q64 67 64 111q0 31 -18 50t-52 19q-26 0 -45.5 -10.5t-50.5 -38.5zM647 1454h90l615 -1454h-111l-203 479h-694l-203 -479h-112zM1010 565l-318 762l-323 -762h641z " />
<glyph unicode="&#x1ea3;" horiz-adv-x="1099" d="M438 1409l-45 45q39 34 73 51t77 17q59 0 94 -35.5t35 -89.5q0 -39 -23 -74t-74 -84l-34 39q63 66 63 111q0 31 -17.5 50t-51.5 19q-26 0 -46 -10.5t-51 -38.5zM72 307q0 141 124 229.5t322 88.5q177 0 328 -54v101q0 148 -86.5 235.5t-233.5 87.5q-158 0 -342 -127 l-43 74q210 141 396 141q190 0 300.5 -112.5t110.5 -306.5v-529q0 -48 45 -51v-84q-45 -3 -51 -2q-38 4 -60 31t-24 61v84q-73 -91 -189 -142.5t-243 -51.5q-152 0 -253 94t-101 233zM805 219q41 50 41 96v177q-143 57 -318 57q-162 0 -260 -64.5t-98 -171.5 q0 -104 77.5 -178t198.5 -74q113 0 210 43.5t149 114.5z" />
<glyph unicode="&#x1ea4;" horiz-adv-x="1382" d="M930 1735l-72 32l125 175h119zM442 1636l197 166h76l198 -166l-61 -34l-174 129l-174 -129zM647 1454h90l615 -1454h-111l-203 479h-694l-203 -479h-112zM1010 565l-318 762l-323 -762h641z" />
<glyph unicode="&#x1ea5;" horiz-adv-x="1099" d="M772 1352l-72 32l125 175h119zM285 1253l196 166h76l199 -166l-62 -34l-174 129l-174 -129zM72 307q0 141 124 229.5t322 88.5q177 0 328 -54v101q0 148 -86.5 235.5t-233.5 87.5q-158 0 -342 -127l-43 74q210 141 396 141q190 0 300.5 -112.5t110.5 -306.5v-529 q0 -48 45 -51v-84q-45 -3 -51 -2q-38 4 -60 31t-24 61v84q-73 -91 -189 -142.5t-243 -51.5q-152 0 -253 94t-101 233zM805 219q41 50 41 96v177q-143 57 -318 57q-162 0 -260 -64.5t-98 -171.5q0 -104 77.5 -178t198.5 -74q113 0 210 43.5t149 114.5z" />
<glyph unicode="&#x1ea6;" horiz-adv-x="1382" d="M270 1946h117l127 -174l-70 -33zM459 1638l196 166h76l199 -166l-62 -34l-174 129l-174 -129zM647 1454h90l615 -1454h-111l-203 479h-694l-203 -479h-112zM1010 565l-318 762l-323 -762h641z" />
<glyph unicode="&#x1ea7;" horiz-adv-x="1099" d="M113 1563h116l127 -174l-69 -33zM301 1255l197 166h75l199 -166l-61 -34l-174 129l-175 -129zM72 307q0 141 124 229.5t322 88.5q177 0 328 -54v101q0 148 -86.5 235.5t-233.5 87.5q-158 0 -342 -127l-43 74q210 141 396 141q190 0 300.5 -112.5t110.5 -306.5v-529 q0 -48 45 -51v-84q-45 -3 -51 -2q-38 4 -60 31t-24 61v84q-73 -91 -189 -142.5t-243 -51.5q-152 0 -253 94t-101 233zM805 219q41 50 41 96v177q-143 57 -318 57q-162 0 -260 -64.5t-98 -171.5q0 -104 77.5 -178t198.5 -74q113 0 210 43.5t149 114.5z" />
<glyph unicode="&#x1ea8;" horiz-adv-x="1382" d="M782 1896l-45 46q39 34 73 50.5t77 16.5q59 0 94 -35.5t35 -89.5q0 -39 -23 -74.5t-73 -83.5l-35 39q63 66 63 111q0 31 -17.5 50.5t-51.5 19.5q-26 0 -45.5 -11t-51.5 -39zM440 1638l197 166h76l198 -166l-61 -34l-174 129l-174 -129zM647 1454h90l615 -1454h-111 l-203 479h-694l-203 -479h-112zM1010 565l-318 762l-323 -762h641z" />
<glyph unicode="&#x1ea9;" horiz-adv-x="1099" d="M625 1513l-45 46q39 34 72.5 50.5t76.5 16.5q59 0 94 -35.5t35 -89.5q0 -39 -23 -74.5t-73 -83.5l-35 39q64 67 64 111q0 31 -18 50.5t-52 19.5q-26 0 -45 -10.5t-51 -39.5zM283 1255l196 166h76l199 -166l-62 -34l-174 129l-174 -129zM72 307q0 141 124 229.5t322 88.5 q177 0 328 -54v101q0 148 -86.5 235.5t-233.5 87.5q-158 0 -342 -127l-43 74q210 141 396 141q190 0 300.5 -112.5t110.5 -306.5v-529q0 -48 45 -51v-84q-45 -3 -51 -2q-38 4 -60 31t-24 61v84q-73 -91 -189 -142.5t-243 -51.5q-152 0 -253 94t-101 233zM805 219 q41 50 41 96v177q-143 57 -318 57q-162 0 -260 -64.5t-98 -171.5q0 -104 77.5 -178t198.5 -74q113 0 210 43.5t149 114.5z" />
<glyph unicode="&#x1eaa;" horiz-adv-x="1382" d="M557 1929q-31 0 -53.5 -13.5t-32 -32.5t-13 -32t-3.5 -20h-70q0 14 7 37.5t23.5 55.5t53.5 54.5t88 22.5q57 0 133.5 -41t126.5 -41q31 0 54 9.5t34.5 22.5t18.5 28.5t8.5 24t1.5 13.5h72q0 -14 -8 -38t-26 -55.5t-59 -54t-96 -22.5q-52 0 -99 20.5t-86.5 41t-74.5 20.5z M440 1636l197 166h76l198 -166l-61 -34l-174 129l-174 -129zM647 1454h90l615 -1454h-111l-203 479h-694l-203 -479h-112zM1010 565l-318 762l-323 -762h641z" />
<glyph unicode="&#x1eab;" horiz-adv-x="1099" d="M399 1546q-31 0 -53.5 -13.5t-32 -32.5t-13 -32t-3.5 -20h-70q0 14 7 37.5t23.5 55.5t53.5 54.5t88 22.5q57 0 133.5 -41t126.5 -41q31 0 54 9.5t34.5 22.5t18.5 28.5t8.5 24t1.5 13.5h72q0 -14 -8 -38t-26 -55.5t-59 -54t-96 -22.5q-52 0 -99 20.5t-86.5 41t-74.5 20.5z M283 1253l196 166h76l199 -166l-62 -34l-174 129l-174 -129zM72 307q0 141 124 229.5t322 88.5q177 0 328 -54v101q0 148 -86.5 235.5t-233.5 87.5q-158 0 -342 -127l-43 74q210 141 396 141q190 0 300.5 -112.5t110.5 -306.5v-529q0 -48 45 -51v-84q-45 -3 -51 -2 q-38 4 -60 31t-24 61v84q-73 -91 -189 -142.5t-243 -51.5q-152 0 -253 94t-101 233zM805 219q41 50 41 96v177q-143 57 -318 57q-162 0 -260 -64.5t-98 -171.5q0 -104 77.5 -178t198.5 -74q113 0 210 43.5t149 114.5z" />
<glyph unicode="&#x1eac;" horiz-adv-x="1382" d="M457 1712l196 166h76l199 -166l-62 -35l-174 129l-174 -129zM647 1454h90l615 -1454h-111l-203 479h-694l-203 -479h-112zM1010 565l-318 762l-323 -762h641zM664 -313v182h94v-182h-94z" />
<glyph unicode="&#x1ead;" horiz-adv-x="1099" d="M299 1329l197 166h75l199 -166l-61 -35l-174 129l-175 -129zM72 307q0 141 124 229.5t322 88.5q177 0 328 -54v101q0 148 -86.5 235.5t-233.5 87.5q-158 0 -342 -127l-43 74q210 141 396 141q190 0 300.5 -112.5t110.5 -306.5v-529q0 -48 45 -51v-84q-45 -3 -51 -2 q-38 4 -60 31t-24 61v84q-73 -91 -189 -142.5t-243 -51.5q-152 0 -253 94t-101 233zM805 219q41 50 41 96v177q-143 57 -318 57q-162 0 -260 -64.5t-98 -171.5q0 -104 77.5 -178t198.5 -74q113 0 210 43.5t149 114.5zM530 -313v182h95v-182h-95z" />
<glyph unicode="&#x1eae;" horiz-adv-x="1382" d="M715 1798l-72 33l125 174h119zM797 1788h67q0 -78 -54 -133.5t-128 -55.5q-75 0 -128.5 55.5t-53.5 133.5h67q0 -51 35.5 -91t79.5 -40q42 0 75.5 38t39.5 93zM647 1454h90l615 -1454h-111l-203 479h-694l-203 -479h-112zM1010 565l-318 762l-323 -762h641z" />
<glyph unicode="&#x1eaf;" horiz-adv-x="1099" d="M557 1415l-72 33l125 174h119zM639 1405h68q0 -77 -54.5 -132.5t-128.5 -55.5q-75 0 -128.5 55t-53.5 133h68q0 -51 35 -91t79 -40q42 0 75.5 38t39.5 93zM72 307q0 141 124 229.5t322 88.5q177 0 328 -54v101q0 148 -86.5 235.5t-233.5 87.5q-158 0 -342 -127l-43 74 q210 141 396 141q190 0 300.5 -112.5t110.5 -306.5v-529q0 -48 45 -51v-84q-45 -3 -51 -2q-38 4 -60 31t-24 61v84q-73 -91 -189 -142.5t-243 -51.5q-152 0 -253 94t-101 233zM805 219q41 50 41 96v177q-143 57 -318 57q-162 0 -260 -64.5t-98 -171.5q0 -104 77.5 -178 t198.5 -74q113 0 210 43.5t149 114.5z" />
<glyph unicode="&#x1eb0;" horiz-adv-x="1382" d="M496 2009h116l127 -174l-69 -33zM801 1786h67q0 -78 -54 -133.5t-128 -55.5q-75 0 -128.5 55.5t-53.5 133.5h67q0 -51 35.5 -91t79.5 -40q42 0 75.5 38t39.5 93zM647 1454h90l615 -1454h-111l-203 479h-694l-203 -479h-112zM1010 565l-318 762l-323 -762h641z" />
<glyph unicode="&#x1eb1;" horiz-adv-x="1099" d="M338 1626h117l127 -174l-70 -33zM643 1403h68q0 -78 -54.5 -133.5t-128.5 -55.5q-75 0 -128.5 55.5t-53.5 133.5h68q0 -51 35 -91t79 -40q42 0 75.5 38t39.5 93zM72 307q0 141 124 229.5t322 88.5q177 0 328 -54v101q0 148 -86.5 235.5t-233.5 87.5q-158 0 -342 -127 l-43 74q210 141 396 141q190 0 300.5 -112.5t110.5 -306.5v-529q0 -48 45 -51v-84q-45 -3 -51 -2q-38 4 -60 31t-24 61v84q-73 -91 -189 -142.5t-243 -51.5q-152 0 -253 94t-101 233zM805 219q41 50 41 96v177q-143 57 -318 57q-162 0 -260 -64.5t-98 -171.5 q0 -104 77.5 -178t198.5 -74q113 0 210 43.5t149 114.5z" />
<glyph unicode="&#x1eb2;" horiz-adv-x="1382" d="M559 1954l-45 45q39 34 73 50.5t77 16.5q59 0 94 -35t35 -89q0 -39 -23 -74t-74 -84l-34 39q63 66 63 110q0 31 -18 50.5t-52 19.5q-26 0 -45.5 -10.5t-50.5 -38.5zM797 1790h67q0 -78 -54 -133t-128 -55q-75 0 -128.5 55t-53.5 133h67q0 -51 35.5 -91t79.5 -40 q42 0 75.5 38t39.5 93zM647 1454h90l615 -1454h-111l-203 479h-694l-203 -479h-112zM1010 565l-318 762l-323 -762h641z" />
<glyph unicode="&#x1eb3;" horiz-adv-x="1099" d="M401 1571l-45 45q39 34 73 50.5t77 16.5q59 0 94 -35t35 -89q0 -39 -23 -74.5t-73 -83.5l-35 39q63 66 63 110q0 31 -17.5 50.5t-51.5 19.5q-26 0 -46 -10.5t-51 -38.5zM639 1407h68q0 -77 -54.5 -132.5t-128.5 -55.5q-75 0 -128.5 55t-53.5 133h68q0 -51 35 -91t79 -40 q42 0 75.5 38t39.5 93zM72 307q0 141 124 229.5t322 88.5q177 0 328 -54v101q0 148 -86.5 235.5t-233.5 87.5q-158 0 -342 -127l-43 74q210 141 396 141q190 0 300.5 -112.5t110.5 -306.5v-529q0 -48 45 -51v-84q-45 -3 -51 -2q-38 4 -60 31t-24 61v84q-73 -91 -189 -142.5 t-243 -51.5q-152 0 -253 94t-101 233zM805 219q41 50 41 96v177q-143 57 -318 57q-162 0 -260 -64.5t-98 -171.5q0 -104 77.5 -178t198.5 -74q113 0 210 43.5t149 114.5z" />
<glyph unicode="&#x1eb4;" horiz-adv-x="1382" d="M539 1942q-31 0 -53.5 -13.5t-32 -32.5t-13.5 -32.5t-4 -20.5h-69q0 14 7 37.5t23.5 55.5t53.5 54.5t88 22.5q57 0 133.5 -41t126.5 -41q31 0 54 10t34 22.5t18 28.5t8.5 24.5t1.5 13.5h72q0 -10 -4 -27.5t-16.5 -43t-32 -47t-55 -37t-80.5 -15.5q-52 0 -99 20.5 t-86.5 41t-74.5 20.5zM780 1790h68q0 -78 -54 -133t-128 -55q-75 0 -129 55t-54 133h68q0 -51 35.5 -91t79.5 -40q41 0 74.5 38t39.5 93zM647 1454h90l615 -1454h-111l-203 479h-694l-203 -479h-112zM1010 565l-318 762l-323 -762h641z" />
<glyph unicode="&#x1eb5;" horiz-adv-x="1099" d="M381 1559q-31 0 -53.5 -13.5t-32 -33t-13 -32.5t-3.5 -20h-70q0 14 7 37.5t23.5 55.5t53.5 54.5t88 22.5q57 0 133.5 -41t126.5 -41q31 0 54 10t34.5 22.5t18.5 28.5t8.5 24.5t1.5 13.5h71q0 -10 -4 -27.5t-16.5 -43t-32 -47t-55 -37t-80.5 -15.5q-52 0 -99 20.5 t-86.5 41t-74.5 20.5zM623 1407h67q0 -78 -54 -133t-128 -55q-75 0 -128.5 55t-53.5 133h67q0 -51 35.5 -91t79.5 -40q42 0 75.5 38t39.5 93zM72 307q0 141 124 229.5t322 88.5q177 0 328 -54v101q0 148 -86.5 235.5t-233.5 87.5q-158 0 -342 -127l-43 74q210 141 396 141 q190 0 300.5 -112.5t110.5 -306.5v-529q0 -48 45 -51v-84q-45 -3 -51 -2q-38 4 -60 31t-24 61v84q-73 -91 -189 -142.5t-243 -51.5q-152 0 -253 94t-101 233zM805 219q41 50 41 96v177q-143 57 -318 57q-162 0 -260 -64.5t-98 -171.5q0 -104 77.5 -178t198.5 -74 q113 0 210 43.5t149 114.5z" />
</font>
</defs>
</svg>
