<?xml version="1.0" standalone="no"?>
<!DOCTYPE svg PUBLIC "-//W3C//DTD SVG 1.1//EN" "http://www.w3.org/Graphics/SVG/1.1/DTD/svg11.dtd" >
<svg xmlns="http://www.w3.org/2000/svg" xmlns:xlink="http://www.w3.org/1999/xlink" version="1.1">
<metadata></metadata>
<defs>
<font id="rawlinemedium" horiz-adv-x="1226" >
<font-face units-per-em="2048" ascent="1638" descent="-410" />
<missing-glyph horiz-adv-x="518" />
<glyph unicode="fi" horiz-adv-x="1075" d="M203 928h-146v141h146v23q0 81 25 155.5t72 135t124.5 97t173.5 36.5q181 0 336 -107l-78 -133q-41 37 -108 60.5t-140 23.5q-110 0 -167.5 -78t-57.5 -184v-29h547v-1069h-180v928h-367v-928h-180v928z" />
<glyph unicode="fl" horiz-adv-x="1241" d="M1032 -14q-105 0 -165 60t-60 165v922q0 42 -10.5 80t-33 72t-65 54.5t-100.5 20.5q-108 0 -160 -73t-55 -200v-18h211v-141h-211v-928h-180v928h-146v141h146v37q0 190 101.5 300t291.5 110t290.5 -94.5t100.5 -250.5v-895q0 -43 6 -70t19 -39.5t25.5 -16t33.5 -3.5 q75 0 148 29l28 -147q-44 -19 -105.5 -31t-109.5 -12z" />
<glyph unicode="&#xd;" horiz-adv-x="0" />
<glyph unicode=" "  horiz-adv-x="518" />
<glyph unicode="&#x09;" horiz-adv-x="518" />
<glyph unicode="&#xa0;" horiz-adv-x="518" />
<glyph unicode="!" horiz-adv-x="536" d="M178 492v976h180v-976h-180zM178 0v254h180v-254h-180z" />
<glyph unicode="&#x22;" horiz-adv-x="663" d="M137 1028v442h156v-442h-156zM371 1028v442h155v-442h-155z" />
<glyph unicode="#" horiz-adv-x="1417" d="M1341 915h-274l-88 -364h272v-139h-305l-100 -412h-150l103 412h-344l-101 -412h-149l102 412h-231v139h264l88 364h-262v132h295l98 407h150l-101 -407h344l99 407h149l-100 -407h241v-132zM831 551l89 364h-345l-88 -364h344z" />
<glyph unicode="$" horiz-adv-x="1273" d="M1192 391q0 -131 -65.5 -222t-174 -134.5t-254.5 -48.5v-205h-114v209q-294 21 -512 200l88 156q64 -67 182 -122t252 -68v491q-3 1 -9.5 2t-9.5 2q-95 23 -161 45.5t-123.5 54t-91.5 70t-53 91.5t-19 122q0 188 125.5 300.5t331.5 127.5v207h114v-207q244 -14 428 -164 l-86 -149q-49 56 -145 99t-209 50v-487q2 -1 7 -2t7 -2q98 -22 168 -44.5t135 -56t104 -75.5t62 -102.5t23 -137.5zM317 1063q0 -95 63.5 -144t213.5 -88v467q-139 -9 -208 -70t-69 -165zM686 152q148 3 228.5 59.5t80.5 161.5q0 99 -73.5 153t-235.5 97v-471z" />
<glyph unicode="%" horiz-adv-x="1501" d="M76 1176q0 124 92 211.5t223 87.5q132 0 224 -87t92 -212t-92 -212t-224 -87q-131 0 -223 87.5t-92 211.5zM145 68l574 690l549 706l88 -75l-568 -687l-557 -712zM575 1176q0 82 -55 141t-129 59q-76 0 -130 -60t-54 -140q0 -83 54.5 -142t129.5 -59q76 0 130 60.5 t54 140.5zM795 279q0 124 92 211.5t223 87.5q132 0 223.5 -87t91.5 -212t-91.5 -212t-223.5 -87q-131 0 -223 87.5t-92 211.5zM1294 279q0 82 -55 141t-129 59q-76 0 -130 -60t-54 -140q0 -83 54.5 -142t129.5 -59q76 0 130 59.5t54 141.5z" />
<glyph unicode="&#x26;" horiz-adv-x="1394" d="M1384 0h-237l-152 160q-180 -180 -432 -180q-202 0 -336.5 115.5t-134.5 289.5q0 70 22.5 133t65 115t90 93t111.5 83q-103 114 -143.5 187.5t-40.5 148.5q0 141 107 234.5t267 93.5q150 0 252.5 -82t102.5 -215q0 -60 -21.5 -113t-66.5 -100.5t-92 -85t-119 -84.5 l372 -390q80 154 80 347h150q0 -257 -125 -457zM571 1335q-90 0 -149.5 -54.5t-59.5 -131.5q0 -45 32 -95t128 -153q123 80 180.5 139t57.5 131t-53.5 118t-135.5 46zM582 123q182 0 315 139l-412 436q-106 -74 -162.5 -149t-56.5 -166q0 -119 93.5 -189.5t222.5 -70.5z" />
<glyph unicode="'" horiz-adv-x="430" d="M137 1026v444h156v-444h-156z" />
<glyph unicode="(" horiz-adv-x="579" d="M377 1524l139 -62q-95 -143 -178.5 -360.5t-83.5 -399.5q0 -313 258 -718l-133 -70q-293 436 -293 795q0 133 41.5 277.5t100 264.5t149.5 273z" />
<glyph unicode=")" horiz-adv-x="579" d="M201 -86l-133 70q258 405 258 718q0 125 -45.5 280.5t-102.5 274t-115 205.5l140 62q91 -153 149.5 -273t100 -264.5t41.5 -277.5q0 -359 -293 -795z" />
<glyph unicode="*" horiz-adv-x="673" d="M172 1102l90 133l-141 45l26 86l144 -55l-6 151h104l-6 -151l143 55l27 -86l-141 -45l92 -133l-78 -51l-88 137l-90 -137z" />
<glyph unicode="+" horiz-adv-x="851" d="M750 801v-148h-242v-262h-164v262h-242v148h242v262h164v-262h242z" />
<glyph unicode="," horiz-adv-x="432" d="M152 -166l41 182h-62v213h170v-213l-61 -182h-88z" />
<glyph unicode="-" horiz-adv-x="866" d="M131 477v164h604v-164h-604z" />
<glyph unicode="." horiz-adv-x="413" d="M131 0v229h152v-229h-152z" />
<glyph unicode="/" horiz-adv-x="1296" d="M1239 1454l-983 -1454h-201l981 1454h203z" />
<glyph unicode="0" horiz-adv-x="1413" d="M96 717q0 105 27 210.5t80 200t125.5 167.5t170.5 116t208 43q98 0 185 -32.5t152.5 -88.5t118.5 -128.5t86 -155.5t50.5 -167.5t17.5 -164.5q0 -106 -27 -212t-80 -199.5t-125 -166t-170 -115.5t-208 -44q-116 2 -217 48t-172 120.5t-122 169.5t-75.5 197t-24.5 202z M707 145q83 0 154.5 36.5t120 95.5t82.5 134.5t50 153t16 152.5q0 101 -29 201.5t-81 183.5t-134 134.5t-179 51.5q-103 0 -187 -55t-134 -141.5t-76.5 -183.5t-26.5 -191q3 -103 31 -202t78.5 -183t132.5 -135.5t182 -51.5z" />
<glyph unicode="1" horiz-adv-x="903" d="M858 164v-164h-723v164h279v1116q-38 -53 -143.5 -114.5t-182.5 -61.5v168q41 0 89 20t87.5 47.5t74.5 57t54 49.5t21 24h184v-1306h260z" />
<glyph unicode="2" horiz-adv-x="1208" d="M94 0q0 159 39.5 280t108.5 201.5t174 143.5q49 29 130 68t133 67t106.5 69t82 95t27.5 123q0 112 -72.5 185t-208.5 73q-129 0 -228.5 -59.5t-164.5 -137.5l-117 117q19 23 43 47.5t74.5 63t106.5 67t137.5 49.5t167.5 21q111 0 200.5 -33.5t146 -92t86.5 -134.5 t30 -164q0 -54 -13.5 -103t-28.5 -84t-53 -73t-58 -57.5t-74 -51.5t-71 -41t-77 -39q-26 -13 -39 -20q-101 -49 -171 -92.5t-112 -80t-65 -78.5t-31 -78t-10 -87h805v-164h-1004z" />
<glyph unicode="3" horiz-adv-x="1198" d="M575 -18q-189 0 -319.5 87.5t-161.5 233.5l103 109q10 -99 114.5 -180.5t261.5 -81.5q144 0 240 70t96 183q0 125 -120.5 195t-331.5 70h-70v153h70q194 0 303.5 61.5t109.5 180.5q0 113 -88 181.5t-211 68.5q-125 0 -218 -56t-132 -139l-121 125q60 105 190 167.5 t279 62.5q211 0 351.5 -115.5t140.5 -286.5q0 -123 -73.5 -204.5t-209.5 -114.5q143 -26 230.5 -129.5t87.5 -241.5q0 -92 -43 -169t-115.5 -126.5t-166 -76.5t-196.5 -27z" />
<glyph unicode="4" horiz-adv-x="1181" d="M739 0v371h-684v161l740 922h125v-919h180v-164h-180v-371h-181zM244 535h514v643z" />
<glyph unicode="5" horiz-adv-x="1142" d="M547 -20q-154 0 -279 73t-190 199l112 98q57 -96 153.5 -152.5t205.5 -56.5q141 0 234.5 90t93.5 230q0 135 -90.5 223t-223.5 88q-87 0 -164.5 -39.5t-124.5 -109.5h-163l163 831h707v-166h-573l-89 -463q92 103 267 103q203 0 339 -130.5t136 -332.5q0 -142 -68 -253 t-185 -171.5t-261 -60.5z" />
<glyph unicode="6" horiz-adv-x="1241" d="M649 971q-127 0 -229 -64t-146 -170q3 268 103.5 419t269.5 151q107 0 196.5 -57t133.5 -152l110 108q-66 122 -181.5 190t-256.5 68q-253 0 -399 -219t-146 -639q0 -290 144.5 -458t382.5 -168q144 0 263.5 66.5t188 181.5t68.5 253q0 135 -66.5 247.5t-182 177.5 t-253.5 65zM287 481q0 141 102 242.5t244 101.5q141 0 243.5 -101.5t102.5 -242.5q0 -142 -102.5 -244t-243.5 -102t-243.5 102.5t-102.5 243.5z" />
<glyph unicode="7" horiz-adv-x="1093" d="M811 1288h-745v166h1032l-733 -1454h-203z" />
<glyph unicode="8" horiz-adv-x="1224" d="M608 -16q-217 0 -362.5 125.5t-145.5 310.5q0 125 81 220t192 138q-96 41 -159.5 119.5t-63.5 175.5q0 89 41.5 163t108.5 120.5t148 72t164 25.5q84 0 165.5 -25t149 -71.5t109 -120t41.5 -162.5q0 -97 -64.5 -177t-162.5 -120q118 -46 196 -142.5t78 -223.5 q0 -126 -71 -225t-188 -151t-257 -52zM612 842q106 0 193.5 63t87.5 166q0 99 -84 160t-199 61q-114 0 -196 -62t-82 -163q0 -102 87 -163.5t193 -61.5zM610 702q-83 0 -156.5 -34t-121 -99t-47.5 -147t50 -147t124 -97.5t155 -32.5q127 0 227.5 79.5t100.5 199.5 q0 84 -50.5 149t-125.5 97t-156 32z" />
<glyph unicode="9" horiz-adv-x="1241" d="M592 473q127 0 229 64t146 170q-1 -267 -102.5 -417.5t-270.5 -150.5q-107 0 -196.5 57t-133.5 152l-110 -108q66 -123 181.5 -191.5t256.5 -68.5q253 0 399 220t146 640q0 290 -144.5 457t-382.5 167q-144 0 -263.5 -66t-188 -181.5t-68.5 -253.5q0 -204 146 -347 t356 -143zM956 963q0 -139 -102.5 -240.5t-243.5 -101.5t-243.5 101.5t-102.5 242.5t101.5 243.5t242.5 102.5t244.5 -103.5t103.5 -244.5z" />
<glyph unicode=":" horiz-adv-x="411" d="M131 831v230h150v-230h-150zM131 0v229h150v-229h-150z" />
<glyph unicode=";" horiz-adv-x="452" d="M141 831v230h150v-230h-150zM162 -166l41 182h-62v213h170v-213l-61 -182h-88z" />
<glyph unicode="&#x3c;" horiz-adv-x="1044" d="M68 573l860 519v-193l-598 -369l598 -362v-201l-860 512v94z" />
<glyph unicode="=" horiz-adv-x="899" d="M137 641v123h625v-123h-625zM137 367v122h625v-122h-625z" />
<glyph unicode="&#x3e;" horiz-adv-x="1044" d="M977 479l-860 -512v201l598 362l-598 369v193l860 -519v-94z" />
<glyph unicode="?" horiz-adv-x="980" d="M295 432q0 114 40.5 196t131.5 140q14 9 54 32t63.5 37.5t58 43t54 55.5t34 66.5t14.5 84.5q0 110 -74 173t-177 63q-98 0 -179 -56t-125 -139l-120 80q54 123 172 194t256 71q78 0 149.5 -24.5t130 -71.5t93 -124t34.5 -174q0 -60 -14.5 -110t-35.5 -84t-59 -66.5 t-68.5 -52t-80.5 -47.5q-31 -17 -43.5 -24t-39.5 -25t-39 -30.5t-30.5 -35.5t-27 -46t-15 -55.5t-6.5 -70.5h-151zM299 0v238h152v-238h-152z" />
<glyph unicode="@" horiz-adv-x="1720" d="M1610 455q0 -32 -2 -64.5t-9.5 -83t-19.5 -94.5t-35.5 -90.5t-54.5 -79.5t-78.5 -54.5t-105.5 -21.5q-50 0 -85 15t-53.5 43t-27.5 57t-13 68q-62 -65 -153.5 -105.5t-194.5 -40.5q-146 0 -228.5 78t-82.5 201q0 62 22.5 111.5t59.5 81.5t87.5 53t103.5 29.5t110 8.5 q126 0 252 -47q0 72 -11.5 124.5t-38.5 95t-76.5 64t-121.5 21.5q-158 0 -283 -94l-41 100q156 105 340 105q66 0 119.5 -13.5t89 -35.5t62 -56.5t40.5 -69t22.5 -80t11 -83t2.5 -84.5v-244q0 -52 3 -85.5t13.5 -65.5t32 -47t55.5 -15q47 0 84 29t58.5 72t36 99.5t19.5 106 t5 95.5q0 193 -86.5 352t-240.5 250.5t-343 91.5q-187 0 -341 -87.5t-243.5 -244t-89.5 -350.5q0 -113 31.5 -217.5t91 -189.5t139.5 -148.5t182.5 -98t215.5 -34.5q149 0 315 78l29 -78q-165 -82 -346 -82q-151 0 -288 58t-237.5 158.5t-159.5 244.5t-59 309q0 137 41 259 t113.5 213t168 157.5t209 100.5t232.5 34q151 0 287.5 -55.5t239.5 -155t164 -247.5t61 -322zM1100 350v76q-7 1 -49 13.5t-95 22t-108 9.5q-116 0 -190 -43t-74 -137q0 -78 55.5 -129t146.5 -51q97 0 189 45q73 34 99 82.5t26 111.5z" />
<glyph unicode="A" horiz-adv-x="1386" d="M616 1454h156l594 -1454h-197l-172 426h-610l-170 -426h-197zM956 569l-262 672l-270 -672h532z" />
<glyph unicode="B" horiz-adv-x="1374" d="M864 0h-690v1454h723q98 0 176 -55.5t117 -139t39 -176.5q0 -110 -55.5 -202.5t-153.5 -135.5q125 -37 197.5 -136t72.5 -234q0 -165 -123.5 -270t-302.5 -105zM358 1294v-485h463q96 0 161 70.5t65 171.5q0 103 -60.5 173t-152.5 70h-476zM879 659h-521v-499h506 q100 0 170 74t70 174q0 102 -65 176.5t-160 74.5z" />
<glyph unicode="C" horiz-adv-x="1396" d="M772 1462q188 0 329.5 -86.5t211.5 -230.5l-146 -94q-31 66 -78 115.5t-101.5 76.5t-110 40t-113.5 13q-117 0 -214 -50t-157.5 -131.5t-93.5 -181t-33 -204.5q0 -151 65 -282.5t181.5 -212t257.5 -80.5q80 0 156.5 25.5t148 85t111.5 145.5l153 -84 q-44 -104 -139.5 -182.5t-209 -117t-228.5 -38.5q-145 0 -274 65t-217 171t-139.5 240.5t-51.5 272.5q0 106 29.5 210.5t88.5 197t140.5 163.5t194 112.5t239.5 41.5z" />
<glyph unicode="D" horiz-adv-x="1466" d="M174 0v1454h504q171 0 306 -56.5t220.5 -156t130.5 -230t45 -282.5q0 -331 -191 -530t-511 -199h-504zM678 1290h-320v-1126h320q164 0 282 74.5t176 201t58 289.5q0 252 -137 406.5t-379 154.5z" />
<glyph unicode="E" horiz-adv-x="1239" d="M1161 164v-164h-987v1454h969v-164h-785v-471h682v-153h-682v-502h803z" />
<glyph unicode="F" horiz-adv-x="1193" d="M174 0v1454h961v-164h-777v-485h654v-154h-654v-651h-184z" />
<glyph unicode="G" horiz-adv-x="1462" d="M887 725h469v-725h-156v197q-189 -207 -442 -207q-140 0 -267.5 63.5t-216.5 166.5t-141.5 237.5t-52.5 273.5q0 145 52 279t140.5 234t216 160t269.5 60q203 0 342 -84.5t213 -232.5l-142 -98q-63 123 -171.5 186t-245.5 63q-143 0 -256.5 -81.5t-172.5 -211t-59 -278.5 q0 -154 66 -285t183 -208.5t257 -77.5q239 0 428 229v201h-313v139z" />
<glyph unicode="H" horiz-adv-x="1517" d="M1343 1454v-1454h-184v662h-801v-662h-184v1454h184v-629h801v629h184z" />
<glyph unicode="I" horiz-adv-x="532" d="M174 0v1454h184v-1454h-184z" />
<glyph unicode="J" horiz-adv-x="993" d="M72 217q108 -74 270 -74q77 0 131 21t89 59.5t54.5 106t27 147.5t7.5 197v780h185v-739q0 -101 -4.5 -178t-17 -157.5t-34.5 -138t-58.5 -110t-87.5 -84.5t-123 -51t-163 -19q-190 0 -323 91z" />
<glyph unicode="K" horiz-adv-x="1335" d="M174 0v1452h184v-803l750 805h199l-584 -641l616 -813h-206l-527 702l-248 -258v-444h-184z" />
<glyph unicode="L" horiz-adv-x="1196" d="M174 0v1454h184v-1290h811v-164h-995z" />
<glyph unicode="M" horiz-adv-x="1789" d="M1432 0v1110l-480 -854h-112l-482 854v-1110h-184v1454h195l526 -944l528 944h193v-1454h-184z" />
<glyph unicode="N" horiz-adv-x="1576" d="M358 1114v-1114h-184v1454h156l889 -1137v1135h184v-1452h-168z" />
<glyph unicode="O" horiz-adv-x="1531" d="M80 727q0 192 89 361t248.5 272.5t350.5 103.5q119 0 227 -41.5t189.5 -113.5t142 -166t92 -201.5t31.5 -216.5q0 -193 -88.5 -361t-247.5 -271t-350 -103q-148 0 -278 62.5t-217.5 166t-138 236t-50.5 272.5zM766 156q112 0 207.5 49.5t158 130.5t97.5 183t35 208 q0 149 -62 278.5t-177.5 210t-258.5 80.5q-112 0 -208 -49t-158.5 -129.5t-98 -182t-35.5 -208.5q0 -111 36.5 -214.5t100.5 -182.5t158.5 -126.5t204.5 -47.5z" />
<glyph unicode="P" horiz-adv-x="1275" d="M174 0v1454h606q123 0 226 -68.5t159 -175t56 -221.5q0 -121 -52.5 -227t-152 -173t-223.5 -67h-435v-522h-184zM358 686h424q112 0 182 88t70 215t-78.5 214t-185.5 87h-412v-604z" />
<glyph unicode="Q" horiz-adv-x="1527" d="M1450 725q0 -144 -51.5 -277t-145.5 -237l183 -211h-181l-102 119q-176 -129 -389 -129q-148 1 -278 63.5t-217.5 165.5t-138 235.5t-50.5 272.5q0 192 89 361t248.5 272.5t350.5 103.5q119 0 227 -41.5t189.5 -113.5t142 -166t92 -201.5t31.5 -216.5zM766 156 q153 0 276 92l-194 227h180l111 -129q60 79 92.5 179t32.5 202q0 149 -62 279t-177.5 211t-258.5 81q-112 0 -208 -49.5t-158.5 -130t-98 -182.5t-35.5 -209q0 -111 36.5 -214.5t100.5 -182.5t158.5 -126.5t204.5 -47.5z" />
<glyph unicode="R" horiz-adv-x="1345" d="M174 0v1454h623q93 0 176.5 -40.5t140 -106t90 -149t33.5 -169.5q0 -154 -84.5 -275.5t-220.5 -156.5l352 -557h-209l-332 522h-385v-522h-184zM358 686h441q111 0 181.5 89.5t70.5 213.5q0 122 -79.5 211.5t-185.5 89.5h-428v-604z" />
<glyph unicode="S" horiz-adv-x="1247" d="M1028 1149q-55 62 -163.5 106.5t-231.5 44.5q-165 0 -246.5 -62t-81.5 -175q0 -39 9.5 -69t32.5 -54t50.5 -41.5t75.5 -34t95 -28.5t120 -29q98 -22 168 -44.5t135 -56t104 -75.5t62 -102.5t23 -137.5q0 -136 -71 -229t-187.5 -134.5t-270.5 -41.5q-340 0 -592 204 l88 156q73 -77 213 -135.5t295 -58.5q157 0 242.5 56.5t85.5 164.5q0 35 -10 64t-25.5 51.5t-45.5 42.5t-60 34.5t-78.5 30.5t-91.5 27.5t-109 27.5q-95 23 -161 45.5t-123.5 54t-91.5 70t-53 91.5t-19 122q0 136 68 234.5t185 147t269 48.5q273 0 477 -166z" />
<glyph unicode="T" horiz-adv-x="1257" d="M1223 1290h-502v-1290h-184v1290h-502v164h1188v-164z" />
<glyph unicode="U" horiz-adv-x="1546" d="M774 -10q-135 0 -242 40.5t-176.5 108.5t-116 162.5t-66 198t-19.5 219.5v735h184v-735q0 -90 13 -169t44.5 -152.5t80 -126t124.5 -84t172 -31.5q71 0 130.5 16.5t104 46t79 71.5t57.5 90t37.5 105.5t21 114.5t6.5 119v735h185v-735q0 -121 -21 -227t-68.5 -199 t-118.5 -159.5t-176 -105t-235 -38.5z" />
<glyph unicode="V" horiz-adv-x="1392" d="M215 1454l481 -1223l480 1223h194l-590 -1454h-168l-592 1454h195z" />
<glyph unicode="W" horiz-adv-x="2148" d="M707 1446h174l192 -506l195 506h174l-252 -633l250 -600l491 1241h201l-608 -1454h-160l-289 686l-291 -686h-159l-607 1454h199l494 -1241l247 600z" />
<glyph unicode="X" horiz-adv-x="1304" d="M215 1454l438 -602l439 602h206l-542 -737l526 -717h-207l-422 582l-422 -582h-208l526 717l-543 737h209z" />
<glyph unicode="Y" horiz-adv-x="1341" d="M229 1454l441 -758l444 758h201l-553 -924v-530h-184v535l-551 919h202z" />
<glyph unicode="Z" horiz-adv-x="1292" d="M66 143l938 1147h-920v164h1135v-143l-922 -1147h922v-164h-1153v143z" />
<glyph unicode="[" horiz-adv-x="552" d="M172 -82v1598h287v-148h-119v-1302h119v-148h-287z" />
<glyph unicode="\" horiz-adv-x="1208" d="M260 1454l891 -1454h-201l-893 1454h203z" />
<glyph unicode="]" horiz-adv-x="552" d="M94 -82v148h119v1302h-119v148h287v-1598h-287z" />
<glyph unicode="^" horiz-adv-x="1132" d="M86 621l406 833h151l404 -833h-154l-326 671l-331 -671h-150z" />
<glyph unicode="_" horiz-adv-x="1030" d="M129 -164v164h772v-164h-772z" />
<glyph unicode="`" horiz-adv-x="475" d="M98 1495h178l121 -207l-116 -41z" />
<glyph unicode="a" horiz-adv-x="1134" d="M61 309q0 151 126.5 242.5t330.5 91.5q166 0 293 -45v78q0 124 -74.5 194t-208.5 70q-157 0 -340 -123l-65 127q211 143 426 143q205 0 323.5 -114t118.5 -316v-452q0 -34 13.5 -49t44.5 -17v-139q-49 -8 -78 -8q-60 0 -94 32.5t-37 75.5l-4 68q-69 -88 -180.5 -138 t-225.5 -50q-160 0 -264.5 95t-104.5 234zM758 233q24 27 38.5 57.5t14.5 51.5v133q-130 51 -270 51q-139 0 -223.5 -54.5t-84.5 -147.5q0 -83 65 -146t179 -63q82 0 158.5 32.5t122.5 85.5z" />
<glyph unicode="b" horiz-adv-x="1275" d="M305 201v-201h-160v1495h181v-639q150 231 395 231q141 0 252.5 -80t169 -206t57.5 -271q0 -149 -66 -275t-182.5 -200.5t-257.5 -74.5q-122 0 -225.5 60.5t-163.5 160.5zM1016 530q0 105 -43.5 196.5t-125 148.5t-181.5 57q-110 0 -199.5 -71t-140.5 -179v-309 q19 -97 120.5 -167.5t202.5 -70.5q157 0 262 118.5t105 276.5z" />
<glyph unicode="c" horiz-adv-x="1134" d="M618 -20q-157 0 -282.5 76.5t-193.5 203.5t-68 277q0 151 66.5 275.5t191.5 199.5t284 75q156 0 273.5 -69.5t177.5 -190.5l-176 -55q-41 75 -115.5 117.5t-163.5 42.5q-150 0 -252 -113t-102 -282q0 -168 104.5 -285t251.5 -117q93 0 176.5 49t108.5 117l176 -53 q-48 -119 -173 -193.5t-284 -74.5z" />
<glyph unicode="d" horiz-adv-x="1288" d="M76 532q0 151 61.5 277.5t173.5 202t250 75.5q124 0 226.5 -64.5t164.5 -166.5v639h181v-1290q0 -34 13 -49.5t44 -16.5v-139q-52 -8 -80 -8q-53 0 -93 36.5t-40 82.5v90q-63 -102 -169 -161.5t-222 -59.5q-145 0 -263 76.5t-182.5 202.5t-64.5 273zM952 375v307 q-38 104 -138 177t-202 73t-183.5 -58t-124 -149.5t-42.5 -194.5q0 -163 106.5 -279t260.5 -116q101 0 202 72t121 168z" />
<glyph unicode="e" horiz-adv-x="1210" d="M618 -20q-157 0 -282.5 76t-193.5 202.5t-68 276.5q0 112 40.5 213t111.5 176t174 119t221 44t219.5 -44.5t169.5 -119.5t106.5 -174t38.5 -206q0 -46 -4 -70h-887q12 -156 116 -257t245 -101q99 0 185.5 49.5t119.5 128.5l155 -43q-53 -120 -180.5 -195t-286.5 -75z M258 598h729q-13 155 -117.5 254.5t-248.5 99.5t-248.5 -100t-114.5 -254z" />
<glyph unicode="f" horiz-adv-x="702" d="M203 0v928h-146v141h146v23q0 196 88 310t239 114q130 0 236 -66l-45 -133q-65 45 -154 45t-136.5 -68t-47.5 -196v-29h285v-141h-285v-928h-180z" />
<glyph unicode="g" horiz-adv-x="1277" d="M78 532q0 150 62 276.5t176 202.5t257 76q244 0 400 -231v213h160v-1057q0 -147 -73.5 -255t-195.5 -161t-276 -53q-174 0 -290.5 60.5t-195.5 175.5l105 92q62 -92 162.5 -140t218.5 -48q101 0 182 35t131.5 111t50.5 183v189q-60 -98 -163.5 -155.5t-217.5 -57.5 q-106 0 -199 45t-157 120t-100.5 174t-36.5 205zM952 375v307q-43 109 -139.5 179.5t-202.5 70.5q-104 0 -186 -60t-123 -151.5t-41 -192.5q0 -161 107 -277t260 -116q111 0 207 73.5t118 166.5z" />
<glyph unicode="h" horiz-adv-x="1208" d="M1073 0h-180v598q0 163 -57.5 245.5t-167.5 82.5q-107 0 -207 -80.5t-135 -200.5v-645h-181v1495h181v-655q63 115 172 181t237 66q338 0 338 -448v-639z" />
<glyph unicode="i" horiz-adv-x="471" d="M145 1270v225h181v-225h-181zM145 0v1069h181v-1069h-181z" />
<glyph unicode="j" horiz-adv-x="485" d="M160 1270v225h180v-225h-180zM-238 -295l84 121q52 -47 142 -47q68 0 120 50.5t52 123.5v1116h180v-1104q0 -149 -99 -247.5t-233 -98.5q-150 0 -246 86z" />
<glyph unicode="k" horiz-adv-x="1103" d="M899 0l-371 520l-202 -190v-330h-181v1495h181v-977l553 549h194l-426 -442l447 -625h-195z" />
<glyph unicode="l" horiz-adv-x="585" d="M150 1495h180v-1219q0 -43 6 -70t19 -39.5t25.5 -16t33.5 -3.5q74 0 147 29l29 -147q-44 -19 -105.5 -31t-109.5 -12q-105 0 -165 60t-60 165v1284z" />
<glyph unicode="m" horiz-adv-x="1892" d="M1757 0h-180v598q0 328 -215 328q-108 0 -196.5 -78.5t-125.5 -204.5v-643h-180v598q0 168 -53 248t-160 80t-195.5 -77.5t-125.5 -203.5v-645h-181v1069h164v-229q65 119 170.5 183t235.5 64t211 -71t100 -189q144 260 408 260q323 0 323 -448v-639z" />
<glyph unicode="n" horiz-adv-x="1208" d="M1073 0h-180v598q0 169 -52 248.5t-159 79.5q-112 0 -216 -80.5t-140 -200.5v-645h-181v1069h164v-229q63 113 183.5 180t261.5 67q90 0 154 -33t99 -95.5t50.5 -140t15.5 -179.5v-639z" />
<glyph unicode="o" d="M74 532q0 149 67.5 275.5t192 203t278.5 76.5q155 0 280 -76.5t193 -203t68 -275.5q0 -111 -39.5 -211.5t-109.5 -176t-172 -120t-220 -44.5q-157 0 -281 76t-190.5 201.5t-66.5 274.5zM612 135q148 0 252.5 116.5t104.5 283.5q0 165 -104.5 281t-252.5 116 q-146 0 -250 -117.5t-104 -284.5t103 -281t251 -114z" />
<glyph unicode="p" horiz-adv-x="1275" d="M326 211v-647h-181v1505h160v-201q64 100 167 159.5t222 59.5q142 0 259.5 -77.5t182 -203.5t64.5 -271q0 -152 -60 -278.5t-170.5 -201.5t-248.5 -75q-127 0 -229.5 63t-165.5 168zM1016 535q0 163 -106.5 280t-260.5 117q-100 0 -201.5 -72.5t-121.5 -167.5v-305 q45 -108 139.5 -180t200.5 -72q102 0 183.5 58t124 149t42.5 193z" />
<glyph unicode="q" horiz-adv-x="1275" d="M76 535q0 149 66.5 275.5t183 201.5t256.5 75q121 0 224 -60.5t165 -160.5v203h159v-1505h-180v647q-146 -231 -395 -231q-138 0 -249 77.5t-170.5 203.5t-59.5 274zM950 365v307q-12 68 -64 128.5t-123.5 96t-141.5 35.5q-102 0 -186 -58.5t-129.5 -150t-45.5 -193.5 q0 -164 101 -279.5t255 -115.5q108 0 192.5 63.5t141.5 166.5z" />
<glyph unicode="r" horiz-adv-x="743" d="M711 911q-136 -3 -239.5 -69.5t-145.5 -182.5v-659h-181v1069h168v-248q56 111 146.5 180t191.5 76q46 0 60 -2v-164z" />
<glyph unicode="s" horiz-adv-x="999" d="M512 -20q-281 0 -451 176l70 127q171 -160 373 -160q113 0 181.5 43t68.5 123q0 22 -6 39.5t-14 30.5t-26 25t-32 19.5t-43.5 17t-49 15t-59 16t-63.5 17.5q-88 25 -147 50.5t-105 60.5t-67 81.5t-21 108.5q0 149 113.5 233t297.5 84q242 0 381 -145l-82 -125 q-126 129 -309 129q-62 0 -111 -12.5t-84.5 -49t-35.5 -93.5q0 -30 11 -53.5t27 -39t51 -31.5t65 -26t87 -27q93 -27 136.5 -41t105 -42t88 -55.5t47.5 -72t21 -102.5q0 -150 -114 -235.5t-304 -85.5z" />
<glyph unicode="t" horiz-adv-x="720" d="M698 53q-151 -67 -260 -67q-105 0 -173 56.5t-68 166.5v719h-146v141h146v356h180v-356h239v-141h-239v-664q3 -56 36.5 -84t84.5 -28q82 0 157 45z" />
<glyph unicode="u" horiz-adv-x="1230" d="M135 428v641h180v-606q0 -328 228 -328q112 0 208.5 71.5t143.5 192.5v670h180v-864q0 -34 13.5 -49t44.5 -17v-139q-41 -6 -82 -6q-53 0 -89.5 31.5t-37.5 78.5l-4 125q-70 -119 -188 -184t-257 -65q-167 0 -253.5 113.5t-86.5 334.5z" />
<glyph unicode="v" horiz-adv-x="1103" d="M453 0l-420 1069h188l336 -897l336 897h176l-420 -1069h-196z" />
<glyph unicode="w" horiz-adv-x="1681" d="M1485 1069h174l-455 -1069h-157l-207 504l-205 -504h-158l-454 1069h172l368 -891l172 438l-180 451h158l127 -340l127 340h157l-178 -451l172 -438z" />
<glyph unicode="x" horiz-adv-x="1050" d="M225 1069l283 -393l16 -33l19 33l280 393h201l-395 -537l397 -532h-201l-282 391l-19 31l-16 -31l-283 -391h-200l397 532l-395 537h198z" />
<glyph unicode="y" horiz-adv-x="1116" d="M195 -291q70 -8 94 -8q49 0 82 53.5t106 245.5l-452 1069h190l360 -887l326 887h178l-520 -1350q-31 -79 -100.5 -129.5t-177.5 -50.5q-40 0 -86 10v160z" />
<glyph unicode="z" horiz-adv-x="1009" d="M61 117l674 821h-655v131h858v-117l-670 -821h672v-131h-879v117z" />
<glyph unicode="{" horiz-adv-x="555" d="M346 1368v-500q0 -77 -59 -131q29 -26 44 -63t15 -68v-522h113v-147h-230q-18 0 -32.5 14.5t-14.5 46.5v555q0 45 -24 80t-62 41v131q39 0 62.5 39.5t23.5 77.5v532q0 33 15.5 47.5t31.5 14.5h230v-148h-113z" />
<glyph unicode="|" horiz-adv-x="491" d="M168 -266v1853h156v-1853h-156z" />
<glyph unicode="}" horiz-adv-x="555" d="M96 1368v148h230q15 0 31 -14.5t16 -47.5v-532q0 -38 23.5 -77.5t62.5 -39.5v-131q-39 -6 -62.5 -40.5t-23.5 -80.5v-555q0 -32 -15 -46.5t-32 -14.5h-230v147h113v522q0 32 14.5 68.5t44.5 62.5q-59 54 -59 131v500h-113z" />
<glyph unicode="~" horiz-adv-x="1089" d="M373 715q44 0 91.5 -18.5t82.5 -40t80 -40t84 -18.5q30 0 55 10t40.5 24.5t26 30.5t15 27t4.5 15h106q0 -7 -7 -29t-26 -55t-45.5 -63t-72 -51.5t-98.5 -21.5q-47 0 -97 18t-85.5 39.5t-78.5 39.5t-77 18q-28 0 -52 -11.5t-38 -27.5t-23.5 -33.5t-13.5 -29t-4 -13.5h-107 q0 12 7.5 36.5t26 58.5t44.5 63.5t69 50.5t93 21z" />
<glyph unicode="&#xa1;" horiz-adv-x="532" d="M356 1462v-254h-180v254h180zM356 971v-977h-180v977h180z" />
<glyph unicode="&#xa2;" horiz-adv-x="1167" d="M565 -246v228q-136 11 -247.5 93t-171.5 202.5t-60 250.5q0 139 56.5 259t167 201t255.5 97v236h90v-236q147 -4 255 -71t169 -187l-174 -55q-40 72 -105.5 110.5t-144.5 43.5v-787q79 7 158.5 52t99.5 110l177 -53q-25 -64 -76.5 -116.5t-113.5 -84.5t-125.5 -49.5 t-119.5 -17.5v-226h-90zM565 147v773q-134 -17 -214.5 -132.5t-80.5 -259.5q0 -138 83.5 -247t211.5 -134z" />
<glyph unicode="&#xa3;" horiz-adv-x="1048" d="M922 162l45 -137q-112 -56 -228 -56q-61 0 -174.5 25.5t-177.5 25.5q-117 0 -233 -36l-45 131q131 124 187 220.5t56 196.5q0 50 -12 97h-231v139h180q-12 24 -43 81.5t-45.5 88t-28.5 79t-14 93.5q0 147 113.5 250.5t273.5 103.5q115 0 218 -57.5t169 -157.5l-101 -110 q-50 80 -129 128t-161 48q-92 0 -154.5 -63.5t-62.5 -155.5q0 -50 19 -100t58.5 -121.5t55.5 -106.5h366v-139h-321q8 -39 8 -88q0 -100 -45.5 -191t-155.5 -209q79 21 152 21q57 0 149 -18.5t138 -18.5q70 0 174 37z" />
<glyph unicode="&#xa4;" horiz-adv-x="1101" d="M328 995q94 72 223 72q125 0 223 -72l146 148l84 -84l-148 -148q68 -96 68 -221q0 -123 -70 -221l150 -147l-74 -74l-152 141q-97 -74 -227 -74q-129 0 -229 74l-150 -141l-74 74l148 147q-68 100 -68 221q0 127 66 221l-146 148l84 84zM551 440q94 0 159.5 73t65.5 179 q0 105 -65.5 176.5t-159.5 71.5t-159.5 -72.5t-65.5 -179.5q0 -104 65.5 -176t159.5 -72z" />
<glyph unicode="&#xa5;" horiz-adv-x="1406" d="M930 772h166v-123h-234l-69 -119v-57h305v-123h-305v-350h-185v350h-301v123h301v62l-65 114h-236v123h170l-418 682h201l440 -758l445 758h203z" />
<glyph unicode="&#xa6;" horiz-adv-x="495" d="M326 1587v-825h-156v825h156zM326 559v-825h-156v825h156z" />
<glyph unicode="&#xa7;" horiz-adv-x="1058" d="M969 199q0 -94 -40 -169.5t-104.5 -119.5t-137 -67t-144.5 -23q-238 0 -418 194l117 111q136 -133 295 -133q97 0 171 55t74 146q0 39 -14.5 68.5t-35 46.5t-53.5 27.5t-61 14.5t-65 6q-188 11 -298 99t-110 243q0 102 50 168q-42 34 -70.5 96.5t-28.5 139.5 q0 101 58.5 185.5t152.5 130.5t199 46q250 0 395 -213l-139 -65q-32 59 -99.5 88t-146.5 29q-96 0 -166.5 -55t-70.5 -144q0 -181 239 -184q79 -1 150.5 -19t133.5 -54.5t99 -101.5t37 -151q0 -56 -16 -105t-41 -77q88 -60 88 -213zM713 461q24 20 38.5 55.5t14.5 73.5 q0 50 -22.5 87t-60 56.5t-77.5 29t-82 9.5q-91 0 -157 27q-45 -45 -45 -123q0 -54 21 -91.5t53 -55t76.5 -28.5t85 -14t85 -9.5t70.5 -16.5z" />
<glyph unicode="&#xa8;" horiz-adv-x="753" d="M135 1278v209h152v-209h-152zM467 1278v209h151v-209h-151z" />
<glyph unicode="&#xa9;" horiz-adv-x="1712" d="M96 727q0 208 98 377t271 264.5t387 95.5q130 0 247.5 -36t211 -102.5t162.5 -156.5t106 -203.5t37 -238.5q0 -157 -58 -294.5t-159 -235.5t-243 -154.5t-304 -56.5q-160 0 -300.5 56.5t-240.5 154.5t-157.5 235.5t-57.5 294.5zM1520 723q0 183 -86.5 332t-239.5 234 t-342 85q-186 0 -337.5 -84.5t-238 -233.5t-86.5 -331q0 -181 86 -330t237.5 -234t338.5 -85q186 0 338.5 81t241 229.5t88.5 336.5zM379 727q0 72 18.5 140.5t57.5 130.5t94 108.5t135 74t174 27.5q144 0 253.5 -62t158.5 -175l-174 -56q-35 75 -101.5 106.5t-136.5 31.5 q-138 0 -216.5 -97.5t-78.5 -228.5q0 -98 47 -174.5t114 -113t138 -36.5q74 0 144.5 39.5t101.5 104.5l174 -53q-38 -94 -151.5 -170t-262.5 -76q-133 0 -244 59.5t-178 170t-67 249.5z" />
<glyph unicode="&#xaa;" horiz-adv-x="897" d="M94 932q0 101 85.5 165t219.5 64q116 0 197 -35v52q0 83 -47.5 129.5t-134.5 46.5q-107 0 -232 -84l-47 92q143 94 291 94q149 0 232 -77t83 -218v-268q0 -25 10 -36.5t33 -12.5v-127q-40 -6 -63 -6q-43 0 -69 22t-31 58l-3 47q-51 -64 -123.5 -98.5t-156.5 -34.5 q-103 0 -173.5 65.5t-70.5 161.5zM569 891q27 24 27 53v98q-69 31 -172 31q-87 0 -140 -35.5t-53 -93.5q0 -56 42.5 -93.5t105.5 -37.5q58 0 110 21.5t80 56.5z" />
<glyph unicode="&#xab;" horiz-adv-x="1220" d="M82 573l518 371v-151l-373 -263l373 -256v-151l-518 356v94zM578 573l518 371v-151l-373 -263l373 -256v-151l-518 356v94z" />
<glyph unicode="&#xac;" horiz-adv-x="1210" d="M1067 768v-522h-156v358h-774v164h930z" />
<glyph unicode="&#xad;" horiz-adv-x="1191" d="M131 477v164h930v-164h-930z" />
<glyph unicode="&#xae;" horiz-adv-x="1712" d="M96 727q0 156 57.5 293t157.5 234.5t241 153.5t302 56t302.5 -56t242.5 -153.5t159 -234.5t58 -293q0 -157 -58 -294.5t-159 -235.5t-242.5 -154.5t-302.5 -56.5t-302 56.5t-241 154.5t-157.5 235.5t-57.5 294.5zM1518 725q0 181 -86 330t-238.5 234t-339.5 85 q-140 0 -263 -50t-209.5 -136.5t-136.5 -206t-50 -254.5q0 -137 50 -257.5t136.5 -207.5t209.5 -137.5t263 -50.5q185 0 336.5 81.5t239.5 231t88 338.5zM537 1186h393q117 0 197.5 -91.5t80.5 -203.5q0 -96 -54.5 -174t-141.5 -99l223 -352h-150l-208 332h-207v-332h-133 v920zM924 715q72 0 112.5 49t40.5 127q0 77 -45.5 125.5t-113.5 48.5h-248v-350h254z" />
<glyph unicode="&#xaf;" horiz-adv-x="825" d="M115 1339v119h598v-119h-598z" />
<glyph unicode="&#xb0;" horiz-adv-x="557" d="M279 1483q78 0 130 -51.5t52 -126.5q0 -81 -52 -134t-130 -53q-77 0 -130 54t-53 133q0 75 53 126.5t130 51.5zM193 1300q0 -35 24 -59q27 -27 62 -27q37 0 61 27q25 25 25 59q0 33 -25 62q-21 24 -61 24q-38 0 -62 -24q-24 -27 -24 -62z" />
<glyph unicode="&#xb1;" horiz-adv-x="954" d="M817 827v-147h-258v-279h-164v279h-258v147h258v279h164v-279h258zM137 104v148h680v-148h-680z" />
<glyph unicode="&#xb2;" horiz-adv-x="811" d="M70 819q0 157 60.5 243t199.5 142q16 6 54.5 20t57 21.5t50 22t48 27t34.5 30.5t26 39.5t8 46.5q0 62 -51.5 100.5t-146.5 38.5q-155 0 -258 -108l-74 80q12 17 38 38t68.5 45t106.5 40t135 16q149 0 229 -69t80 -183q0 -49 -20 -90t-45.5 -66t-70.5 -48.5t-72.5 -33 t-73.5 -24.5q-205 -67 -205 -217h473v-111h-651z" />
<glyph unicode="&#xb3;" horiz-adv-x="806" d="M66 983l65 78q7 -48 79.5 -93.5t176.5 -45.5q98 0 163.5 36.5t65.5 96.5q0 67 -81.5 103t-223.5 36h-47v104h47q131 0 204 32t73 95q0 59 -60.5 95t-144.5 36q-81 0 -142 -29.5t-94 -80.5l-75 88q39 59 125 93t186 34q140 0 233 -65.5t93 -163.5q0 -70 -48.5 -116 t-140.5 -65q95 -13 153 -72.5t58 -140.5q0 -72 -48.5 -125.5t-125 -79.5t-168.5 -26q-128 0 -215.5 47.5t-107.5 128.5z" />
<glyph unicode="&#xb4;" horiz-adv-x="475" d="M217 1247l-119 41l119 207h180z" />
<glyph unicode="&#xb5;" horiz-adv-x="1286" d="M160 1069h180v-606q0 -328 231 -328q109 0 207 71.5t144 192.5v670h180v-848q0 -34 13 -48.5t44 -16.5v-156q-41 -6 -84 -6q-55 0 -92 37t-37 86v112q-52 -103 -160 -176t-225 -73q-89 0 -147.5 43.5t-83.5 113.5l10 -571h-180v1503z" />
<glyph unicode="&#xb6;" horiz-adv-x="1265" d="M649 1454h527v-139h-144v-1479h-155v623h-138v-623h-155v623q-235 3 -373.5 135.5t-138.5 357.5q0 237 152 369.5t425 132.5zM584 598v717q-171 -3 -265 -98.5t-94 -260.5q0 -166 101 -257t258 -101zM877 1315h-138v-717h138v717z" />
<glyph unicode="&#xb7;" horiz-adv-x="413" d="M131 502v254h152v-254h-152z" />
<glyph unicode="&#xb8;" horiz-adv-x="606" d="M305 -381q-123 0 -237 57l49 101q88 -45 157 -45q64 0 99 25.5t35 74.5t-34 88.5t-104 79.5l66 47q93 -57 139.5 -112.5t46.5 -133.5q0 -85 -57.5 -133.5t-159.5 -48.5z" />
<glyph unicode="&#xb9;" horiz-adv-x="573" d="M530 932v-113h-430v113h164v602q-25 -31 -87 -65.5t-107 -34.5v112q24 0 52.5 11.5t52.5 27.5t44.5 33t32 29t12.5 14h115v-729h151z" />
<glyph unicode="&#xba;" horiz-adv-x="917" d="M86 1079q0 157 104.5 267t268.5 110t268 -110t104 -267q0 -154 -104 -264t-268 -110t-268.5 110t-104.5 264zM459 829q94 0 159.5 73t65.5 179q0 105 -65.5 176.5t-159.5 71.5t-160 -72.5t-66 -179.5q0 -104 66 -176t160 -72z" />
<glyph unicode="&#xbb;" horiz-adv-x="1220" d="M643 479l-518 -356v151l373 256l-373 263v151l518 -371v-94zM1139 479l-518 -356v151l372 256l-372 263v151l518 -371v-94z" />
<glyph unicode="&#xbc;" horiz-adv-x="1691" d="M530 768v-113h-430v113h164v602q-25 -31 -87 -65.5t-107 -34.5v112q24 0 52.5 11.5t52.5 27.5t44.5 33t32 29t12.5 14h115v-729h151zM139 68l574 690l549 706l88 -75l-568 -687l-557 -712zM1399 0v205h-463v108l498 518h77v-516h121v-110h-121v-205h-112zM1053 315h350 v369z" />
<glyph unicode="&#xbd;" horiz-adv-x="1708" d="M530 768v-113h-430v113h164v602q-25 -31 -87 -65.5t-107 -34.5v112q24 0 52.5 11.5t52.5 27.5t44.5 33t32 29t12.5 14h115v-729h151zM139 68l574 690l549 706l88 -75l-568 -687l-557 -712zM985 0q0 158 58.5 244t193.5 141q17 7 52 20t54.5 21t48.5 21.5t45.5 26.5 t33.5 30.5t24.5 39t7.5 46.5q0 64 -49.5 102.5t-140.5 38.5q-149 0 -250 -110l-70 81q13 17 37.5 38t65.5 45.5t102.5 40.5t130.5 16q144 0 220.5 -69t76.5 -185q0 -41 -11.5 -76t-36 -61t-46.5 -44t-60 -34.5t-58 -24.5t-58 -20q-197 -66 -197 -217h469v-111h-643z" />
<glyph unicode="&#xbe;" horiz-adv-x="1925" d="M66 819l65 78q7 -48 79.5 -93.5t176.5 -45.5q98 0 163.5 36.5t65.5 96.5q0 67 -81.5 103t-223.5 36h-47v105h47q131 0 204 32t73 95q0 59 -60.5 95t-144.5 36q-81 0 -142 -30t-94 -81l-75 88q39 59 125 93t186 34q140 0 233 -65.5t93 -163.5q0 -70 -48.5 -116t-140.5 -65 q95 -13 153 -72.5t58 -140.5q0 -72 -48.5 -125.5t-125 -79.5t-168.5 -26q-128 0 -215.5 47.5t-107.5 128.5zM373 68l573 690l549 706l88 -75l-567 -687l-557 -712zM1632 0v205h-463v108l498 518h78v-516h121v-110h-121v-205h-113zM1286 315h350v369z" />
<glyph unicode="&#xbf;" horiz-adv-x="968" d="M674 1036v-237h-152v237h152zM678 604q0 -114 -40.5 -196t-131.5 -140q-14 -9 -54 -32t-63.5 -38t-58 -43t-54 -55t-34.5 -66.5t-15 -84.5q0 -110 74.5 -173t177.5 -63q98 0 178.5 55.5t124.5 139.5l121 -80q-54 -123 -172 -193.5t-256 -70.5q-78 0 -149.5 24.5t-130 71 t-93 123.5t-34.5 174q0 60 14.5 110t35.5 84t59 66.5t68.5 52t80.5 47.5q31 17 43.5 24t39 25t39 31t30.5 35.5t26.5 45.5t15 55.5t6.5 70.5h152z" />
<glyph unicode="&#xc0;" horiz-adv-x="1386" d="M481 1878h178l121 -207l-116 -41zM616 1454h156l594 -1454h-197l-172 426h-610l-170 -426h-197zM956 569l-262 672l-270 -672h532z" />
<glyph unicode="&#xc1;" horiz-adv-x="1386" d="M758 1628l-119 41l119 207h180zM616 1454h156l594 -1454h-197l-172 426h-610l-170 -426h-197zM956 569l-262 672l-270 -672h532z" />
<glyph unicode="&#xc2;" horiz-adv-x="1386" d="M422 1692l207 184h131l207 -184l-99 -50l-174 130l-174 -130zM616 1454h156l594 -1454h-197l-172 426h-610l-170 -426h-197zM956 569l-262 672l-270 -672h532z" />
<glyph unicode="&#xc3;" horiz-adv-x="1386" d="M557 1751q-31 0 -53 -13.5t-31 -33t-12.5 -32t-3.5 -19.5h-107q0 18 9.5 48.5t30.5 69t64 66t99 27.5q49 0 94 -22t87 -44t83 -22q29 0 51.5 10t34 23t18.5 28.5t9 24.5t2 14h106q0 -12 -5.5 -34t-21 -53.5t-38.5 -58.5t-63 -46t-89 -19q-52 0 -99.5 21.5t-88 43 t-76.5 21.5zM616 1454h156l594 -1454h-197l-172 426h-610l-170 -426h-197zM956 569l-262 672l-270 -672h532z" />
<glyph unicode="&#xc4;" horiz-adv-x="1386" d="M453 1661v209h151v-209h-151zM784 1661v209h152v-209h-152zM616 1454h156l594 -1454h-197l-172 426h-610l-170 -426h-197zM956 569l-262 672l-270 -672h532z" />
<glyph unicode="&#xc5;" horiz-adv-x="1386" d="M694 1923q87 0 141 -49.5t54 -130.5q0 -79 -54 -127.5t-141 -48.5q-85 0 -139.5 48.5t-54.5 127.5q0 81 54 130.5t140 49.5zM598 1743q0 -41 27.5 -68.5t68.5 -27.5q40 0 69.5 27.5t29.5 68.5q0 46 -28 72t-71 26q-41 0 -68.5 -26t-27.5 -72zM616 1454h156l594 -1454 h-197l-172 426h-610l-170 -426h-197zM956 569l-262 672l-270 -672h532z" />
<glyph unicode="&#xc6;" horiz-adv-x="1968" d="M877 1454h999v-164h-768v-467h657v-164h-657v-495h786v-164h-968v426h-510l-266 -426h-201zM913 590v649l-415 -649h415z" />
<glyph unicode="&#xc7;" horiz-adv-x="1396" d="M1339 326q-57 -136 -193.5 -223.5t-297.5 -108.5q108 -84 108 -193q0 -85 -57.5 -133.5t-159.5 -48.5q-123 0 -237 57l49 101q88 -45 158 -45q64 0 98.5 25.5t34.5 74.5q0 45 -29.5 82t-89.5 76q-138 8 -259.5 76t-204.5 172.5t-131 235t-48 263.5q0 106 29.5 210.5 t88.5 197t140.5 163.5t194 112.5t239.5 41.5q188 0 329.5 -86.5t211.5 -230.5l-146 -94q-31 66 -78 115.5t-101.5 76.5t-110 40t-113.5 13q-117 0 -214 -50t-157.5 -131.5t-93.5 -181t-33 -204.5q0 -151 65 -282.5t181.5 -212t257.5 -80.5q80 0 156.5 25.5t148 85 t111.5 145.5z" />
<glyph unicode="&#xc8;" horiz-adv-x="1239" d="M471 1878h178l121 -207l-117 -41zM1161 164v-164h-987v1454h969v-164h-785v-471h682v-153h-682v-502h803z" />
<glyph unicode="&#xc9;" horiz-adv-x="1239" d="M748 1628l-119 41l119 207h180zM1161 164v-164h-987v1454h969v-164h-785v-471h682v-153h-682v-502h803z" />
<glyph unicode="&#xca;" horiz-adv-x="1239" d="M412 1692l206 184h132l206 -184l-98 -50l-174 130l-174 -130zM1161 164v-164h-987v1454h969v-164h-785v-471h682v-153h-682v-502h803z" />
<glyph unicode="&#xcb;" horiz-adv-x="1239" d="M442 1661v209h152v-209h-152zM774 1661v209h152v-209h-152zM1161 164v-164h-987v1454h969v-164h-785v-471h682v-153h-682v-502h803z" />
<glyph unicode="&#xcc;" horiz-adv-x="532" d="M53 1878h178l121 -207l-116 -41zM174 0v1454h184v-1454h-184z" />
<glyph unicode="&#xcd;" horiz-adv-x="532" d="M330 1628l-119 41l119 207h180zM174 0v1454h184v-1454h-184z" />
<glyph unicode="&#xce;" horiz-adv-x="532" d="M-6 1692l207 184h131l207 -184l-99 -50l-174 130l-174 -130zM174 0v1454h184v-1454h-184z" />
<glyph unicode="&#xcf;" horiz-adv-x="532" d="M25 1661v209h151v-209h-151zM356 1661v209h152v-209h-152zM174 0v1454h184v-1454h-184z" />
<glyph unicode="&#xd0;" horiz-adv-x="1478" d="M690 1454q137 0 252 -37t197.5 -103t140 -156.5t85.5 -199t28 -229.5q0 -331 -191.5 -530t-511.5 -199h-504v662h-116v139h116v653h504zM690 164q164 0 282 74.5t176 201t58 289.5q0 252 -137 406.5t-379 154.5h-319v-489h329v-139h-329v-498h319z" />
<glyph unicode="&#xd1;" horiz-adv-x="1576" d="M655 1751q-31 0 -53 -13.5t-31 -33t-12.5 -32t-3.5 -19.5h-106q0 18 9.5 48.5t30 69t63.5 66t99 27.5q49 0 94 -22t87 -44t83 -22q29 0 51.5 10t34 23t18.5 28.5t9 24.5t2 14h107q0 -12 -5.5 -34t-21 -53.5t-38.5 -58.5t-63 -46t-89 -19q-52 0 -100 21.5t-88.5 43 t-76.5 21.5zM358 1114v-1114h-184v1454h156l889 -1137v1135h184v-1452h-168z" />
<glyph unicode="&#xd2;" horiz-adv-x="1531" d="M555 1878h178l121 -207l-117 -41zM80 727q0 192 89 361t248.5 272.5t350.5 103.5q119 0 227 -41.5t189.5 -113.5t142 -166t92 -201.5t31.5 -216.5q0 -193 -88.5 -361t-247.5 -271t-350 -103q-148 0 -278 62.5t-217.5 166t-138 236t-50.5 272.5zM766 156q112 0 207.5 49.5 t158 130.5t97.5 183t35 208q0 149 -62 278.5t-177.5 210t-258.5 80.5q-112 0 -208 -49t-158.5 -129.5t-98 -182t-35.5 -208.5q0 -111 36.5 -214.5t100.5 -182.5t158.5 -126.5t204.5 -47.5z" />
<glyph unicode="&#xd3;" horiz-adv-x="1531" d="M831 1628l-118 41l118 207h181zM80 727q0 192 89 361t248.5 272.5t350.5 103.5q119 0 227 -41.5t189.5 -113.5t142 -166t92 -201.5t31.5 -216.5q0 -193 -88.5 -361t-247.5 -271t-350 -103q-148 0 -278 62.5t-217.5 166t-138 236t-50.5 272.5zM766 156q112 0 207.5 49.5 t158 130.5t97.5 183t35 208q0 149 -62 278.5t-177.5 210t-258.5 80.5q-112 0 -208 -49t-158.5 -129.5t-98 -182t-35.5 -208.5q0 -111 36.5 -214.5t100.5 -182.5t158.5 -126.5t204.5 -47.5z" />
<glyph unicode="&#xd4;" horiz-adv-x="1531" d="M496 1692l206 184h132l206 -184l-98 -50l-174 130l-174 -130zM80 727q0 192 89 361t248.5 272.5t350.5 103.5q119 0 227 -41.5t189.5 -113.5t142 -166t92 -201.5t31.5 -216.5q0 -193 -88.5 -361t-247.5 -271t-350 -103q-148 0 -278 62.5t-217.5 166t-138 236t-50.5 272.5 zM766 156q112 0 207.5 49.5t158 130.5t97.5 183t35 208q0 149 -62 278.5t-177.5 210t-258.5 80.5q-112 0 -208 -49t-158.5 -129.5t-98 -182t-35.5 -208.5q0 -111 36.5 -214.5t100.5 -182.5t158.5 -126.5t204.5 -47.5z" />
<glyph unicode="&#xd5;" horiz-adv-x="1531" d="M631 1751q-25 0 -44.5 -9.5t-30 -22.5t-17 -28.5t-8 -24.5t-1.5 -13h-106q0 18 9.5 48.5t30.5 69t64 66t99 27.5q49 0 94 -22t87 -44t83 -22q29 0 51.5 10t34 23t18.5 28.5t9 24.5t2 14h106q0 -12 -5.5 -34t-21 -53.5t-38.5 -58.5t-63 -46t-89 -19q-52 0 -99.5 21.5 t-88 43t-76.5 21.5zM80 727q0 192 89 361t248.5 272.5t350.5 103.5q119 0 227 -41.5t189.5 -113.5t142 -166t92 -201.5t31.5 -216.5q0 -193 -88.5 -361t-247.5 -271t-350 -103q-148 0 -278 62.5t-217.5 166t-138 236t-50.5 272.5zM766 156q112 0 207.5 49.5t158 130.5 t97.5 183t35 208q0 149 -62 278.5t-177.5 210t-258.5 80.5q-112 0 -208 -49t-158.5 -129.5t-98 -182t-35.5 -208.5q0 -111 36.5 -214.5t100.5 -182.5t158.5 -126.5t204.5 -47.5z" />
<glyph unicode="&#xd6;" horiz-adv-x="1531" d="M526 1661v209h152v-209h-152zM858 1661v209h152v-209h-152zM80 727q0 192 89 361t248.5 272.5t350.5 103.5q119 0 227 -41.5t189.5 -113.5t142 -166t92 -201.5t31.5 -216.5q0 -193 -88.5 -361t-247.5 -271t-350 -103q-148 0 -278 62.5t-217.5 166t-138 236t-50.5 272.5z M766 156q112 0 207.5 49.5t158 130.5t97.5 183t35 208q0 149 -62 278.5t-177.5 210t-258.5 80.5q-112 0 -208 -49t-158.5 -129.5t-98 -182t-35.5 -208.5q0 -111 36.5 -214.5t100.5 -182.5t158.5 -126.5t204.5 -47.5z" />
<glyph unicode="&#xd7;" horiz-adv-x="950" d="M827 322l-114 -113l-238 237l-237 -237l-113 115l235 235l-231 234l115 112l231 -231l234 233l112 -114l-231 -234z" />
<glyph unicode="&#xd8;" horiz-adv-x="1531" d="M1231 1266q104 -105 161.5 -248t57.5 -293q0 -193 -88.5 -361t-247.5 -271t-350 -103q-179 0 -334 92l-55 -82h-201l125 186q-104 104 -161.5 247t-57.5 294q0 192 89 361t248.5 272.5t350.5 103.5q179 0 332 -94l55 84h203zM266 727q0 -225 133 -393l605 895 q-109 67 -238 67q-112 0 -208 -49t-158.5 -129.5t-98 -182t-35.5 -208.5zM766 156q112 0 207.5 49.5t158 130.5t97.5 183t35 208q0 108 -35 209.5t-99 181.5l-604 -895q106 -67 240 -67z" />
<glyph unicode="&#xd9;" horiz-adv-x="1546" d="M561 1878h178l121 -207l-117 -41zM774 -10q-135 0 -242 40.5t-176.5 108.5t-116 162.5t-66 198t-19.5 219.5v735h184v-735q0 -90 13 -169t44.5 -152.5t80 -126t124.5 -84t172 -31.5q71 0 130.5 16.5t104 46t79 71.5t57.5 90t37.5 105.5t21 114.5t6.5 119v735h185v-735 q0 -121 -21 -227t-68.5 -199t-118.5 -159.5t-176 -105t-235 -38.5z" />
<glyph unicode="&#xda;" horiz-adv-x="1546" d="M838 1628l-119 41l119 207h180zM774 -10q-135 0 -242 40.5t-176.5 108.5t-116 162.5t-66 198t-19.5 219.5v735h184v-735q0 -90 13 -169t44.5 -152.5t80 -126t124.5 -84t172 -31.5q71 0 130.5 16.5t104 46t79 71.5t57.5 90t37.5 105.5t21 114.5t6.5 119v735h185v-735 q0 -121 -21 -227t-68.5 -199t-118.5 -159.5t-176 -105t-235 -38.5z" />
<glyph unicode="&#xdb;" horiz-adv-x="1546" d="M502 1692l207 184h131l207 -184l-99 -50l-174 130l-174 -130zM774 -10q-135 0 -242 40.5t-176.5 108.5t-116 162.5t-66 198t-19.5 219.5v735h184v-735q0 -90 13 -169t44.5 -152.5t80 -126t124.5 -84t172 -31.5q71 0 130.5 16.5t104 46t79 71.5t57.5 90t37.5 105.5 t21 114.5t6.5 119v735h185v-735q0 -121 -21 -227t-68.5 -199t-118.5 -159.5t-176 -105t-235 -38.5z" />
<glyph unicode="&#xdc;" horiz-adv-x="1546" d="M532 1661v209h152v-209h-152zM864 1661v209h152v-209h-152zM774 -10q-135 0 -242 40.5t-176.5 108.5t-116 162.5t-66 198t-19.5 219.5v735h184v-735q0 -90 13 -169t44.5 -152.5t80 -126t124.5 -84t172 -31.5q71 0 130.5 16.5t104 46t79 71.5t57.5 90t37.5 105.5t21 114.5 t6.5 119v735h185v-735q0 -121 -21 -227t-68.5 -199t-118.5 -159.5t-176 -105t-235 -38.5z" />
<glyph unicode="&#xdd;" horiz-adv-x="1341" d="M733 1628l-119 41l119 207h180zM229 1454l441 -758l444 758h201l-553 -924v-530h-184v535l-551 919h202z" />
<glyph unicode="&#xde;" horiz-adv-x="1236" d="M1184 709q0 -122 -52.5 -228t-152 -172.5t-223.5 -66.5h-398v-242h-184v1454h184v-280h385q123 0 226 -68.5t159 -175t56 -221.5zM999 709q0 123 -78.5 212t-185.5 89h-377v-604h390q112 0 181.5 89.5t69.5 213.5z" />
<glyph unicode="&#xdf;" horiz-adv-x="1132" d="M494 154q177 3 278.5 73t101.5 213q0 132 -85 211.5t-224 79.5h-39v164h37q99 0 160 58t61 153q0 98 -63.5 149.5t-157.5 51.5q-81 0 -138.5 -40t-82.5 -101t-25 -136v-1030h-172v1059q0 178 119.5 290.5t304.5 112.5q167 0 277 -91.5t110 -237.5q0 -108 -59.5 -197.5 t-144.5 -112.5q144 -30 226.5 -139t82.5 -258q0 -204 -155 -317t-412 -121v166z" />
<glyph unicode="&#xe0;" horiz-adv-x="1134" d="M332 1497h178l121 -207l-117 -41zM61 309q0 151 126.5 242.5t330.5 91.5q166 0 293 -45v78q0 124 -74.5 194t-208.5 70q-157 0 -340 -123l-65 127q211 143 426 143q205 0 323.5 -114t118.5 -316v-452q0 -34 13.5 -49t44.5 -17v-139q-49 -8 -78 -8q-60 0 -94 32.5 t-37 75.5l-4 68q-69 -88 -180.5 -138t-225.5 -50q-160 0 -264.5 95t-104.5 234zM758 233q24 27 38.5 57.5t14.5 51.5v133q-130 51 -270 51q-139 0 -223.5 -54.5t-84.5 -147.5q0 -83 65 -146t179 -63q82 0 158.5 32.5t122.5 85.5z" />
<glyph unicode="&#xe1;" horiz-adv-x="1134" d="M608 1247l-119 41l119 207h180zM61 309q0 151 126.5 242.5t330.5 91.5q166 0 293 -45v78q0 124 -74.5 194t-208.5 70q-157 0 -340 -123l-65 127q211 143 426 143q205 0 323.5 -114t118.5 -316v-452q0 -34 13.5 -49t44.5 -17v-139q-49 -8 -78 -8q-60 0 -94 32.5t-37 75.5 l-4 68q-69 -88 -180.5 -138t-225.5 -50q-160 0 -264.5 95t-104.5 234zM758 233q24 27 38.5 57.5t14.5 51.5v133q-130 51 -270 51q-139 0 -223.5 -54.5t-84.5 -147.5q0 -83 65 -146t179 -63q82 0 158.5 32.5t122.5 85.5z" />
<glyph unicode="&#xe2;" horiz-adv-x="1134" d="M272 1311l207 184h131l207 -184l-98 -49l-174 129l-174 -129zM61 309q0 151 126.5 242.5t330.5 91.5q166 0 293 -45v78q0 124 -74.5 194t-208.5 70q-157 0 -340 -123l-65 127q211 143 426 143q205 0 323.5 -114t118.5 -316v-452q0 -34 13.5 -49t44.5 -17v-139 q-49 -8 -78 -8q-60 0 -94 32.5t-37 75.5l-4 68q-69 -88 -180.5 -138t-225.5 -50q-160 0 -264.5 95t-104.5 234zM758 233q24 27 38.5 57.5t14.5 51.5v133q-130 51 -270 51q-139 0 -223.5 -54.5t-84.5 -147.5q0 -83 65 -146t179 -63q82 0 158.5 32.5t122.5 85.5z" />
<glyph unicode="&#xe3;" horiz-adv-x="1134" d="M408 1370q-25 0 -44.5 -9.5t-30 -22.5t-17 -28.5t-8 -24.5t-1.5 -13h-106q0 18 9.5 48.5t30 69t63.5 66t99 27.5q49 0 94.5 -22t87.5 -44t83 -22q29 0 51.5 10t34 23t18.5 28.5t8.5 24.5t1.5 14h107q0 -12 -5.5 -34t-21 -53.5t-38.5 -58.5t-63 -46t-89 -19 q-52 0 -99.5 21.5t-88 43t-76.5 21.5zM61 309q0 151 126.5 242.5t330.5 91.5q166 0 293 -45v78q0 124 -74.5 194t-208.5 70q-157 0 -340 -123l-65 127q211 143 426 143q205 0 323.5 -114t118.5 -316v-452q0 -34 13.5 -49t44.5 -17v-139q-49 -8 -78 -8q-60 0 -94 32.5 t-37 75.5l-4 68q-69 -88 -180.5 -138t-225.5 -50q-160 0 -264.5 95t-104.5 234zM758 233q24 27 38.5 57.5t14.5 51.5v133q-130 51 -270 51q-139 0 -223.5 -54.5t-84.5 -147.5q0 -83 65 -146t179 -63q82 0 158.5 32.5t122.5 85.5z" />
<glyph unicode="&#xe4;" horiz-adv-x="1134" d="M303 1280v209h152v-209h-152zM635 1280v209h151v-209h-151zM61 309q0 151 126.5 242.5t330.5 91.5q166 0 293 -45v78q0 124 -74.5 194t-208.5 70q-157 0 -340 -123l-65 127q211 143 426 143q205 0 323.5 -114t118.5 -316v-452q0 -34 13.5 -49t44.5 -17v-139 q-49 -8 -78 -8q-60 0 -94 32.5t-37 75.5l-4 68q-69 -88 -180.5 -138t-225.5 -50q-160 0 -264.5 95t-104.5 234zM758 233q24 27 38.5 57.5t14.5 51.5v133q-130 51 -270 51q-139 0 -223.5 -54.5t-84.5 -147.5q0 -83 65 -146t179 -63q82 0 158.5 32.5t122.5 85.5z" />
<glyph unicode="&#xe5;" horiz-adv-x="1134" d="M545 1542q87 0 140.5 -49.5t53.5 -130.5q0 -79 -53.5 -127.5t-140.5 -48.5q-86 0 -140.5 48.5t-54.5 127.5q0 81 54.5 130.5t140.5 49.5zM449 1362q0 -41 27.5 -68.5t68.5 -27.5q40 0 69 27t29 69q0 46 -27.5 72t-70.5 26q-41 0 -68.5 -26t-27.5 -72zM61 309 q0 151 126.5 242.5t330.5 91.5q166 0 293 -45v78q0 124 -74.5 194t-208.5 70q-157 0 -340 -123l-65 127q211 143 426 143q205 0 323.5 -114t118.5 -316v-452q0 -34 13.5 -49t44.5 -17v-139q-49 -8 -78 -8q-60 0 -94 32.5t-37 75.5l-4 68q-69 -88 -180.5 -138t-225.5 -50 q-160 0 -264.5 95t-104.5 234zM758 233q24 27 38.5 57.5t14.5 51.5v133q-130 51 -270 51q-139 0 -223.5 -54.5t-84.5 -147.5q0 -83 65 -146t179 -63q82 0 158.5 32.5t122.5 85.5z" />
<glyph unicode="&#xe6;" horiz-adv-x="1910" d="M61 313q0 146 125.5 238t323.5 92q139 0 264 -41q8 83 29 135q-15 104 -87 161.5t-190 57.5q-159 0 -340 -125l-59 117q210 139 416 139q129 0 223.5 -50.5t146.5 -143.5q69 90 173 142t227 52q158 0 282.5 -75.5t191.5 -200.5t68 -276q0 -38 -4 -62h-907 q12 -157 121 -257.5t260 -100.5q99 0 185.5 49.5t119.5 128.5l156 -43q-53 -120 -180.5 -195t-286.5 -75q-142 0 -258.5 62t-188.5 169q-44 -78 -123 -132t-162.5 -76.5t-168.5 -22.5q-151 0 -254 96t-103 237zM1683 590q-12 160 -116 261t-256 101t-256 -102t-113 -260h741 zM772 246q36 36 39 71q-32 64 -37 179q-115 39 -237 39q-135 0 -220.5 -57.5t-85.5 -149.5q0 -90 67.5 -151.5t166.5 -61.5q97 0 180 35.5t127 95.5z" />
<glyph unicode="&#xe7;" horiz-adv-x="1134" d="M1075 248q-40 -100 -137 -170t-225 -90q98 -85 98 -187q0 -85 -57.5 -133.5t-159.5 -48.5q-124 0 -238 57l50 101q88 -45 157 -45q64 0 98.5 25.5t34.5 74.5q0 82 -104 148q-150 7 -269.5 84.5t-184 202t-64.5 270.5q0 151 66.5 275.5t191.5 199.5t284 75 q156 0 273.5 -69.5t177.5 -190.5l-176 -55q-41 75 -115.5 117.5t-163.5 42.5q-150 0 -252 -113t-102 -282q0 -168 104.5 -285t251.5 -117q93 0 176.5 49t108.5 117z" />
<glyph unicode="&#xe8;" horiz-adv-x="1210" d="M399 1497h179l120 -207l-116 -41zM618 -20q-157 0 -282.5 76t-193.5 202.5t-68 276.5q0 112 40.5 213t111.5 176t174 119t221 44t219.5 -44.5t169.5 -119.5t106.5 -174t38.5 -206q0 -46 -4 -70h-887q12 -156 116 -257t245 -101q99 0 185.5 49.5t119.5 128.5l155 -43 q-53 -120 -180.5 -195t-286.5 -75zM258 598h729q-13 155 -117.5 254.5t-248.5 99.5t-248.5 -100t-114.5 -254z" />
<glyph unicode="&#xe9;" horiz-adv-x="1210" d="M676 1247l-119 41l119 207h180zM618 -20q-157 0 -282.5 76t-193.5 202.5t-68 276.5q0 112 40.5 213t111.5 176t174 119t221 44t219.5 -44.5t169.5 -119.5t106.5 -174t38.5 -206q0 -46 -4 -70h-887q12 -156 116 -257t245 -101q99 0 185.5 49.5t119.5 128.5l155 -43 q-53 -120 -180.5 -195t-286.5 -75zM258 598h729q-13 155 -117.5 254.5t-248.5 99.5t-248.5 -100t-114.5 -254z" />
<glyph unicode="&#xea;" horiz-adv-x="1210" d="M340 1311l207 184h131l207 -184l-99 -49l-174 129l-174 -129zM618 -20q-157 0 -282.5 76t-193.5 202.5t-68 276.5q0 112 40.5 213t111.5 176t174 119t221 44t219.5 -44.5t169.5 -119.5t106.5 -174t38.5 -206q0 -46 -4 -70h-887q12 -156 116 -257t245 -101 q99 0 185.5 49.5t119.5 128.5l155 -43q-53 -120 -180.5 -195t-286.5 -75zM258 598h729q-13 155 -117.5 254.5t-248.5 99.5t-248.5 -100t-114.5 -254z" />
<glyph unicode="&#xeb;" horiz-adv-x="1210" d="M371 1280v209h151v-209h-151zM702 1280v209h152v-209h-152zM618 -20q-157 0 -282.5 76t-193.5 202.5t-68 276.5q0 112 40.5 213t111.5 176t174 119t221 44t219.5 -44.5t169.5 -119.5t106.5 -174t38.5 -206q0 -46 -4 -70h-887q12 -156 116 -257t245 -101q99 0 185.5 49.5 t119.5 128.5l155 -43q-53 -120 -180.5 -195t-286.5 -75zM258 598h729q-13 155 -117.5 254.5t-248.5 99.5t-248.5 -100t-114.5 -254z" />
<glyph unicode="&#xec;" horiz-adv-x="471" d="M23 1497h178l121 -207l-117 -41zM145 0v1069h181v-1069h-181z" />
<glyph unicode="&#xed;" horiz-adv-x="471" d="M299 1247l-119 41l119 207h180zM145 0v1069h181v-1069h-181z" />
<glyph unicode="&#xee;" horiz-adv-x="471" d="M-37 1311l207 184h131l207 -184l-98 -49l-174 129l-175 -129zM145 0v1069h181v-1069h-181z" />
<glyph unicode="&#xef;" horiz-adv-x="471" d="M-6 1280v209h151v-209h-151zM326 1280v209h151v-209h-151zM145 0v1069h181v-1069h-181z" />
<glyph unicode="&#xf0;" horiz-adv-x="1241" d="M877 1290q147 -156 214.5 -340t67.5 -356q0 -139 -44.5 -256t-120 -194.5t-175.5 -120.5t-211 -43q-143 0 -264 65.5t-192.5 180t-71.5 251.5q0 132 67 245.5t182.5 180t250.5 66.5q126 0 232.5 -58.5t162.5 -156.5q-45 269 -238 469l-219 -133l-55 75l205 123 q-131 112 -306 207h254q115 -69 191 -139l172 104l55 -76zM614 135q151 0 256 105t105 249q0 140 -102.5 236t-249.5 96q-150 0 -254.5 -100.5t-104.5 -243.5t102 -242.5t248 -99.5z" />
<glyph unicode="&#xf1;" horiz-adv-x="1208" d="M483 1370q-31 0 -53 -13.5t-31 -33t-12.5 -32t-3.5 -19.5h-107q0 18 9.5 48.5t30.5 69t64 66t99 27.5q49 0 94 -22t87 -44t83 -22q29 0 51.5 10t34 23t18.5 28.5t9 24.5t2 14h107q0 -12 -5.5 -34t-21 -53.5t-38.5 -58.5t-63 -46t-89 -19q-52 0 -100 21.5t-88.5 43 t-76.5 21.5zM1073 0h-180v598q0 169 -52 248.5t-159 79.5q-112 0 -216 -80.5t-140 -200.5v-645h-181v1069h164v-229q63 113 183.5 180t261.5 67q90 0 154 -33t99 -95.5t50.5 -140t15.5 -179.5v-639z" />
<glyph unicode="&#xf2;" d="M399 1497h179l120 -207l-116 -41zM74 532q0 149 67.5 275.5t192 203t278.5 76.5q155 0 280 -76.5t193 -203t68 -275.5q0 -111 -39.5 -211.5t-109.5 -176t-172 -120t-220 -44.5q-157 0 -281 76t-190.5 201.5t-66.5 274.5zM612 135q148 0 252.5 116.5t104.5 283.5 q0 165 -104.5 281t-252.5 116q-146 0 -250 -117.5t-104 -284.5t103 -281t251 -114z" />
<glyph unicode="&#xf3;" d="M676 1247l-119 41l119 207h180zM74 532q0 149 67.5 275.5t192 203t278.5 76.5q155 0 280 -76.5t193 -203t68 -275.5q0 -111 -39.5 -211.5t-109.5 -176t-172 -120t-220 -44.5q-157 0 -281 76t-190.5 201.5t-66.5 274.5zM612 135q148 0 252.5 116.5t104.5 283.5 q0 165 -104.5 281t-252.5 116q-146 0 -250 -117.5t-104 -284.5t103 -281t251 -114z" />
<glyph unicode="&#xf4;" d="M340 1311l207 184h131l207 -184l-99 -49l-174 129l-174 -129zM74 532q0 149 67.5 275.5t192 203t278.5 76.5q155 0 280 -76.5t193 -203t68 -275.5q0 -111 -39.5 -211.5t-109.5 -176t-172 -120t-220 -44.5q-157 0 -281 76t-190.5 201.5t-66.5 274.5zM612 135 q148 0 252.5 116.5t104.5 283.5q0 165 -104.5 281t-252.5 116q-146 0 -250 -117.5t-104 -284.5t103 -281t251 -114z" />
<glyph unicode="&#xf5;" d="M475 1370q-31 0 -53 -13.5t-31 -33t-12.5 -32t-3.5 -19.5h-107q0 18 9.5 48.5t30.5 69t64 66t99 27.5q49 0 94 -22t87 -44t83 -22q29 0 51.5 10t34 23t18.5 28.5t9 24.5t2 14h106q0 -12 -5.5 -34t-21 -53.5t-38.5 -58.5t-63 -46t-89 -19q-52 0 -99.5 21.5t-88 43 t-76.5 21.5zM74 532q0 149 67.5 275.5t192 203t278.5 76.5q155 0 280 -76.5t193 -203t68 -275.5q0 -111 -39.5 -211.5t-109.5 -176t-172 -120t-220 -44.5q-157 0 -281 76t-190.5 201.5t-66.5 274.5zM612 135q148 0 252.5 116.5t104.5 283.5q0 165 -104.5 281t-252.5 116 q-146 0 -250 -117.5t-104 -284.5t103 -281t251 -114z" />
<glyph unicode="&#xf6;" d="M371 1280v209h151v-209h-151zM702 1280v209h152v-209h-152zM74 532q0 149 67.5 275.5t192 203t278.5 76.5q155 0 280 -76.5t193 -203t68 -275.5q0 -111 -39.5 -211.5t-109.5 -176t-172 -120t-220 -44.5q-157 0 -281 76t-190.5 201.5t-66.5 274.5zM612 135 q148 0 252.5 116.5t104.5 283.5q0 165 -104.5 281t-252.5 116q-146 0 -250 -117.5t-104 -284.5t103 -281t251 -114z" />
<glyph unicode="&#xf7;" horiz-adv-x="1091" d="M469 829v209h154v-209h-154zM133 514v148h825v-148h-825zM469 135v209h154v-209h-154z" />
<glyph unicode="&#xf8;" d="M985 940q80 -77 124 -183t44 -225q0 -111 -39.5 -211.5t-109.5 -176t-172 -120t-220 -44.5q-156 0 -278 75l-47 -59h-154l107 131q-79 77 -122.5 182.5t-43.5 222.5q0 149 67.5 275.5t192 203t278.5 76.5q153 0 277 -73l45 59h156zM612 932q-146 0 -250 -117.5 t-104 -284.5q0 -153 94 -272l430 627q-77 47 -170 47zM612 135q148 0 252.5 116.5t104.5 283.5q0 157 -97 272l-432 -623q81 -49 172 -49z" />
<glyph unicode="&#xf9;" horiz-adv-x="1230" d="M389 1497h178l121 -207l-117 -41zM135 428v641h180v-606q0 -328 228 -328q112 0 208.5 71.5t143.5 192.5v670h180v-864q0 -34 13.5 -49t44.5 -17v-139q-41 -6 -82 -6q-53 0 -89.5 31.5t-37.5 78.5l-4 125q-70 -119 -188 -184t-257 -65q-167 0 -253.5 113.5t-86.5 334.5z " />
<glyph unicode="&#xfa;" horiz-adv-x="1230" d="M666 1247l-119 41l119 207h180zM135 428v641h180v-606q0 -328 228 -328q112 0 208.5 71.5t143.5 192.5v670h180v-864q0 -34 13.5 -49t44.5 -17v-139q-41 -6 -82 -6q-53 0 -89.5 31.5t-37.5 78.5l-4 125q-70 -119 -188 -184t-257 -65q-167 0 -253.5 113.5t-86.5 334.5z " />
<glyph unicode="&#xfb;" horiz-adv-x="1230" d="M330 1311l207 184h131l206 -184l-98 -49l-174 129l-174 -129zM135 428v641h180v-606q0 -328 228 -328q112 0 208.5 71.5t143.5 192.5v670h180v-864q0 -34 13.5 -49t44.5 -17v-139q-41 -6 -82 -6q-53 0 -89.5 31.5t-37.5 78.5l-4 125q-70 -119 -188 -184t-257 -65 q-167 0 -253.5 113.5t-86.5 334.5z" />
<glyph unicode="&#xfc;" horiz-adv-x="1230" d="M360 1280v209h152v-209h-152zM692 1280v209h152v-209h-152zM135 428v641h180v-606q0 -328 228 -328q112 0 208.5 71.5t143.5 192.5v670h180v-864q0 -34 13.5 -49t44.5 -17v-139q-41 -6 -82 -6q-53 0 -89.5 31.5t-37.5 78.5l-4 125q-70 -119 -188 -184t-257 -65 q-167 0 -253.5 113.5t-86.5 334.5z" />
<glyph unicode="&#xfd;" horiz-adv-x="1116" d="M639 1247l-119 41l119 207h180zM195 -291q70 -8 94 -8q49 0 82 53.5t106 245.5l-452 1069h190l360 -887l326 887h178l-520 -1350q-31 -79 -100.5 -129.5t-177.5 -50.5q-40 0 -86 10v160z" />
<glyph unicode="&#xfe;" horiz-adv-x="1234" d="M635 -37q-100 0 -182 46t-123 114v-559h-185v1890h185v-534q125 174 323 174q92 0 174 -33t142 -89.5t104.5 -129t67 -154t22.5 -162.5q-2 -147 -72 -276.5t-191.5 -208t-264.5 -78.5zM643 930q-103 0 -183 -62.5t-130 -162.5v-351q0 -83 100 -155t201 -72q98 0 179 56.5 t125 148.5t44 196q0 106 -41 197.5t-119 148t-176 56.5z" />
<glyph unicode="&#xff;" horiz-adv-x="1116" d="M334 1280v209h151v-209h-151zM666 1280v209h151v-209h-151zM195 -291q70 -8 94 -8q49 0 82 53.5t106 245.5l-452 1069h190l360 -887l326 887h178l-520 -1350q-31 -79 -100.5 -129.5t-177.5 -50.5q-40 0 -86 10v160z" />
<glyph unicode="&#x100;" horiz-adv-x="1386" d="M397 1720v119h598v-119h-598zM616 1454h156l594 -1454h-197l-172 426h-610l-170 -426h-197zM956 569l-262 672l-270 -672h532z" />
<glyph unicode="&#x101;" horiz-adv-x="1134" d="M248 1339v119h598v-119h-598zM61 309q0 151 126.5 242.5t330.5 91.5q166 0 293 -45v78q0 124 -74.5 194t-208.5 70q-157 0 -340 -123l-65 127q211 143 426 143q205 0 323.5 -114t118.5 -316v-452q0 -34 13.5 -49t44.5 -17v-139q-49 -8 -78 -8q-60 0 -94 32.5t-37 75.5 l-4 68q-69 -88 -180.5 -138t-225.5 -50q-160 0 -264.5 95t-104.5 234zM758 233q24 27 38.5 57.5t14.5 51.5v133q-130 51 -270 51q-139 0 -223.5 -54.5t-84.5 -147.5q0 -83 65 -146t179 -63q82 0 158.5 32.5t122.5 85.5z" />
<glyph unicode="&#x102;" horiz-adv-x="1386" d="M813 1876h102q0 -97 -63.5 -162t-157.5 -65t-157.5 65t-63.5 162h105q0 -55 35 -97t81 -42q45 0 79 39.5t40 99.5zM616 1454h156l594 -1454h-197l-172 426h-610l-170 -426h-197zM956 569l-262 672l-270 -672h532z" />
<glyph unicode="&#x103;" horiz-adv-x="1134" d="M664 1495h102q0 -97 -63.5 -162t-157.5 -65t-157.5 65t-63.5 162h104q0 -55 35.5 -97t81.5 -42q45 0 79 39.5t40 99.5zM61 309q0 151 126.5 242.5t330.5 91.5q166 0 293 -45v78q0 124 -74.5 194t-208.5 70q-157 0 -340 -123l-65 127q211 143 426 143q205 0 323.5 -114 t118.5 -316v-452q0 -34 13.5 -49t44.5 -17v-139q-49 -8 -78 -8q-60 0 -94 32.5t-37 75.5l-4 68q-69 -88 -180.5 -138t-225.5 -50q-160 0 -264.5 95t-104.5 234zM758 233q24 27 38.5 57.5t14.5 51.5v133q-130 51 -270 51q-139 0 -223.5 -54.5t-84.5 -147.5q0 -83 65 -146 t179 -63q82 0 158.5 32.5t122.5 85.5z" />
<glyph unicode="&#x104;" horiz-adv-x="1386" d="M1206 -195q0 -39 40 -55.5t120 -21.5l-41 -115q-240 17 -240 168q0 113 138 219h-54l-172 426h-610l-170 -426h-197l596 1454h156l594 -1454q-84 -64 -122 -110.5t-38 -84.5zM424 569h532l-262 672z" />
<glyph unicode="&#x105;" horiz-adv-x="1134" d="M1049 0q-84 -64 -122 -110.5t-38 -84.5q0 -39 40 -55.5t120 -21.5l-41 -115q-240 17 -240 168q0 114 141 223q-32 13 -49.5 39.5t-19.5 56.5l-4 68q-69 -88 -180.5 -138t-225.5 -50q-160 0 -264.5 95t-104.5 234q0 151 126.5 242.5t330.5 91.5q166 0 293 -45v78 q0 124 -74.5 194t-208.5 70q-157 0 -340 -123l-65 127q211 143 426 143q205 0 323.5 -114t118.5 -316v-452q0 -34 13.5 -49t44.5 -17v-139zM811 342v133q-130 51 -270 51q-139 0 -223.5 -54.5t-84.5 -147.5q0 -83 65 -146t179 -63q82 0 158.5 32.5t122.5 85.5 q24 27 38.5 57.5t14.5 51.5z" />
<glyph unicode="&#x106;" horiz-adv-x="1396" d="M834 1628l-119 41l119 207h180zM772 1462q188 0 329.5 -86.5t211.5 -230.5l-146 -94q-31 66 -78 115.5t-101.5 76.5t-110 40t-113.5 13q-117 0 -214 -50t-157.5 -131.5t-93.5 -181t-33 -204.5q0 -151 65 -282.5t181.5 -212t257.5 -80.5q80 0 156.5 25.5t148 85 t111.5 145.5l153 -84q-44 -104 -139.5 -182.5t-209 -117t-228.5 -38.5q-145 0 -274 65t-217 171t-139.5 240.5t-51.5 272.5q0 106 29.5 210.5t88.5 197t140.5 163.5t194 112.5t239.5 41.5z" />
<glyph unicode="&#x107;" horiz-adv-x="1134" d="M678 1247l-119 41l119 207h180zM618 -20q-157 0 -282.5 76.5t-193.5 203.5t-68 277q0 151 66.5 275.5t191.5 199.5t284 75q156 0 273.5 -69.5t177.5 -190.5l-176 -55q-41 75 -115.5 117.5t-163.5 42.5q-150 0 -252 -113t-102 -282q0 -168 104.5 -285t251.5 -117 q93 0 176.5 49t108.5 117l176 -53q-48 -119 -173 -193.5t-284 -74.5z" />
<glyph unicode="&#x108;" horiz-adv-x="1396" d="M498 1692l207 184h131l206 -184l-98 -50l-174 130l-174 -130zM772 1462q188 0 329.5 -86.5t211.5 -230.5l-146 -94q-31 66 -78 115.5t-101.5 76.5t-110 40t-113.5 13q-117 0 -214 -50t-157.5 -131.5t-93.5 -181t-33 -204.5q0 -151 65 -282.5t181.5 -212t257.5 -80.5 q80 0 156.5 25.5t148 85t111.5 145.5l153 -84q-44 -104 -139.5 -182.5t-209 -117t-228.5 -38.5q-145 0 -274 65t-217 171t-139.5 240.5t-51.5 272.5q0 106 29.5 210.5t88.5 197t140.5 163.5t194 112.5t239.5 41.5z" />
<glyph unicode="&#x109;" horiz-adv-x="1134" d="M342 1311l207 184h131l207 -184l-99 -49l-174 129l-174 -129zM618 -20q-157 0 -282.5 76.5t-193.5 203.5t-68 277q0 151 66.5 275.5t191.5 199.5t284 75q156 0 273.5 -69.5t177.5 -190.5l-176 -55q-41 75 -115.5 117.5t-163.5 42.5q-150 0 -252 -113t-102 -282 q0 -168 104.5 -285t251.5 -117q93 0 176.5 49t108.5 117l176 -53q-48 -119 -173 -193.5t-284 -74.5z" />
<glyph unicode="&#x10a;" horiz-adv-x="1396" d="M688 1659v217h164v-217h-164zM772 1462q188 0 329.5 -86.5t211.5 -230.5l-146 -94q-31 66 -78 115.5t-101.5 76.5t-110 40t-113.5 13q-117 0 -214 -50t-157.5 -131.5t-93.5 -181t-33 -204.5q0 -151 65 -282.5t181.5 -212t257.5 -80.5q80 0 156.5 25.5t148 85t111.5 145.5 l153 -84q-44 -104 -139.5 -182.5t-209 -117t-228.5 -38.5q-145 0 -274 65t-217 171t-139.5 240.5t-51.5 272.5q0 106 29.5 210.5t88.5 197t140.5 163.5t194 112.5t239.5 41.5z" />
<glyph unicode="&#x10b;" horiz-adv-x="1134" d="M532 1278v217h164v-217h-164zM618 -20q-157 0 -282.5 76.5t-193.5 203.5t-68 277q0 151 66.5 275.5t191.5 199.5t284 75q156 0 273.5 -69.5t177.5 -190.5l-176 -55q-41 75 -115.5 117.5t-163.5 42.5q-150 0 -252 -113t-102 -282q0 -168 104.5 -285t251.5 -117 q93 0 176.5 49t108.5 117l176 -53q-48 -119 -173 -193.5t-284 -74.5z" />
<glyph unicode="&#x10c;" horiz-adv-x="1396" d="M596 1876l174 -129l174 129l98 -49l-206 -185h-131l-207 185zM772 1462q188 0 329.5 -86.5t211.5 -230.5l-146 -94q-31 66 -78 115.5t-101.5 76.5t-110 40t-113.5 13q-117 0 -214 -50t-157.5 -131.5t-93.5 -181t-33 -204.5q0 -151 65 -282.5t181.5 -212t257.5 -80.5 q80 0 156.5 25.5t148 85t111.5 145.5l153 -84q-44 -104 -139.5 -182.5t-209 -117t-228.5 -38.5q-145 0 -274 65t-217 171t-139.5 240.5t-51.5 272.5q0 106 29.5 210.5t88.5 197t140.5 163.5t194 112.5t239.5 41.5z" />
<glyph unicode="&#x10d;" horiz-adv-x="1134" d="M440 1495l174 -129l174 129l99 -49l-207 -184h-131l-207 184zM618 -20q-157 0 -282.5 76.5t-193.5 203.5t-68 277q0 151 66.5 275.5t191.5 199.5t284 75q156 0 273.5 -69.5t177.5 -190.5l-176 -55q-41 75 -115.5 117.5t-163.5 42.5q-150 0 -252 -113t-102 -282 q0 -168 104.5 -285t251.5 -117q93 0 176.5 49t108.5 117l176 -53q-48 -119 -173 -193.5t-284 -74.5z" />
<glyph unicode="&#x10e;" horiz-adv-x="1466" d="M522 1876l174 -129l174 129l99 -49l-207 -185h-131l-207 185zM174 0v1454h504q171 0 306 -56.5t220.5 -156t130.5 -230t45 -282.5q0 -331 -191 -530t-511 -199h-504zM678 1290h-320v-1126h320q164 0 282 74.5t176 201t58 289.5q0 252 -137 406.5t-379 154.5z" />
<glyph unicode="&#x10f;" horiz-adv-x="1288" d="M76 532q0 151 61.5 277.5t173.5 202t250 75.5q124 0 226.5 -64.5t164.5 -166.5v639h181v-1290q0 -34 13 -49.5t44 -16.5v-139q-52 -8 -80 -8q-53 0 -93 36.5t-40 82.5v90q-63 -102 -169 -161.5t-222 -59.5q-145 0 -263 76.5t-182.5 202.5t-64.5 273zM1319 1247l-119 41 l119 207h180zM952 375v307q-38 104 -138 177t-202 73t-183.5 -58t-124 -149.5t-42.5 -194.5q0 -163 106.5 -279t260.5 -116q101 0 202 72t121 168z" />
<glyph unicode="&#x110;" horiz-adv-x="1478" d="M690 1454q137 0 252 -37t197.5 -103t140 -156.5t85.5 -199t28 -229.5q0 -331 -191.5 -530t-511.5 -199h-504v662h-116v139h116v653h504zM690 164q164 0 282 74.5t176 201t58 289.5q0 252 -137 406.5t-379 154.5h-319v-489h329v-139h-329v-498h319z" />
<glyph unicode="&#x111;" horiz-adv-x="1288" d="M1272 1251h-139v-1046q0 -34 13 -49.5t44 -16.5v-139q-52 -8 -80 -8q-53 0 -93 36.5t-40 82.5v90q-63 -102 -169 -161.5t-222 -59.5q-145 0 -263 76.5t-182.5 202.5t-64.5 273q0 151 61.5 277.5t173.5 202t250 75.5q124 0 226.5 -64.5t164.5 -166.5v395h-225v115h225v129 h181v-129h139v-115zM952 375v307q-38 104 -138 177t-202 73t-183.5 -58t-124 -149.5t-42.5 -194.5q0 -163 106.5 -279t260.5 -116q101 0 202 72t121 168z" />
<glyph unicode="&#x112;" horiz-adv-x="1239" d="M387 1720v119h598v-119h-598zM1161 164v-164h-987v1454h969v-164h-785v-471h682v-153h-682v-502h803z" />
<glyph unicode="&#x113;" horiz-adv-x="1210" d="M315 1339v119h598v-119h-598zM618 -20q-157 0 -282.5 76t-193.5 202.5t-68 276.5q0 112 40.5 213t111.5 176t174 119t221 44t219.5 -44.5t169.5 -119.5t106.5 -174t38.5 -206q0 -46 -4 -70h-887q12 -156 116 -257t245 -101q99 0 185.5 49.5t119.5 128.5l155 -43 q-53 -120 -180.5 -195t-286.5 -75zM258 598h729q-13 155 -117.5 254.5t-248.5 99.5t-248.5 -100t-114.5 -254z" />
<glyph unicode="&#x114;" horiz-adv-x="1239" d="M803 1876h102q0 -97 -63.5 -162t-157.5 -65t-157.5 65t-63.5 162h104q0 -55 35.5 -97t81.5 -42q45 0 79 39.5t40 99.5zM1161 164v-164h-987v1454h969v-164h-785v-471h682v-153h-682v-502h803z" />
<glyph unicode="&#x115;" horiz-adv-x="1210" d="M731 1495h103q0 -97 -64 -162t-158 -65t-157.5 65t-63.5 162h105q0 -55 35 -97t81 -42q45 0 79 39.5t40 99.5zM618 -20q-157 0 -282.5 76t-193.5 202.5t-68 276.5q0 112 40.5 213t111.5 176t174 119t221 44t219.5 -44.5t169.5 -119.5t106.5 -174t38.5 -206q0 -46 -4 -70 h-887q12 -156 116 -257t245 -101q99 0 185.5 49.5t119.5 128.5l155 -43q-53 -120 -180.5 -195t-286.5 -75zM258 598h729q-13 155 -117.5 254.5t-248.5 99.5t-248.5 -100t-114.5 -254z" />
<glyph unicode="&#x116;" horiz-adv-x="1239" d="M602 1659v217h164v-217h-164zM1161 164v-164h-987v1454h969v-164h-785v-471h682v-153h-682v-502h803z" />
<glyph unicode="&#x117;" horiz-adv-x="1210" d="M530 1278v217h164v-217h-164zM618 -20q-157 0 -282.5 76t-193.5 202.5t-68 276.5q0 112 40.5 213t111.5 176t174 119t221 44t219.5 -44.5t169.5 -119.5t106.5 -174t38.5 -206q0 -46 -4 -70h-887q12 -156 116 -257t245 -101q99 0 185.5 49.5t119.5 128.5l155 -43 q-53 -120 -180.5 -195t-286.5 -75zM258 598h729q-13 155 -117.5 254.5t-248.5 99.5t-248.5 -100t-114.5 -254z" />
<glyph unicode="&#x118;" horiz-adv-x="1239" d="M1161 0q-84 -64 -122 -110.5t-38 -84.5q0 -39 40 -55.5t120 -21.5l-41 -115q-239 16 -239 168q0 114 137 219h-844v1454h969v-164h-785v-471h682v-153h-682v-502h803v-164z" />
<glyph unicode="&#x119;" horiz-adv-x="1210" d="M1155 543q0 -46 -4 -70h-887q12 -156 116 -257t245 -101q99 0 185.5 49.5t119.5 128.5l155 -43q-40 -90 -123.5 -156.5t-193.5 -95.5q-83 -63 -120.5 -109t-37.5 -84q0 -39 40 -55.5t120 -21.5l-41 -115q-240 17 -240 168q0 108 113 199q-153 4 -274.5 81t-187.5 202 t-66 272q0 112 40.5 213t111.5 176t174 119t221 44t219.5 -44.5t169.5 -119.5t106.5 -174t38.5 -206zM258 598h729q-13 155 -117.5 254.5t-248.5 99.5t-248.5 -100t-114.5 -254z" />
<glyph unicode="&#x11a;" horiz-adv-x="1239" d="M510 1876l174 -129l174 129l98 -49l-206 -185h-132l-206 185zM1161 164v-164h-987v1454h969v-164h-785v-471h682v-153h-682v-502h803z" />
<glyph unicode="&#x11b;" horiz-adv-x="1210" d="M438 1495l174 -129l174 129l99 -49l-207 -184h-131l-207 184zM618 -20q-157 0 -282.5 76t-193.5 202.5t-68 276.5q0 112 40.5 213t111.5 176t174 119t221 44t219.5 -44.5t169.5 -119.5t106.5 -174t38.5 -206q0 -46 -4 -70h-887q12 -156 116 -257t245 -101 q99 0 185.5 49.5t119.5 128.5l155 -43q-53 -120 -180.5 -195t-286.5 -75zM258 598h729q-13 155 -117.5 254.5t-248.5 99.5t-248.5 -100t-114.5 -254z" />
<glyph unicode="&#x11c;" horiz-adv-x="1462" d="M756 1772l-174 -130l-99 50l207 184h131l207 -184l-98 -50zM887 725h469v-725h-156v197q-189 -207 -442 -207q-140 0 -267.5 63.5t-216.5 166.5t-141.5 237.5t-52.5 273.5q0 145 52 279t140.5 234t216 160t269.5 60q203 0 342 -84.5t213 -232.5l-142 -98 q-63 123 -171.5 186t-245.5 63q-143 0 -256.5 -81.5t-172.5 -211t-59 -278.5q0 -154 66 -285t183 -208.5t257 -77.5q239 0 428 229v201h-313v139z" />
<glyph unicode="&#x11d;" horiz-adv-x="1277" d="M344 1311l207 184h131l207 -184l-98 -49l-175 129l-174 -129zM78 532q0 150 62 276.5t176 202.5t257 76q244 0 400 -231v213h160v-1057q0 -147 -73.5 -255t-195.5 -161t-276 -53q-174 0 -290.5 60.5t-195.5 175.5l105 92q62 -92 162.5 -140t218.5 -48q101 0 182 35 t131.5 111t50.5 183v189q-60 -98 -163.5 -155.5t-217.5 -57.5q-106 0 -199 45t-157 120t-100.5 174t-36.5 205zM952 375v307q-43 109 -139.5 179.5t-202.5 70.5q-104 0 -186 -60t-123 -151.5t-41 -192.5q0 -161 107 -277t260 -116q111 0 207 73.5t118 166.5z" />
<glyph unicode="&#x11e;" horiz-adv-x="1462" d="M756 1649q-94 0 -157.5 65t-63.5 162h104q0 -55 35.5 -97t81.5 -42q44 0 78 39.5t40 99.5h103q0 -97 -63.5 -162t-157.5 -65zM887 725h469v-725h-156v197q-189 -207 -442 -207q-140 0 -267.5 63.5t-216.5 166.5t-141.5 237.5t-52.5 273.5q0 145 52 279t140.5 234t216 160 t269.5 60q203 0 342 -84.5t213 -232.5l-142 -98q-63 123 -171.5 186t-245.5 63q-143 0 -256.5 -81.5t-172.5 -211t-59 -278.5q0 -154 66 -285t183 -208.5t257 -77.5q239 0 428 229v201h-313v139z" />
<glyph unicode="&#x11f;" horiz-adv-x="1277" d="M735 1495h103q0 -97 -64 -162t-158 -65t-157.5 65t-63.5 162h105q0 -55 35 -97t81 -42q45 0 79 39.5t40 99.5zM78 532q0 150 62 276.5t176 202.5t257 76q244 0 400 -231v213h160v-1057q0 -147 -73.5 -255t-195.5 -161t-276 -53q-174 0 -290.5 60.5t-195.5 175.5l105 92 q62 -92 162.5 -140t218.5 -48q101 0 182 35t131.5 111t50.5 183v189q-60 -98 -163.5 -155.5t-217.5 -57.5q-106 0 -199 45t-157 120t-100.5 174t-36.5 205zM952 375v307q-43 109 -139.5 179.5t-202.5 70.5q-104 0 -186 -60t-123 -151.5t-41 -192.5q0 -161 107 -277t260 -116 q111 0 207 73.5t118 166.5z" />
<glyph unicode="&#x120;" horiz-adv-x="1462" d="M838 1876v-217h-164v217h164zM887 725h469v-725h-156v197q-189 -207 -442 -207q-140 0 -267.5 63.5t-216.5 166.5t-141.5 237.5t-52.5 273.5q0 145 52 279t140.5 234t216 160t269.5 60q203 0 342 -84.5t213 -232.5l-142 -98q-63 123 -171.5 186t-245.5 63 q-143 0 -256.5 -81.5t-172.5 -211t-59 -278.5q0 -154 66 -285t183 -208.5t257 -77.5q239 0 428 229v201h-313v139z" />
<glyph unicode="&#x121;" horiz-adv-x="1277" d="M535 1278v217h163v-217h-163zM78 532q0 150 62 276.5t176 202.5t257 76q244 0 400 -231v213h160v-1057q0 -147 -73.5 -255t-195.5 -161t-276 -53q-174 0 -290.5 60.5t-195.5 175.5l105 92q62 -92 162.5 -140t218.5 -48q101 0 182 35t131.5 111t50.5 183v189 q-60 -98 -163.5 -155.5t-217.5 -57.5q-106 0 -199 45t-157 120t-100.5 174t-36.5 205zM952 375v307q-43 109 -139.5 179.5t-202.5 70.5q-104 0 -186 -60t-123 -151.5t-41 -192.5q0 -161 107 -277t260 -116q111 0 207 73.5t118 166.5z" />
<glyph unicode="&#x122;" horiz-adv-x="1462" d="M887 725h469v-725h-156v197q-189 -207 -442 -207q-140 0 -267.5 63.5t-216.5 166.5t-141.5 237.5t-52.5 273.5q0 145 52 279t140.5 234t216 160t269.5 60q203 0 342 -84.5t213 -232.5l-142 -98q-63 123 -171.5 186t-245.5 63q-143 0 -256.5 -81.5t-172.5 -211t-59 -278.5 q0 -154 66 -285t183 -208.5t257 -77.5q239 0 428 229v201h-313v139zM682 -270v172h160v-172l-62 -166h-88l41 166h-51z" />
<glyph unicode="&#x123;" horiz-adv-x="1277" d="M686 1495l-41 -135h51v-154h-159v154l61 135h88zM78 532q0 150 62 276.5t176 202.5t257 76q244 0 400 -231v213h160v-1057q0 -147 -73.5 -255t-195.5 -161t-276 -53q-174 0 -290.5 60.5t-195.5 175.5l105 92q62 -92 162.5 -140t218.5 -48q101 0 182 35t131.5 111 t50.5 183v189q-60 -98 -163.5 -155.5t-217.5 -57.5q-106 0 -199 45t-157 120t-100.5 174t-36.5 205zM952 375v307q-43 109 -139.5 179.5t-202.5 70.5q-104 0 -186 -60t-123 -151.5t-41 -192.5q0 -161 107 -277t260 -116q111 0 207 73.5t118 166.5z" />
<glyph unicode="&#x124;" horiz-adv-x="1517" d="M492 1692l206 184h131l207 -184l-98 -50l-174 130l-174 -130zM1343 1454v-1454h-184v662h-801v-662h-184v1454h184v-629h801v629h184z" />
<glyph unicode="&#x125;" horiz-adv-x="1208" d="M373 1696l207 184h131l207 -184l-99 -49l-174 129l-174 -129zM1073 0h-180v598q0 163 -57.5 245.5t-167.5 82.5q-107 0 -207 -80.5t-135 -200.5v-645h-181v1495h181v-655q63 115 172 181t237 66q338 0 338 -448v-639z" />
<glyph unicode="&#x126;" horiz-adv-x="1538" d="M1456 1219v-136h-102v-1083h-185v662h-800v-662h-185v1083h-102v136h102v235h185v-235h800v235h185v-235h102zM1169 825v258h-800v-258h800z" />
<glyph unicode="&#x127;" horiz-adv-x="1208" d="M735 1087q338 0 338 -448v-639h-180v598q0 163 -57.5 245.5t-167.5 82.5q-107 0 -207 -80.5t-135 -200.5v-645h-181v1251h-114v115h114v129h181v-129h249v-115h-249v-411q63 115 172 181t237 66z" />
<glyph unicode="&#x128;" horiz-adv-x="532" d="M129 1751q-31 0 -53 -13.5t-31 -33t-12.5 -32t-3.5 -19.5h-107q0 18 9.5 48.5t30.5 69t64 66t99 27.5q49 0 94 -22t87 -44t83 -22q29 0 51.5 10t34 23t18.5 28.5t9 24.5t2 14h106q0 -12 -5.5 -34t-21 -53.5t-38.5 -58.5t-63 -46t-89 -19q-52 0 -99.5 21.5t-88 43 t-76.5 21.5zM174 0v1454h184v-1454h-184z" />
<glyph unicode="&#x129;" horiz-adv-x="471" d="M98 1370q-31 0 -53 -13.5t-31 -33t-12.5 -32t-3.5 -19.5h-107q0 18 9.5 48.5t30.5 69t64 66t99 27.5q49 0 94 -22t87 -44t83 -22q29 0 51.5 10t34 23t18.5 28.5t9 24.5t2 14h107q0 -12 -5.5 -34t-21.5 -53.5t-39 -58.5t-63 -46t-89 -19q-52 0 -99.5 21.5t-88 43 t-76.5 21.5zM145 0v1069h181v-1069h-181z" />
<glyph unicode="&#x12a;" horiz-adv-x="532" d="M-31 1720v119h598v-119h-598zM174 0v1454h184v-1454h-184z" />
<glyph unicode="&#x12b;" horiz-adv-x="471" d="M-61 1339v119h598v-119h-598zM145 0v1069h181v-1069h-181z" />
<glyph unicode="&#x12c;" horiz-adv-x="532" d="M385 1876h102q0 -97 -63.5 -162t-157.5 -65t-157.5 65t-63.5 162h105q0 -55 35 -97t81 -42q45 0 79 39.5t40 99.5zM174 0v1454h184v-1454h-184z" />
<glyph unicode="&#x12d;" horiz-adv-x="471" d="M354 1495h103q0 -97 -63.5 -162t-157.5 -65t-158 65t-64 162h105q0 -55 35.5 -97t81.5 -42q44 0 78 39.5t40 99.5zM145 0v1069h181v-1069h-181z" />
<glyph unicode="&#x12e;" horiz-adv-x="532" d="M358 0q-84 -64 -121.5 -110t-37.5 -85t39.5 -55.5t119.5 -21.5l-41 -115q-239 16 -239 168q0 114 137 219h-41v1454h184v-1454z" />
<glyph unicode="&#x12f;" horiz-adv-x="471" d="M145 1495h181v-225h-181v225zM145 0v1069h181v-1069q-84 -64 -122 -110.5t-38 -84.5q0 -39 40 -55.5t120 -21.5l-41 -115q-240 17 -240 168q0 114 137 219h-37z" />
<glyph unicode="&#x130;" horiz-adv-x="532" d="M184 1659v217h164v-217h-164zM174 0v1454h184v-1454h-184z" />
<glyph unicode="&#x131;" horiz-adv-x="471" d="M145 0v1069h181v-1069h-181z" />
<glyph unicode="&#x134;" horiz-adv-x="993" d="M473 1692l207 184h131l207 -184l-98 -50l-175 130l-174 -130zM72 217q108 -74 270 -74q77 0 131 21t89 59.5t54.5 106t27 147.5t7.5 197v780h185v-739q0 -101 -4.5 -178t-17 -157.5t-34.5 -138t-58.5 -110t-87.5 -84.5t-123 -51t-163 -19q-190 0 -323 91z" />
<glyph unicode="&#x135;" horiz-adv-x="471" d="M-37 1311l207 184h131l207 -184l-98 -49l-174 129l-175 -129zM-252 -295l84 121q52 -47 141 -47q68 0 120 50.5t52 123.5v1116h181v-1104q0 -149 -99 -247.5t-233 -98.5q-150 0 -246 86z" />
<glyph unicode="&#x136;" horiz-adv-x="1335" d="M174 0v1452h184v-803l750 805h199l-584 -641l616 -813h-206l-527 702l-248 -258v-444h-184zM616 -436l41 166h-51v172h160v-172l-61 -166h-89z" />
<glyph unicode="&#x137;" horiz-adv-x="1103" d="M899 0l-371 520l-202 -190v-330h-181v1495h181v-977l553 549h194l-426 -442l447 -625h-195zM498 -436l41 166h-52v172h160v-172l-61 -166h-88z" />
<glyph unicode="&#x138;" horiz-adv-x="1103" d="M899 0l-369 522l-204 -192v-330h-181v1069h181v-557l548 555h199l-426 -442l447 -625h-195z" />
<glyph unicode="&#x139;" horiz-adv-x="1196" d="M324 1628l-119 41l119 207h180zM174 0v1454h184v-1290h811v-164h-995z" />
<glyph unicode="&#x13a;" horiz-adv-x="585" d="M303 1632l-119 41l119 207h180zM150 1495h180v-1219q0 -43 6 -70t19 -39.5t25.5 -16t33.5 -3.5q74 0 147 29l29 -147q-44 -19 -105.5 -31t-109.5 -12q-105 0 -165 60t-60 165v1284z" />
<glyph unicode="&#x13b;" horiz-adv-x="1196" d="M174 0v1454h184v-1290h811v-164h-995zM610 -436l41 166h-51v172h160v-172l-62 -166h-88z" />
<glyph unicode="&#x13c;" horiz-adv-x="585" d="M150 1495h180v-1219q0 -43 6 -70t19 -39.5t25.5 -16t33.5 -3.5q74 0 147 29l29 -147q-44 -19 -105.5 -31t-109.5 -12q-105 0 -165 60t-60 165v1284zM291 -436l41 166h-51v172h159v-172l-61 -166h-88z" />
<glyph unicode="&#x13d;" horiz-adv-x="1196" d="M881 1255l-119 41l119 207h180zM174 0v1454h184v-1290h811v-164h-995z" />
<glyph unicode="&#x13e;" horiz-adv-x="585" d="M150 1495h180v-1219q0 -43 6 -70t19 -39.5t25.5 -16t33.5 -3.5q74 0 147 29l29 -147q-44 -19 -105.5 -31t-109.5 -12q-105 0 -165 60t-60 165v1284zM537 1247l-119 41l119 207h180z" />
<glyph unicode="&#x13f;" horiz-adv-x="1196" d="M174 0v1454h184v-1290h811v-164h-995zM750 702v254h151v-254h-151z" />
<glyph unicode="&#x140;" horiz-adv-x="694" d="M150 1495h180v-1219q0 -43 6 -70t19 -39.5t25.5 -16t33.5 -3.5q74 0 147 29l29 -147q-44 -19 -105.5 -31t-109.5 -12q-105 0 -165 60t-60 165v1284zM510 502v254h152v-254h-152z" />
<glyph unicode="&#x141;" horiz-adv-x="1210" d="M373 164h811v-164h-996v565l-114 -88l-54 103l168 129v745h185v-606l291 223l51 -100l-342 -264v-543z" />
<glyph unicode="&#x142;" horiz-adv-x="630" d="M604 176l29 -147q-44 -19 -105.5 -31t-109.5 -12q-105 0 -165 60t-60 165v457l-123 -88l-54 100l177 127v688h180v-557l180 131l55 -100l-235 -170v-523q0 -43 6 -70t19 -39.5t25.5 -16t33.5 -3.5q75 0 147 29z" />
<glyph unicode="&#x143;" horiz-adv-x="1576" d="M856 1628l-119 41l119 207h180zM358 1114v-1114h-184v1454h156l889 -1137v1135h184v-1452h-168z" />
<glyph unicode="&#x144;" horiz-adv-x="1208" d="M684 1247l-119 41l119 207h180zM1073 0h-180v598q0 169 -52 248.5t-159 79.5q-112 0 -216 -80.5t-140 -200.5v-645h-181v1069h164v-229q63 113 183.5 180t261.5 67q90 0 154 -33t99 -95.5t50.5 -140t15.5 -179.5v-639z" />
<glyph unicode="&#x145;" horiz-adv-x="1576" d="M358 1114v-1114h-184v1454h156l889 -1137v1135h184v-1452h-168zM717 -436l41 166h-51v172h159v-172l-61 -166h-88z" />
<glyph unicode="&#x146;" horiz-adv-x="1208" d="M1073 0h-180v598q0 169 -52 248.5t-159 79.5q-112 0 -216 -80.5t-140 -200.5v-645h-181v1069h164v-229q63 113 183.5 180t261.5 67q90 0 154 -33t99 -95.5t50.5 -140t15.5 -179.5v-639zM526 -436l41 166h-51v172h160v-172l-62 -166h-88z" />
<glyph unicode="&#x147;" horiz-adv-x="1576" d="M618 1876l175 -129l174 129l98 -49l-207 -185h-131l-207 185zM358 1114v-1114h-184v1454h156l889 -1137v1135h184v-1452h-168z" />
<glyph unicode="&#x148;" horiz-adv-x="1208" d="M446 1495l175 -129l174 129l98 -49l-207 -184h-131l-207 184zM1073 0h-180v598q0 169 -52 248.5t-159 79.5q-112 0 -216 -80.5t-140 -200.5v-645h-181v1069h164v-229q63 113 183.5 180t261.5 67q90 0 154 -33t99 -95.5t50.5 -140t15.5 -179.5v-639z" />
<glyph unicode="&#x14a;" horiz-adv-x="1560" d="M358 1106v-1106h-184v1454h141l887 -1124v1122h184v-1493q0 -146 -100 -243t-233 -97q-148 0 -244 86l84 121q50 -47 139 -47q68 0 121 50.5t53 123.5v78z" />
<glyph unicode="&#x14b;" horiz-adv-x="1208" d="M496 -295l84 121q52 -47 141 -47q68 0 120 50.5t52 123.5v645q0 169 -52 248.5t-159 79.5q-112 0 -216 -80.5t-140 -200.5v-645h-181v1069h164v-229q63 113 183.5 180t261.5 67q90 0 154 -33t99 -95.5t50.5 -140t15.5 -179.5v-674q0 -149 -99 -247.5t-233 -98.5 q-149 0 -245 86z" />
<glyph unicode="&#x14c;" horiz-adv-x="1531" d="M471 1720v119h598v-119h-598zM80 727q0 192 89 361t248.5 272.5t350.5 103.5q119 0 227 -41.5t189.5 -113.5t142 -166t92 -201.5t31.5 -216.5q0 -193 -88.5 -361t-247.5 -271t-350 -103q-148 0 -278 62.5t-217.5 166t-138 236t-50.5 272.5zM766 156q112 0 207.5 49.5 t158 130.5t97.5 183t35 208q0 149 -62 278.5t-177.5 210t-258.5 80.5q-112 0 -208 -49t-158.5 -129.5t-98 -182t-35.5 -208.5q0 -111 36.5 -214.5t100.5 -182.5t158.5 -126.5t204.5 -47.5z" />
<glyph unicode="&#x14d;" d="M315 1339v119h598v-119h-598zM74 532q0 149 67.5 275.5t192 203t278.5 76.5q155 0 280 -76.5t193 -203t68 -275.5q0 -111 -39.5 -211.5t-109.5 -176t-172 -120t-220 -44.5q-157 0 -281 76t-190.5 201.5t-66.5 274.5zM612 135q148 0 252.5 116.5t104.5 283.5 q0 165 -104.5 281t-252.5 116q-146 0 -250 -117.5t-104 -284.5t103 -281t251 -114z" />
<glyph unicode="&#x14e;" horiz-adv-x="1531" d="M887 1876h102q0 -97 -63.5 -162t-157.5 -65t-157.5 65t-63.5 162h104q0 -55 35.5 -97t81.5 -42q45 0 79 39.5t40 99.5zM80 727q0 192 89 361t248.5 272.5t350.5 103.5q119 0 227 -41.5t189.5 -113.5t142 -166t92 -201.5t31.5 -216.5q0 -193 -88.5 -361t-247.5 -271 t-350 -103q-148 0 -278 62.5t-217.5 166t-138 236t-50.5 272.5zM766 156q112 0 207.5 49.5t158 130.5t97.5 183t35 208q0 149 -62 278.5t-177.5 210t-258.5 80.5q-112 0 -208 -49t-158.5 -129.5t-98 -182t-35.5 -208.5q0 -111 36.5 -214.5t100.5 -182.5t158.5 -126.5 t204.5 -47.5z" />
<glyph unicode="&#x14f;" d="M731 1495h103q0 -97 -64 -162t-158 -65t-157.5 65t-63.5 162h105q0 -55 35 -97t81 -42q45 0 79 39.5t40 99.5zM74 532q0 149 67.5 275.5t192 203t278.5 76.5q155 0 280 -76.5t193 -203t68 -275.5q0 -111 -39.5 -211.5t-109.5 -176t-172 -120t-220 -44.5q-157 0 -281 76 t-190.5 201.5t-66.5 274.5zM612 135q148 0 252.5 116.5t104.5 283.5q0 165 -104.5 281t-252.5 116q-146 0 -250 -117.5t-104 -284.5t103 -281t251 -114z" />
<glyph unicode="&#x150;" horiz-adv-x="1531" d="M639 1630l-94 41l110 207h156zM918 1630l-95 41l111 207h156zM80 727q0 192 89 361t248.5 272.5t350.5 103.5q119 0 227 -41.5t189.5 -113.5t142 -166t92 -201.5t31.5 -216.5q0 -193 -88.5 -361t-247.5 -271t-350 -103q-148 0 -278 62.5t-217.5 166t-138 236t-50.5 272.5 zM766 156q112 0 207.5 49.5t158 130.5t97.5 183t35 208q0 149 -62 278.5t-177.5 210t-258.5 80.5q-112 0 -208 -49t-158.5 -129.5t-98 -182t-35.5 -208.5q0 -111 36.5 -214.5t100.5 -182.5t158.5 -126.5t204.5 -47.5z" />
<glyph unicode="&#x151;" d="M483 1249l-94 41l111 207h155zM762 1249l-94 41l110 207h156zM74 532q0 149 67.5 275.5t192 203t278.5 76.5q155 0 280 -76.5t193 -203t68 -275.5q0 -111 -39.5 -211.5t-109.5 -176t-172 -120t-220 -44.5q-157 0 -281 76t-190.5 201.5t-66.5 274.5zM612 135 q148 0 252.5 116.5t104.5 283.5q0 165 -104.5 281t-252.5 116q-146 0 -250 -117.5t-104 -284.5t103 -281t251 -114z" />
<glyph unicode="&#x152;" horiz-adv-x="2316" d="M2241 164v-164h-971v322q-72 -146 -207 -239t-297 -93q-148 0 -278.5 63t-218.5 166t-138.5 235.5t-50.5 272.5q0 192 89 361t248.5 272.5t350.5 103.5q165 0 298 -93t204 -238v321h952v-164h-768v-467h657v-164h-657v-495h787zM1264 729q0 148 -62 277.5t-177.5 210.5 t-258.5 81q-112 0 -208 -49.5t-158.5 -130t-98 -182.5t-35.5 -209q0 -111 36.5 -214.5t100.5 -182.5t158.5 -126.5t204.5 -47.5q112 0 207.5 49.5t158 130.5t97.5 183t35 210z" />
<glyph unicode="&#x153;" horiz-adv-x="2105" d="M74 530q0 155 70.5 283t194 201t273.5 73t268.5 -83t178.5 -228q63 150 179.5 230.5t272.5 80.5q229 0 376 -151.5t161 -400.5q0 -50 -2 -62h-887q12 -153 120 -256.5t255 -103.5q103 0 189.5 50.5t117.5 129.5l152 -43q-55 -121 -184 -195.5t-283 -74.5 q-144 0 -266.5 81.5t-198.5 223.5q-76 -146 -192 -225.5t-259 -79.5q-150 0 -273 72t-193 198.5t-70 279.5zM1874 590q-7 104 -58.5 187.5t-133 129t-175.5 45.5q-145 0 -244 -102t-108 -260h719zM969 532q0 167 -103 283.5t-252 116.5t-252.5 -117.5t-103.5 -286.5 q0 -167 102 -280t252 -113q151 0 254 115t103 282z" />
<glyph unicode="&#x154;" horiz-adv-x="1345" d="M694 1632l-119 41l119 207h180zM174 0v1454h623q93 0 176.5 -40.5t140 -106t90 -149t33.5 -169.5q0 -154 -84.5 -275.5t-220.5 -156.5l352 -557h-209l-332 522h-385v-522h-184zM358 686h441q111 0 181.5 89.5t70.5 213.5q0 122 -79.5 211.5t-185.5 89.5h-428v-604z" />
<glyph unicode="&#x155;" horiz-adv-x="743" d="M496 1247l-119 41l119 207h180zM711 911q-136 -3 -239.5 -69.5t-145.5 -182.5v-659h-181v1069h168v-248q56 111 146.5 180t191.5 76q46 0 60 -2v-164z" />
<glyph unicode="&#x156;" horiz-adv-x="1345" d="M174 0v1454h623q93 0 176.5 -40.5t140 -106t90 -149t33.5 -169.5q0 -154 -84.5 -275.5t-220.5 -156.5l352 -557h-209l-332 522h-385v-522h-184zM358 686h441q111 0 181.5 89.5t70.5 213.5q0 122 -79.5 211.5t-185.5 89.5h-428v-604zM604 -436l41 166h-51v172h160v-172 l-62 -166h-88z" />
<glyph unicode="&#x157;" horiz-adv-x="743" d="M711 911q-136 -3 -239.5 -69.5t-145.5 -182.5v-659h-181v1069h168v-248q56 111 146.5 180t191.5 76q46 0 60 -2v-164zM154 -436l41 166h-52v172h160v-172l-61 -166h-88z" />
<glyph unicode="&#x158;" horiz-adv-x="1345" d="M457 1880l174 -129l174 129l98 -49l-207 -184h-131l-207 184zM174 0v1454h623q93 0 176.5 -40.5t140 -106t90 -149t33.5 -169.5q0 -154 -84.5 -275.5t-220.5 -156.5l352 -557h-209l-332 522h-385v-522h-184zM358 686h441q111 0 181.5 89.5t70.5 213.5q0 122 -79.5 211.5 t-185.5 89.5h-428v-604z" />
<glyph unicode="&#x159;" horiz-adv-x="743" d="M258 1495l174 -129l174 129l99 -49l-207 -184h-131l-207 184zM711 911q-136 -3 -239.5 -69.5t-145.5 -182.5v-659h-181v1069h168v-248q56 111 146.5 180t191.5 76q46 0 60 -2v-164z" />
<glyph unicode="&#x15a;" horiz-adv-x="1247" d="M707 1655l-119 41l119 207h180zM1028 1149q-55 62 -163.5 106.5t-231.5 44.5q-165 0 -246.5 -62t-81.5 -175q0 -39 9.5 -69t32.5 -54t50.5 -41.5t75.5 -34t95 -28.5t120 -29q98 -22 168 -44.5t135 -56t104 -75.5t62 -102.5t23 -137.5q0 -136 -71 -229t-187.5 -134.5 t-270.5 -41.5q-340 0 -592 204l88 156q73 -77 213 -135.5t295 -58.5q157 0 242.5 56.5t85.5 164.5q0 35 -10 64t-25.5 51.5t-45.5 42.5t-60 34.5t-78.5 30.5t-91.5 27.5t-109 27.5q-95 23 -161 45.5t-123.5 54t-91.5 70t-53 91.5t-19 122q0 136 68 234.5t185 147t269 48.5 q273 0 477 -166z" />
<glyph unicode="&#x15b;" horiz-adv-x="999" d="M578 1247l-119 41l119 207h180zM512 -20q-281 0 -451 176l70 127q171 -160 373 -160q113 0 181.5 43t68.5 123q0 22 -6 39.5t-14 30.5t-26 25t-32 19.5t-43.5 17t-49 15t-59 16t-63.5 17.5q-88 25 -147 50.5t-105 60.5t-67 81.5t-21 108.5q0 149 113.5 233t297.5 84 q242 0 381 -145l-82 -125q-126 129 -309 129q-62 0 -111 -12.5t-84.5 -49t-35.5 -93.5q0 -30 11 -53.5t27 -39t51 -31.5t65 -26t87 -27q93 -27 136.5 -41t105 -42t88 -55.5t47.5 -72t21 -102.5q0 -150 -114 -235.5t-304 -85.5z" />
<glyph unicode="&#x15c;" horiz-adv-x="1247" d="M371 1718l207 185h131l206 -185l-98 -49l-174 129l-174 -129zM1028 1149q-55 62 -163.5 106.5t-231.5 44.5q-165 0 -246.5 -62t-81.5 -175q0 -39 9.5 -69t32.5 -54t50.5 -41.5t75.5 -34t95 -28.5t120 -29q98 -22 168 -44.5t135 -56t104 -75.5t62 -102.5t23 -137.5 q0 -136 -71 -229t-187.5 -134.5t-270.5 -41.5q-340 0 -592 204l88 156q73 -77 213 -135.5t295 -58.5q157 0 242.5 56.5t85.5 164.5q0 35 -10 64t-25.5 51.5t-45.5 42.5t-60 34.5t-78.5 30.5t-91.5 27.5t-109 27.5q-95 23 -161 45.5t-123.5 54t-91.5 70t-53 91.5t-19 122 q0 136 68 234.5t185 147t269 48.5q273 0 477 -166z" />
<glyph unicode="&#x15d;" horiz-adv-x="999" d="M242 1311l207 184h131l206 -184l-98 -49l-174 129l-174 -129zM512 -20q-281 0 -451 176l70 127q171 -160 373 -160q113 0 181.5 43t68.5 123q0 22 -6 39.5t-14 30.5t-26 25t-32 19.5t-43.5 17t-49 15t-59 16t-63.5 17.5q-88 25 -147 50.5t-105 60.5t-67 81.5t-21 108.5 q0 149 113.5 233t297.5 84q242 0 381 -145l-82 -125q-126 129 -309 129q-62 0 -111 -12.5t-84.5 -49t-35.5 -93.5q0 -30 11 -53.5t27 -39t51 -31.5t65 -26t87 -27q93 -27 136.5 -41t105 -42t88 -55.5t47.5 -72t21 -102.5q0 -150 -114 -235.5t-304 -85.5z" />
<glyph unicode="&#x15e;" horiz-adv-x="1247" d="M1180 391q0 -181 -120 -282t-321 -119q103 -83 103 -189q0 -85 -57.5 -133.5t-159.5 -48.5q-124 0 -238 57l49 101q88 -45 158 -45q64 0 98.5 25.5t34.5 74.5q0 84 -115 154q-317 12 -553 204l88 156q73 -77 213 -135.5t295 -58.5q157 0 242.5 56.5t85.5 164.5 q0 35 -10 64t-25.5 51.5t-45.5 42.5t-60 34.5t-78.5 30.5t-91.5 27.5t-109 27.5q-95 23 -161 45.5t-123.5 54t-91.5 70t-53 91.5t-19 122q0 136 68 234.5t185 147t269 48.5q273 0 477 -166l-86 -149q-55 62 -163.5 106.5t-231.5 44.5q-165 0 -246.5 -62t-81.5 -175 q0 -39 9.5 -69t32.5 -54t50.5 -41.5t75.5 -34t95 -28.5t120 -29q98 -22 168 -44.5t135 -56t104 -75.5t62 -102.5t23 -137.5z" />
<glyph unicode="&#x15f;" horiz-adv-x="999" d="M930 301q0 -130 -87 -212t-239 -103q98 -82 98 -185q0 -85 -57.5 -133.5t-159.5 -48.5q-123 0 -237 57l49 101q88 -45 158 -45q64 0 98.5 25.5t34.5 74.5q0 82 -105 148q-263 10 -422 176l70 127q171 -160 373 -160q113 0 181.5 43t68.5 123q0 22 -6 39.5t-14 30.5 t-26 25t-32 19.5t-43.5 17t-49 15t-59 16t-63.5 17.5q-88 25 -147 50.5t-105 60.5t-67 81.5t-21 108.5q0 149 113.5 233t297.5 84q242 0 381 -145l-82 -125q-126 129 -309 129q-62 0 -111 -12.5t-84.5 -49t-35.5 -93.5q0 -30 11 -53.5t27 -39t51 -31.5t65 -26t87 -27 q93 -27 136.5 -41t105 -42t88 -55.5t47.5 -72t21 -102.5z" />
<glyph unicode="&#x160;" horiz-adv-x="1247" d="M469 1903l174 -129l174 129l98 -50l-206 -184h-131l-207 184zM1028 1149q-55 62 -163.5 106.5t-231.5 44.5q-165 0 -246.5 -62t-81.5 -175q0 -39 9.5 -69t32.5 -54t50.5 -41.5t75.5 -34t95 -28.5t120 -29q98 -22 168 -44.5t135 -56t104 -75.5t62 -102.5t23 -137.5 q0 -136 -71 -229t-187.5 -134.5t-270.5 -41.5q-340 0 -592 204l88 156q73 -77 213 -135.5t295 -58.5q157 0 242.5 56.5t85.5 164.5q0 35 -10 64t-25.5 51.5t-45.5 42.5t-60 34.5t-78.5 30.5t-91.5 27.5t-109 27.5q-95 23 -161 45.5t-123.5 54t-91.5 70t-53 91.5t-19 122 q0 136 68 234.5t185 147t269 48.5q273 0 477 -166z" />
<glyph unicode="&#x161;" horiz-adv-x="999" d="M340 1495l174 -129l174 129l98 -49l-206 -184h-131l-207 184zM512 -20q-281 0 -451 176l70 127q171 -160 373 -160q113 0 181.5 43t68.5 123q0 22 -6 39.5t-14 30.5t-26 25t-32 19.5t-43.5 17t-49 15t-59 16t-63.5 17.5q-88 25 -147 50.5t-105 60.5t-67 81.5t-21 108.5 q0 149 113.5 233t297.5 84q242 0 381 -145l-82 -125q-126 129 -309 129q-62 0 -111 -12.5t-84.5 -49t-35.5 -93.5q0 -30 11 -53.5t27 -39t51 -31.5t65 -26t87 -27q93 -27 136.5 -41t105 -42t88 -55.5t47.5 -72t21 -102.5q0 -150 -114 -235.5t-304 -85.5z" />
<glyph unicode="&#x162;" horiz-adv-x="1257" d="M721 1290v-1290h-10q116 -85 116 -199q0 -85 -57.5 -133.5t-159.5 -48.5q-123 0 -237 57l49 101q88 -45 158 -45q64 0 98.5 25.5t34.5 74.5t-34 88.5t-104 79.5h-38v1290h-502v164h1188v-164h-502z" />
<glyph unicode="&#x163;" horiz-adv-x="720" d="M522 -6q109 -85 109 -193q0 -85 -57.5 -133.5t-159.5 -48.5q-124 0 -238 57l49 101q88 -45 158 -45q64 0 98.5 25.5t34.5 74.5q0 84 -117 156q-90 10 -146 66.5t-56 154.5v719h-146v141h146v356h180v-356h239v-141h-239v-664q3 -56 36.5 -84t84.5 -28q82 0 157 45 l43 -144q-112 -48 -176 -59z" />
<glyph unicode="&#x164;" horiz-adv-x="1257" d="M461 1876l174 -129l174 129l98 -49l-207 -185h-131l-207 185zM1223 1290h-502v-1290h-184v1290h-502v164h1188v-164z" />
<glyph unicode="&#x165;" horiz-adv-x="720" d="M621 1247l-119 41l119 207h180zM698 53q-151 -67 -260 -67q-105 0 -173 56.5t-68 166.5v719h-146v141h146v356h180v-356h239v-141h-239v-664q3 -56 36.5 -84t84.5 -28q82 0 157 45z" />
<glyph unicode="&#x166;" horiz-adv-x="1314" d="M1251 1290h-501v-522h411v-135h-411v-633h-185v633h-411v135h411v522h-502v164h1188v-164z" />
<glyph unicode="&#x167;" horiz-adv-x="722" d="M657 197l43 -144q-151 -67 -260 -67q-105 0 -173 56.5t-68 166.5v348h-125v115h125v256h-146v141h146v356h180v-356h239v-141h-239v-256h213v-115h-213v-293q3 -56 36.5 -84t84.5 -28q82 0 157 45z" />
<glyph unicode="&#x168;" horiz-adv-x="1546" d="M637 1751q-31 0 -53 -13.5t-31 -33t-12.5 -32t-3.5 -19.5h-107q0 18 9.5 48.5t30.5 69t64 66t99 27.5q49 0 94 -22t87 -44t83 -22q29 0 51.5 10t34 23t18.5 28.5t9 24.5t2 14h106q0 -12 -5.5 -34t-21 -53.5t-38.5 -58.5t-63 -46t-89 -19q-52 0 -99.5 21.5t-88 43 t-76.5 21.5zM774 -10q-135 0 -242 40.5t-176.5 108.5t-116 162.5t-66 198t-19.5 219.5v735h184v-735q0 -90 13 -169t44.5 -152.5t80 -126t124.5 -84t172 -31.5q71 0 130.5 16.5t104 46t79 71.5t57.5 90t37.5 105.5t21 114.5t6.5 119v735h185v-735q0 -121 -21 -227 t-68.5 -199t-118.5 -159.5t-176 -105t-235 -38.5z" />
<glyph unicode="&#x169;" horiz-adv-x="1230" d="M465 1370q-31 0 -53 -13.5t-31 -33t-12.5 -32t-3.5 -19.5h-107q0 18 9.5 48.5t30.5 69t64 66t99 27.5q49 0 94 -22t87 -44t83 -22q29 0 51.5 10t34 23t18.5 28.5t9 24.5t2 14h106q0 -12 -5.5 -34t-21 -53.5t-38.5 -58.5t-63 -46t-89 -19q-52 0 -99.5 21.5t-88 43 t-76.5 21.5zM135 428v641h180v-606q0 -328 228 -328q112 0 208.5 71.5t143.5 192.5v670h180v-864q0 -34 13.5 -49t44.5 -17v-139q-41 -6 -82 -6q-53 0 -89.5 31.5t-37.5 78.5l-4 125q-70 -119 -188 -184t-257 -65q-167 0 -253.5 113.5t-86.5 334.5z" />
<glyph unicode="&#x16a;" horiz-adv-x="1546" d="M477 1720v119h598v-119h-598zM774 -10q-135 0 -242 40.5t-176.5 108.5t-116 162.5t-66 198t-19.5 219.5v735h184v-735q0 -90 13 -169t44.5 -152.5t80 -126t124.5 -84t172 -31.5q71 0 130.5 16.5t104 46t79 71.5t57.5 90t37.5 105.5t21 114.5t6.5 119v735h185v-735 q0 -121 -21 -227t-68.5 -199t-118.5 -159.5t-176 -105t-235 -38.5z" />
<glyph unicode="&#x16b;" horiz-adv-x="1230" d="M305 1339v119h598v-119h-598zM135 428v641h180v-606q0 -328 228 -328q112 0 208.5 71.5t143.5 192.5v670h180v-864q0 -34 13.5 -49t44.5 -17v-139q-41 -6 -82 -6q-53 0 -89.5 31.5t-37.5 78.5l-4 125q-70 -119 -188 -184t-257 -65q-167 0 -253.5 113.5t-86.5 334.5z" />
<glyph unicode="&#x16c;" horiz-adv-x="1546" d="M893 1876h102q0 -97 -63.5 -162t-157.5 -65t-157.5 65t-63.5 162h104q0 -55 35.5 -97t81.5 -42q45 0 79 39.5t40 99.5zM774 -10q-135 0 -242 40.5t-176.5 108.5t-116 162.5t-66 198t-19.5 219.5v735h184v-735q0 -90 13 -169t44.5 -152.5t80 -126t124.5 -84t172 -31.5 q71 0 130.5 16.5t104 46t79 71.5t57.5 90t37.5 105.5t21 114.5t6.5 119v735h185v-735q0 -121 -21 -227t-68.5 -199t-118.5 -159.5t-176 -105t-235 -38.5z" />
<glyph unicode="&#x16d;" horiz-adv-x="1230" d="M721 1495h102q0 -97 -63.5 -162t-157.5 -65t-157.5 65t-63.5 162h104q0 -55 35.5 -97t81.5 -42q45 0 79 39.5t40 99.5zM135 428v641h180v-606q0 -328 228 -328q112 0 208.5 71.5t143.5 192.5v670h180v-864q0 -34 13.5 -49t44.5 -17v-139q-41 -6 -82 -6q-53 0 -89.5 31.5 t-37.5 78.5l-4 125q-70 -119 -188 -184t-257 -65q-167 0 -253.5 113.5t-86.5 334.5z" />
<glyph unicode="&#x16e;" horiz-adv-x="1546" d="M774 1923q87 0 141 -49.5t54 -130.5q0 -79 -54 -127.5t-141 -48.5q-85 0 -139.5 48.5t-54.5 127.5q0 81 54 130.5t140 49.5zM678 1743q0 -41 27.5 -68.5t68.5 -27.5q40 0 69 27t29 69q0 46 -27.5 72t-70.5 26q-41 0 -68.5 -26t-27.5 -72zM774 -10q-135 0 -242 40.5 t-176.5 108.5t-116 162.5t-66 198t-19.5 219.5v735h184v-735q0 -90 13 -169t44.5 -152.5t80 -126t124.5 -84t172 -31.5q71 0 130.5 16.5t104 46t79 71.5t57.5 90t37.5 105.5t21 114.5t6.5 119v735h185v-735q0 -121 -21 -227t-68.5 -199t-118.5 -159.5t-176 -105t-235 -38.5z " />
<glyph unicode="&#x16f;" horiz-adv-x="1230" d="M602 1542q87 0 141 -49.5t54 -130.5q0 -79 -54 -127.5t-141 -48.5q-85 0 -139.5 48.5t-54.5 127.5q0 81 54 130.5t140 49.5zM506 1362q0 -41 27.5 -68.5t68.5 -27.5q40 0 69 27t29 69q0 46 -27.5 72t-70.5 26q-41 0 -68.5 -26t-27.5 -72zM135 428v641h180v-606 q0 -328 228 -328q112 0 208.5 71.5t143.5 192.5v670h180v-864q0 -34 13.5 -49t44.5 -17v-139q-41 -6 -82 -6q-53 0 -89.5 31.5t-37.5 78.5l-4 125q-70 -119 -188 -184t-257 -65q-167 0 -253.5 113.5t-86.5 334.5z" />
<glyph unicode="&#x170;" horiz-adv-x="1546" d="M645 1630l-94 41l111 207h155zM924 1630l-95 41l111 207h156zM774 -10q-135 0 -242 40.5t-176.5 108.5t-116 162.5t-66 198t-19.5 219.5v735h184v-735q0 -90 13 -169t44.5 -152.5t80 -126t124.5 -84t172 -31.5q71 0 130.5 16.5t104 46t79 71.5t57.5 90t37.5 105.5 t21 114.5t6.5 119v735h185v-735q0 -121 -21 -227t-68.5 -199t-118.5 -159.5t-176 -105t-235 -38.5z" />
<glyph unicode="&#x171;" horiz-adv-x="1230" d="M473 1249l-94 41l110 207h156zM752 1249l-95 41l111 207h156zM135 428v641h180v-606q0 -328 228 -328q112 0 208.5 71.5t143.5 192.5v670h180v-864q0 -34 13.5 -49t44.5 -17v-139q-41 -6 -82 -6q-53 0 -89.5 31.5t-37.5 78.5l-4 125q-70 -119 -188 -184t-257 -65 q-167 0 -253.5 113.5t-86.5 334.5z" />
<glyph unicode="&#x172;" horiz-adv-x="1546" d="M1208 1454h185v-735q0 -108 -17 -204.5t-55 -183.5t-94 -154t-138.5 -113.5t-185.5 -63.5q-83 -63 -120.5 -109t-37.5 -84q0 -39 40 -55.5t120 -21.5l-41 -115q-239 16 -239 168q0 107 123 207q-129 4 -231.5 46.5t-169 110.5t-111 162t-63.5 195t-19 215v735h184v-735 q0 -90 13 -169t44.5 -152.5t80 -126t124.5 -84t172 -31.5q71 0 130.5 16.5t104 46t79 71.5t57.5 90t37.5 105.5t21 114.5t6.5 119v735z" />
<glyph unicode="&#x173;" horiz-adv-x="1230" d="M1133 0q-84 -64 -122 -110.5t-38 -84.5q0 -39 40 -55.5t120 -21.5l-41 -115q-240 17 -240 168q0 118 143 223q-31 14 -50.5 40.5t-20.5 59.5l-4 125q-70 -119 -188 -184t-257 -65q-167 0 -253.5 113.5t-86.5 334.5v641h180v-606q0 -328 228 -328q112 0 208.5 71.5 t143.5 192.5v670h180v-864q0 -34 13.5 -49t44.5 -17v-139z" />
<glyph unicode="&#x174;" horiz-adv-x="2148" d="M801 1692l207 184h131l207 -184l-99 -50l-174 130l-174 -130zM707 1446h174l192 -506l195 506h174l-252 -633l250 -600l491 1241h201l-608 -1454h-160l-289 686l-291 -686h-159l-607 1454h199l494 -1241l247 600z" />
<glyph unicode="&#x175;" horiz-adv-x="1681" d="M567 1311l207 184h131l207 -184l-98 -49l-174 129l-174 -129zM1485 1069h174l-455 -1069h-157l-207 504l-205 -504h-158l-454 1069h172l368 -891l172 438l-180 451h158l127 -340l127 340h157l-178 -451l172 -438z" />
<glyph unicode="&#x176;" horiz-adv-x="1341" d="M397 1692l207 184h131l207 -184l-98 -50l-174 130l-174 -130zM229 1454l441 -758l444 758h201l-553 -924v-530h-184v535l-551 919h202z" />
<glyph unicode="&#x177;" horiz-adv-x="1116" d="M303 1311l207 184h131l207 -184l-98 -49l-175 129l-174 -129zM195 -291q70 -8 94 -8q49 0 82 53.5t106 245.5l-452 1069h190l360 -887l326 887h178l-520 -1350q-31 -79 -100.5 -129.5t-177.5 -50.5q-40 0 -86 10v160z" />
<glyph unicode="&#x178;" horiz-adv-x="1341" d="M428 1661v209h152v-209h-152zM760 1661v209h151v-209h-151zM229 1454l441 -758l444 758h201l-553 -924v-530h-184v535l-551 919h202z" />
<glyph unicode="&#x179;" horiz-adv-x="1292" d="M741 1628l-118 41l118 207h181zM66 143l938 1147h-920v164h1135v-143l-922 -1147h922v-164h-1153v143z" />
<glyph unicode="&#x17a;" horiz-adv-x="1009" d="M584 1247l-119 41l119 207h180zM61 117l674 821h-655v131h858v-117l-670 -821h672v-131h-879v117z" />
<glyph unicode="&#x17b;" horiz-adv-x="1292" d="M596 1659v217h164v-217h-164zM66 143l938 1147h-920v164h1135v-143l-922 -1147h922v-164h-1153v143z" />
<glyph unicode="&#x17c;" horiz-adv-x="1009" d="M438 1278v217h164v-217h-164zM61 117l674 821h-655v131h858v-117l-670 -821h672v-131h-879v117z" />
<glyph unicode="&#x17d;" horiz-adv-x="1292" d="M504 1876l174 -129l174 129l98 -49l-207 -185h-131l-206 185zM66 143l938 1147h-920v164h1135v-143l-922 -1147h922v-164h-1153v143z" />
<glyph unicode="&#x17e;" horiz-adv-x="1009" d="M346 1495l174 -129l174 129l99 -49l-207 -184h-131l-207 184zM61 117l674 821h-655v131h858v-117l-670 -821h672v-131h-879v117z" />
<glyph unicode="&#x18f;" horiz-adv-x="1507" d="M55 715q0 64 6 88h1162q-22 211 -161 351t-327 140q-141 0 -257 -76.5t-154 -195.5l-174 80q79 161 246.5 261.5t355.5 100.5q138 0 263 -58t214.5 -157t142.5 -236t53 -290q0 -152 -53 -288t-143.5 -233.5t-216.5 -154.5t-267 -57q-187 0 -346 97.5t-251.5 264.5 t-92.5 363zM1227 643h-973q12 -205 155.5 -346t340.5 -141q126 0 232 62.5t171 174t74 250.5z" />
<glyph unicode="&#x192;" horiz-adv-x="1093" d="M61 -295l84 121q52 -47 142 -47q68 0 120 50.5t52 123.5v850h-146v141h146v148q0 196 88 310t239 114q130 0 236 -66l-45 -133q-65 45 -156 45q-89 0 -135.5 -68t-46.5 -196v-154h285v-141h-285v-846q0 -145 -99.5 -241.5t-232.5 -96.5q-150 0 -246 86z" />
<glyph unicode="&#x1a0;" horiz-adv-x="1531" d="M1100 1370q161 -100 255.5 -276.5t94.5 -368.5q0 -193 -88.5 -361t-247.5 -271t-350 -103q-148 0 -278 62.5t-217.5 166t-138 236t-50.5 272.5q0 192 89 361t248.5 272.5t350.5 103.5q55 0 117 -10q69 0 106 11.5t58 35.5q31 40 34 125h148q-11 -139 -72 -209 q-29 -33 -59 -47zM766 156q112 0 207.5 49.5t158 130.5t97.5 183t35 208q0 149 -62 278.5t-177.5 210t-258.5 80.5q-112 0 -208 -49t-158.5 -129.5t-98 -182t-35.5 -208.5q0 -111 36.5 -214.5t100.5 -182.5t158.5 -126.5t204.5 -47.5z" />
<glyph unicode="&#x1a1;" d="M944 977q98 -77 153.5 -194.5t55.5 -250.5q0 -111 -39.5 -211.5t-109.5 -176t-172 -120t-220 -44.5q-157 0 -281 76t-190.5 201.5t-66.5 274.5t67.5 275.5t192 203t278.5 76.5q69 0 138 -16q69 0 105.5 11.5t57.5 35.5q32 41 35 125h148q-11 -139 -72 -209 q-28 -35 -80 -57zM612 135q148 0 252.5 116.5t104.5 283.5q0 165 -104.5 281t-252.5 116q-146 0 -250 -117.5t-104 -284.5t103 -281t251 -114z" />
<glyph unicode="&#x1af;" horiz-adv-x="1546" d="M1487 1628h147q-5 -68 -20 -117.5t-51 -91.5q-56 -66 -170 -84v-616q0 -121 -21 -227t-68.5 -199t-118.5 -159.5t-176 -105t-235 -38.5q-135 0 -242 40.5t-176.5 108.5t-116 162.5t-66 198t-19.5 219.5v735h184v-735q0 -90 13 -169t44.5 -152.5t80 -126t124.5 -84 t172 -31.5q71 0 130.5 16.5t104 46t79 71.5t57.5 90t37.5 105.5t21 114.5t6.5 119v735h80v2q69 0 106 11.5t58 35.5q32 41 35 125z" />
<glyph unicode="&#x1b0;" horiz-adv-x="1230" d="M1159 1241h148q-11 -139 -72 -209q-53 -62 -160 -84v-743q0 -34 13.5 -49t44.5 -17v-139q-41 -6 -82 -6q-53 0 -89.5 31.5t-37.5 78.5l-4 125q-70 -119 -188 -184t-257 -65q-167 0 -253.5 113.5t-86.5 334.5v641h180v-606q0 -328 228 -328q112 0 208.5 71.5t143.5 192.5 v670h66q69 0 105.5 11.5t57.5 35.5q32 41 35 125z" />
<glyph unicode="&#x1e6;" horiz-adv-x="1462" d="M821 1642h-131l-207 185l99 49l174 -129l174 129l98 -49zM887 725h469v-725h-156v197q-189 -207 -442 -207q-140 0 -267.5 63.5t-216.5 166.5t-141.5 237.5t-52.5 273.5q0 145 52 279t140.5 234t216 160t269.5 60q203 0 342 -84.5t213 -232.5l-142 -98 q-63 123 -171.5 186t-245.5 63q-143 0 -256.5 -81.5t-172.5 -211t-59 -278.5q0 -154 66 -285t183 -208.5t257 -77.5q239 0 428 229v201h-313v139z" />
<glyph unicode="&#x1e7;" horiz-adv-x="1277" d="M442 1495l174 -129l175 129l98 -49l-207 -184h-131l-207 184zM78 532q0 150 62 276.5t176 202.5t257 76q244 0 400 -231v213h160v-1057q0 -147 -73.5 -255t-195.5 -161t-276 -53q-174 0 -290.5 60.5t-195.5 175.5l105 92q62 -92 162.5 -140t218.5 -48q101 0 182 35 t131.5 111t50.5 183v189q-60 -98 -163.5 -155.5t-217.5 -57.5q-106 0 -199 45t-157 120t-100.5 174t-36.5 205zM952 375v307q-43 109 -139.5 179.5t-202.5 70.5q-104 0 -186 -60t-123 -151.5t-41 -192.5q0 -161 107 -277t260 -116q111 0 207 73.5t118 166.5z" />
<glyph unicode="&#x1ea;" horiz-adv-x="1531" d="M918 8q-152 -118 -152 -188q0 -39 40 -56t120 -22l-41 -115q-240 17 -240 168q0 101 107 195q-117 2 -223.5 43.5t-187 112.5t-140 163.5t-90.5 200t-31 217.5q0 192 89 361t248.5 272.5t350.5 103.5q119 0 227 -41.5t189.5 -113.5t142 -166t92 -201.5t31.5 -216.5 q0 -253 -149.5 -456.5t-382.5 -260.5zM266 727q0 -111 36.5 -214.5t100.5 -182.5t158.5 -126.5t204.5 -47.5q112 0 207.5 49.5t158 130.5t97.5 183t35 208q0 149 -62 278.5t-177.5 210t-258.5 80.5q-112 0 -208 -49t-158.5 -129.5t-98 -182t-35.5 -208.5z" />
<glyph unicode="&#x1eb;" d="M760 -2q-83 -63 -120.5 -109t-37.5 -84q0 -39 40 -55.5t120 -21.5l-41 -115q-240 17 -240 168q0 108 113 199q-151 5 -271.5 82t-184.5 201t-64 269q0 149 67.5 275.5t192 203t278.5 76.5q155 0 280 -76.5t193 -203t68 -275.5q0 -188 -107.5 -336.5t-285.5 -197.5z M258 530q0 -167 103 -281t251 -114t252.5 116.5t104.5 283.5q0 165 -104.5 281t-252.5 116q-146 0 -250 -117.5t-104 -284.5z" />
<glyph unicode="&#x1fa;" horiz-adv-x="1386" d="M786 1419l580 -1419h-197l-172 426h-610l-170 -426h-197l582 1419q-48 20 -75 61.5t-27 96.5q0 71 43.5 119t113.5 59l97 158h180l-137 -178q92 -50 92 -158q0 -55 -27.5 -96t-75.5 -62zM694 1675q-41 0 -68.5 -26t-27.5 -72q0 -41 27.5 -68.5t68.5 -27.5q40 0 69.5 27.5 t29.5 68.5q0 46 -28 72t-71 26zM424 569h532l-262 672z" />
<glyph unicode="&#x1fb;" horiz-adv-x="1134" d="M616 1628l-118 41l118 207h181zM545 1542q87 0 140.5 -49.5t53.5 -130.5q0 -79 -53.5 -127.5t-140.5 -48.5q-86 0 -140.5 48.5t-54.5 127.5q0 81 54.5 130.5t140.5 49.5zM449 1362q0 -41 27.5 -68.5t68.5 -27.5q40 0 69 27t29 69q0 46 -27.5 72t-70.5 26q-41 0 -68.5 -26 t-27.5 -72zM61 309q0 151 126.5 242.5t330.5 91.5q166 0 293 -45v78q0 124 -74.5 194t-208.5 70q-157 0 -340 -123l-65 127q211 143 426 143q205 0 323.5 -114t118.5 -316v-452q0 -34 13.5 -49t44.5 -17v-139q-49 -8 -78 -8q-60 0 -94 32.5t-37 75.5l-4 68 q-69 -88 -180.5 -138t-225.5 -50q-160 0 -264.5 95t-104.5 234zM758 233q24 27 38.5 57.5t14.5 51.5v133q-130 51 -270 51q-139 0 -223.5 -54.5t-84.5 -147.5q0 -83 65 -146t179 -63q82 0 158.5 32.5t122.5 85.5z" />
<glyph unicode="&#x1fc;" horiz-adv-x="1968" d="M1296 1628l-118 41l118 207h181zM877 1454h999v-164h-768v-467h657v-164h-657v-495h786v-164h-968v426h-510l-266 -426h-201zM913 590v649l-415 -649h415z" />
<glyph unicode="&#x1fd;" horiz-adv-x="1910" d="M1016 1247l-119 41l119 207h180zM61 313q0 146 125.5 238t323.5 92q139 0 264 -41q8 83 29 135q-15 104 -87 161.5t-190 57.5q-159 0 -340 -125l-59 117q210 139 416 139q129 0 223.5 -50.5t146.5 -143.5q69 90 173 142t227 52q158 0 282.5 -75.5t191.5 -200.5t68 -276 q0 -38 -4 -62h-907q12 -157 121 -257.5t260 -100.5q99 0 185.5 49.5t119.5 128.5l156 -43q-53 -120 -180.5 -195t-286.5 -75q-142 0 -258.5 62t-188.5 169q-44 -78 -123 -132t-162.5 -76.5t-168.5 -22.5q-151 0 -254 96t-103 237zM1683 590q-12 160 -116 261t-256 101 t-256 -102t-113 -260h741zM772 246q36 36 39 71q-32 64 -37 179q-115 39 -237 39q-135 0 -220.5 -57.5t-85.5 -149.5q0 -90 67.5 -151.5t166.5 -61.5q97 0 180 35.5t127 95.5z" />
<glyph unicode="&#x1fe;" horiz-adv-x="1531" d="M1012 1876l-181 -248l-118 41l118 207h181zM1231 1266q104 -105 161.5 -248t57.5 -293q0 -193 -88.5 -361t-247.5 -271t-350 -103q-179 0 -334 92l-55 -82h-201l125 186q-104 104 -161.5 247t-57.5 294q0 192 89 361t248.5 272.5t350.5 103.5q179 0 332 -94l55 84h203z M266 727q0 -225 133 -393l605 895q-109 67 -238 67q-112 0 -208 -49t-158.5 -129.5t-98 -182t-35.5 -208.5zM766 156q112 0 207.5 49.5t158 130.5t97.5 183t35 208q0 108 -35 209.5t-99 181.5l-604 -895q106 -67 240 -67z" />
<glyph unicode="&#x1ff;" d="M756 1495l-181 -248l-118 41l118 207h181zM985 940q80 -77 124 -183t44 -225q0 -111 -39.5 -211.5t-109.5 -176t-172 -120t-220 -44.5q-156 0 -278 75l-47 -59h-154l107 131q-79 77 -122.5 182.5t-43.5 222.5q0 149 67.5 275.5t192 203t278.5 76.5q153 0 277 -73l45 59 h156zM612 932q-146 0 -250 -117.5t-104 -284.5q0 -153 94 -272l430 627q-77 47 -170 47zM612 135q148 0 252.5 116.5t104.5 283.5q0 157 -97 272l-432 -623q81 -49 172 -49z" />
<glyph unicode="&#x200;" horiz-adv-x="1386" d="M360 1878h156l111 -207l-95 -41zM639 1878h156l110 -207l-94 -41zM616 1454h156l594 -1454h-197l-172 426h-610l-170 -426h-197zM956 569l-262 672l-270 -672h532z" />
<glyph unicode="&#x201;" horiz-adv-x="1134" d="M211 1497h156l110 -207l-94 -41zM489 1497h156l111 -207l-94 -41zM61 309q0 151 126.5 242.5t330.5 91.5q166 0 293 -45v78q0 124 -74.5 194t-208.5 70q-157 0 -340 -123l-65 127q211 143 426 143q205 0 323.5 -114t118.5 -316v-452q0 -34 13.5 -49t44.5 -17v-139 q-49 -8 -78 -8q-60 0 -94 32.5t-37 75.5l-4 68q-69 -88 -180.5 -138t-225.5 -50q-160 0 -264.5 95t-104.5 234zM758 233q24 27 38.5 57.5t14.5 51.5v133q-130 51 -270 51q-139 0 -223.5 -54.5t-84.5 -147.5q0 -83 65 -146t179 -63q82 0 158.5 32.5t122.5 85.5z" />
<glyph unicode="&#x202;" horiz-adv-x="1386" d="M578 1649h-105q0 97 63.5 162t157.5 65t157.5 -65t63.5 -162h-102q-6 60 -40 99.5t-79 39.5q-46 0 -81 -42t-35 -97zM616 1454h156l594 -1454h-197l-172 426h-610l-170 -426h-197zM956 569l-262 672l-270 -672h532z" />
<glyph unicode="&#x203;" horiz-adv-x="1134" d="M428 1268h-104q0 97 63.5 162t157.5 65t157.5 -65t63.5 -162h-102q-6 60 -40 99.5t-79 39.5q-46 0 -81.5 -42t-35.5 -97zM61 309q0 151 126.5 242.5t330.5 91.5q166 0 293 -45v78q0 124 -74.5 194t-208.5 70q-157 0 -340 -123l-65 127q211 143 426 143q205 0 323.5 -114 t118.5 -316v-452q0 -34 13.5 -49t44.5 -17v-139q-49 -8 -78 -8q-60 0 -94 32.5t-37 75.5l-4 68q-69 -88 -180.5 -138t-225.5 -50q-160 0 -264.5 95t-104.5 234zM758 233q24 27 38.5 57.5t14.5 51.5v133q-130 51 -270 51q-139 0 -223.5 -54.5t-84.5 -147.5q0 -83 65 -146 t179 -63q82 0 158.5 32.5t122.5 85.5z" />
<glyph unicode="&#x204;" horiz-adv-x="1239" d="M350 1878h156l110 -207l-94 -41zM629 1878h155l111 -207l-94 -41zM1161 164v-164h-987v1454h969v-164h-785v-471h682v-153h-682v-502h803z" />
<glyph unicode="&#x205;" horiz-adv-x="1210" d="M279 1497h155l111 -207l-94 -41zM557 1497h156l110 -207l-94 -41zM618 -20q-157 0 -282.5 76t-193.5 202.5t-68 276.5q0 112 40.5 213t111.5 176t174 119t221 44t219.5 -44.5t169.5 -119.5t106.5 -174t38.5 -206q0 -46 -4 -70h-887q12 -156 116 -257t245 -101 q99 0 185.5 49.5t119.5 128.5l155 -43q-53 -120 -180.5 -195t-286.5 -75zM258 598h729q-13 155 -117.5 254.5t-248.5 99.5t-248.5 -100t-114.5 -254z" />
<glyph unicode="&#x206;" horiz-adv-x="1239" d="M567 1649h-104q0 97 63.5 162t157.5 65t157.5 -65t63.5 -162h-102q-6 60 -40 99.5t-79 39.5q-46 0 -81.5 -42t-35.5 -97zM1161 164v-164h-987v1454h969v-164h-785v-471h682v-153h-682v-502h803z" />
<glyph unicode="&#x207;" horiz-adv-x="1210" d="M496 1268h-105q0 97 63.5 162t157.5 65t158 -65t64 -162h-103q-6 60 -40 99.5t-79 39.5q-46 0 -81 -42t-35 -97zM618 -20q-157 0 -282.5 76t-193.5 202.5t-68 276.5q0 112 40.5 213t111.5 176t174 119t221 44t219.5 -44.5t169.5 -119.5t106.5 -174t38.5 -206 q0 -46 -4 -70h-887q12 -156 116 -257t245 -101q99 0 185.5 49.5t119.5 128.5l155 -43q-53 -120 -180.5 -195t-286.5 -75zM258 598h729q-13 155 -117.5 254.5t-248.5 99.5t-248.5 -100t-114.5 -254z" />
<glyph unicode="&#x208;" horiz-adv-x="532" d="M-68 1878h156l111 -207l-95 -41zM211 1878h156l110 -207l-94 -41zM174 0v1454h184v-1454h-184z" />
<glyph unicode="&#x209;" horiz-adv-x="471" d="M-98 1497h155l111 -207l-94 -41zM180 1497h156l110 -207l-94 -41zM145 0v1069h181v-1069h-181z" />
<glyph unicode="&#x20a;" horiz-adv-x="532" d="M150 1649h-105q0 97 63.5 162t157.5 65t157.5 -65t63.5 -162h-102q-6 60 -40 99.5t-79 39.5q-46 0 -81 -42t-35 -97zM174 0v1454h184v-1454h-184z" />
<glyph unicode="&#x20b;" horiz-adv-x="471" d="M119 1268h-105q0 97 64 162t158 65t157.5 -65t63.5 -162h-103q-6 60 -40 99.5t-78 39.5q-46 0 -81.5 -42t-35.5 -97zM145 0v1069h181v-1069h-181z" />
<glyph unicode="&#x20c;" horiz-adv-x="1531" d="M434 1878h156l110 -207l-94 -41zM713 1878h155l111 -207l-94 -41zM80 727q0 192 89 361t248.5 272.5t350.5 103.5q119 0 227 -41.5t189.5 -113.5t142 -166t92 -201.5t31.5 -216.5q0 -193 -88.5 -361t-247.5 -271t-350 -103q-148 0 -278 62.5t-217.5 166t-138 236 t-50.5 272.5zM766 156q112 0 207.5 49.5t158 130.5t97.5 183t35 208q0 149 -62 278.5t-177.5 210t-258.5 80.5q-112 0 -208 -49t-158.5 -129.5t-98 -182t-35.5 -208.5q0 -111 36.5 -214.5t100.5 -182.5t158.5 -126.5t204.5 -47.5z" />
<glyph unicode="&#x20d;" d="M279 1497h155l111 -207l-94 -41zM557 1497h156l110 -207l-94 -41zM74 532q0 149 67.5 275.5t192 203t278.5 76.5q155 0 280 -76.5t193 -203t68 -275.5q0 -111 -39.5 -211.5t-109.5 -176t-172 -120t-220 -44.5q-157 0 -281 76t-190.5 201.5t-66.5 274.5zM612 135 q148 0 252.5 116.5t104.5 283.5q0 165 -104.5 281t-252.5 116q-146 0 -250 -117.5t-104 -284.5t103 -281t251 -114z" />
<glyph unicode="&#x20e;" horiz-adv-x="1531" d="M651 1649h-104q0 97 63.5 162t157.5 65t157.5 -65t63.5 -162h-102q-6 60 -40 99.5t-79 39.5q-46 0 -81.5 -42t-35.5 -97zM80 727q0 192 89 361t248.5 272.5t350.5 103.5q119 0 227 -41.5t189.5 -113.5t142 -166t92 -201.5t31.5 -216.5q0 -193 -88.5 -361t-247.5 -271 t-350 -103q-148 0 -278 62.5t-217.5 166t-138 236t-50.5 272.5zM766 156q112 0 207.5 49.5t158 130.5t97.5 183t35 208q0 149 -62 278.5t-177.5 210t-258.5 80.5q-112 0 -208 -49t-158.5 -129.5t-98 -182t-35.5 -208.5q0 -111 36.5 -214.5t100.5 -182.5t158.5 -126.5 t204.5 -47.5z" />
<glyph unicode="&#x20f;" d="M496 1268h-105q0 97 63.5 162t157.5 65t158 -65t64 -162h-103q-6 60 -40 99.5t-79 39.5q-46 0 -81 -42t-35 -97zM74 532q0 149 67.5 275.5t192 203t278.5 76.5q155 0 280 -76.5t193 -203t68 -275.5q0 -111 -39.5 -211.5t-109.5 -176t-172 -120t-220 -44.5q-157 0 -281 76 t-190.5 201.5t-66.5 274.5zM612 135q148 0 252.5 116.5t104.5 283.5q0 165 -104.5 281t-252.5 116q-146 0 -250 -117.5t-104 -284.5t103 -281t251 -114z" />
<glyph unicode="&#x210;" horiz-adv-x="1345" d="M297 1882h156l110 -207l-94 -41zM575 1882h156l111 -207l-94 -41zM174 0v1454h623q93 0 176.5 -40.5t140 -106t90 -149t33.5 -169.5q0 -154 -84.5 -275.5t-220.5 -156.5l352 -557h-209l-332 522h-385v-522h-184zM358 686h441q111 0 181.5 89.5t70.5 213.5 q0 122 -79.5 211.5t-185.5 89.5h-428v-604z" />
<glyph unicode="&#x211;" horiz-adv-x="743" d="M98 1497h156l111 -207l-95 -41zM377 1497h155l111 -207l-94 -41zM711 911q-136 -3 -239.5 -69.5t-145.5 -182.5v-659h-181v1069h168v-248q56 111 146.5 180t191.5 76q46 0 60 -2v-164z" />
<glyph unicode="&#x212;" horiz-adv-x="1345" d="M514 1653h-104q0 97 63.5 162t157.5 65t157.5 -65t63.5 -162h-102q-6 60 -40 99.5t-79 39.5q-46 0 -81.5 -42t-35.5 -97zM174 0v1454h623q93 0 176.5 -40.5t140 -106t90 -149t33.5 -169.5q0 -154 -84.5 -275.5t-220.5 -156.5l352 -557h-209l-332 522h-385v-522h-184z M358 686h441q111 0 181.5 89.5t70.5 213.5q0 122 -79.5 211.5t-185.5 89.5h-428v-604z" />
<glyph unicode="&#x213;" horiz-adv-x="743" d="M315 1268h-104q0 97 63.5 162t157.5 65t157.5 -65t63.5 -162h-102q-6 60 -40 99.5t-79 39.5q-46 0 -81.5 -42t-35.5 -97zM711 911q-136 -3 -239.5 -69.5t-145.5 -182.5v-659h-181v1069h168v-248q56 111 146.5 180t191.5 76q46 0 60 -2v-164z" />
<glyph unicode="&#x214;" horiz-adv-x="1546" d="M440 1878h156l111 -207l-95 -41zM719 1878h155l111 -207l-94 -41zM774 -10q-135 0 -242 40.5t-176.5 108.5t-116 162.5t-66 198t-19.5 219.5v735h184v-735q0 -90 13 -169t44.5 -152.5t80 -126t124.5 -84t172 -31.5q71 0 130.5 16.5t104 46t79 71.5t57.5 90t37.5 105.5 t21 114.5t6.5 119v735h185v-735q0 -121 -21 -227t-68.5 -199t-118.5 -159.5t-176 -105t-235 -38.5z" />
<glyph unicode="&#x215;" horiz-adv-x="1230" d="M268 1497h156l111 -207l-95 -41zM547 1497h155l111 -207l-94 -41zM135 428v641h180v-606q0 -328 228 -328q112 0 208.5 71.5t143.5 192.5v670h180v-864q0 -34 13.5 -49t44.5 -17v-139q-41 -6 -82 -6q-53 0 -89.5 31.5t-37.5 78.5l-4 125q-70 -119 -188 -184t-257 -65 q-167 0 -253.5 113.5t-86.5 334.5z" />
<glyph unicode="&#x216;" horiz-adv-x="1546" d="M657 1649h-104q0 97 63.5 162t157.5 65t157.5 -65t63.5 -162h-102q-6 60 -40 99.5t-79 39.5q-46 0 -81.5 -42t-35.5 -97zM774 -10q-135 0 -242 40.5t-176.5 108.5t-116 162.5t-66 198t-19.5 219.5v735h184v-735q0 -90 13 -169t44.5 -152.5t80 -126t124.5 -84t172 -31.5 q71 0 130.5 16.5t104 46t79 71.5t57.5 90t37.5 105.5t21 114.5t6.5 119v735h185v-735q0 -121 -21 -227t-68.5 -199t-118.5 -159.5t-176 -105t-235 -38.5z" />
<glyph unicode="&#x217;" horiz-adv-x="1230" d="M485 1268h-104q0 97 63.5 162t157.5 65t157.5 -65t63.5 -162h-102q-6 60 -40 99.5t-79 39.5q-46 0 -81.5 -42t-35.5 -97zM135 428v641h180v-606q0 -328 228 -328q112 0 208.5 71.5t143.5 192.5v670h180v-864q0 -34 13.5 -49t44.5 -17v-139q-41 -6 -82 -6 q-53 0 -89.5 31.5t-37.5 78.5l-4 125q-70 -119 -188 -184t-257 -65q-167 0 -253.5 113.5t-86.5 334.5z" />
<glyph unicode="&#x218;" horiz-adv-x="1247" d="M1028 1149q-55 62 -163.5 106.5t-231.5 44.5q-165 0 -246.5 -62t-81.5 -175q0 -39 9.5 -69t32.5 -54t50.5 -41.5t75.5 -34t95 -28.5t120 -29q98 -22 168 -44.5t135 -56t104 -75.5t62 -102.5t23 -137.5q0 -136 -71 -229t-187.5 -134.5t-270.5 -41.5q-340 0 -592 204 l88 156q73 -77 213 -135.5t295 -58.5q157 0 242.5 56.5t85.5 164.5q0 35 -10 64t-25.5 51.5t-45.5 42.5t-60 34.5t-78.5 30.5t-91.5 27.5t-109 27.5q-95 23 -161 45.5t-123.5 54t-91.5 70t-53 91.5t-19 122q0 136 68 234.5t185 147t269 48.5q273 0 477 -166zM573 -436 l41 166h-51v172h160v-172l-61 -166h-89z" />
<glyph unicode="&#x219;" horiz-adv-x="999" d="M512 -20q-281 0 -451 176l70 127q171 -160 373 -160q113 0 181.5 43t68.5 123q0 22 -6 39.5t-14 30.5t-26 25t-32 19.5t-43.5 17t-49 15t-59 16t-63.5 17.5q-88 25 -147 50.5t-105 60.5t-67 81.5t-21 108.5q0 149 113.5 233t297.5 84q242 0 381 -145l-82 -125 q-126 129 -309 129q-62 0 -111 -12.5t-84.5 -49t-35.5 -93.5q0 -30 11 -53.5t27 -39t51 -31.5t65 -26t87 -27q93 -27 136.5 -41t105 -42t88 -55.5t47.5 -72t21 -102.5q0 -150 -114 -235.5t-304 -85.5zM434 -436l41 166h-51v172h160v-172l-62 -166h-88z" />
<glyph unicode="&#x21a;" horiz-adv-x="1257" d="M1223 1290h-502v-1290h-184v1290h-502v164h1188v-164zM559 -436l41 166h-51v172h160v-172l-62 -166h-88z" />
<glyph unicode="&#x21b;" horiz-adv-x="720" d="M698 53q-151 -67 -260 -67q-105 0 -173 56.5t-68 166.5v719h-146v141h146v356h180v-356h239v-141h-239v-664q3 -56 36.5 -84t84.5 -28q82 0 157 45zM362 -436l41 166h-51v172h160v-172l-61 -166h-89z" />
<glyph unicode="&#x22a;" horiz-adv-x="1531" d="M471 2128v119h598v-119h-598zM526 1661v209h152v-209h-152zM858 1661v209h152v-209h-152zM80 727q0 192 89 361t248.5 272.5t350.5 103.5q119 0 227 -41.5t189.5 -113.5t142 -166t92 -201.5t31.5 -216.5q0 -193 -88.5 -361t-247.5 -271t-350 -103q-148 0 -278 62.5 t-217.5 166t-138 236t-50.5 272.5zM766 156q112 0 207.5 49.5t158 130.5t97.5 183t35 208q0 149 -62 278.5t-177.5 210t-258.5 80.5q-112 0 -208 -49t-158.5 -129.5t-98 -182t-35.5 -208.5q0 -111 36.5 -214.5t100.5 -182.5t158.5 -126.5t204.5 -47.5z" />
<glyph unicode="&#x22b;" d="M315 1747v119h598v-119h-598zM371 1280v209h151v-209h-151zM702 1280v209h152v-209h-152zM74 532q0 149 67.5 275.5t192 203t278.5 76.5q155 0 280 -76.5t193 -203t68 -275.5q0 -111 -39.5 -211.5t-109.5 -176t-172 -120t-220 -44.5q-157 0 -281 76t-190.5 201.5 t-66.5 274.5zM612 135q148 0 252.5 116.5t104.5 283.5q0 165 -104.5 281t-252.5 116q-146 0 -250 -117.5t-104 -284.5t103 -281t251 -114z" />
<glyph unicode="&#x22c;" horiz-adv-x="1531" d="M471 2146v119h598v-119h-598zM631 1751q-25 0 -44.5 -9.5t-30 -22.5t-17 -28.5t-8 -24.5t-1.5 -13h-106q0 18 9.5 48.5t30.5 69t64 66t99 27.5q49 0 94 -22t87 -44t83 -22q29 0 51.5 10t34 23t18.5 28.5t9 24.5t2 14h106q0 -12 -5.5 -34t-21 -53.5t-38.5 -58.5t-63 -46 t-89 -19q-52 0 -99.5 21.5t-88 43t-76.5 21.5zM80 727q0 192 89 361t248.5 272.5t350.5 103.5q119 0 227 -41.5t189.5 -113.5t142 -166t92 -201.5t31.5 -216.5q0 -193 -88.5 -361t-247.5 -271t-350 -103q-148 0 -278 62.5t-217.5 166t-138 236t-50.5 272.5zM766 156 q112 0 207.5 49.5t158 130.5t97.5 183t35 208q0 149 -62 278.5t-177.5 210t-258.5 80.5q-112 0 -208 -49t-158.5 -129.5t-98 -182t-35.5 -208.5q0 -111 36.5 -214.5t100.5 -182.5t158.5 -126.5t204.5 -47.5z" />
<glyph unicode="&#x22d;" d="M315 1765v119h598v-119h-598zM475 1370q-31 0 -53 -13.5t-31 -33t-12.5 -32t-3.5 -19.5h-107q0 18 9.5 48.5t30.5 69t64 66t99 27.5q49 0 94 -22t87 -44t83 -22q29 0 51.5 10t34 23t18.5 28.5t9 24.5t2 14h106q0 -12 -5.5 -34t-21 -53.5t-38.5 -58.5t-63 -46t-89 -19 q-52 0 -99.5 21.5t-88 43t-76.5 21.5zM74 532q0 149 67.5 275.5t192 203t278.5 76.5q155 0 280 -76.5t193 -203t68 -275.5q0 -111 -39.5 -211.5t-109.5 -176t-172 -120t-220 -44.5q-157 0 -281 76t-190.5 201.5t-66.5 274.5zM612 135q148 0 252.5 116.5t104.5 283.5 q0 165 -104.5 281t-252.5 116q-146 0 -250 -117.5t-104 -284.5t103 -281t251 -114z" />
<glyph unicode="&#x230;" horiz-adv-x="1531" d="M471 2146v119h598v-119h-598zM686 1659v217h164v-217h-164zM80 727q0 192 89 361t248.5 272.5t350.5 103.5q119 0 227 -41.5t189.5 -113.5t142 -166t92 -201.5t31.5 -216.5q0 -193 -88.5 -361t-247.5 -271t-350 -103q-148 0 -278 62.5t-217.5 166t-138 236t-50.5 272.5z M766 156q112 0 207.5 49.5t158 130.5t97.5 183t35 208q0 149 -62 278.5t-177.5 210t-258.5 80.5q-112 0 -208 -49t-158.5 -129.5t-98 -182t-35.5 -208.5q0 -111 36.5 -214.5t100.5 -182.5t158.5 -126.5t204.5 -47.5z" />
<glyph unicode="&#x231;" d="M315 1765v119h598v-119h-598zM530 1278v217h164v-217h-164zM74 532q0 149 67.5 275.5t192 203t278.5 76.5q155 0 280 -76.5t193 -203t68 -275.5q0 -111 -39.5 -211.5t-109.5 -176t-172 -120t-220 -44.5q-157 0 -281 76t-190.5 201.5t-66.5 274.5zM612 135 q148 0 252.5 116.5t104.5 283.5q0 165 -104.5 281t-252.5 116q-146 0 -250 -117.5t-104 -284.5t103 -281t251 -114z" />
<glyph unicode="&#x232;" horiz-adv-x="1341" d="M373 1720v119h598v-119h-598zM229 1454l441 -758l444 758h201l-553 -924v-530h-184v535l-551 919h202z" />
<glyph unicode="&#x233;" horiz-adv-x="1116" d="M279 1339v119h598v-119h-598zM195 -291q70 -8 94 -8q49 0 82 53.5t106 245.5l-452 1069h190l360 -887l326 887h178l-520 -1350q-31 -79 -100.5 -129.5t-177.5 -50.5q-40 0 -86 10v160z" />
<glyph unicode="&#x237;" horiz-adv-x="471" d="M-252 -295l84 121q52 -47 141 -47q68 0 120 50.5t52 123.5v1116h181v-1104q0 -149 -99 -247.5t-233 -98.5q-150 0 -246 86z" />
<glyph unicode="&#x259;" horiz-adv-x="1210" d="M598 -20q-157 0 -282 75.5t-192.5 201t-68.5 275.5q0 34 4 62h887q-12 156 -115 256t-245 100q-99 0 -185 -49.5t-120 -126.5l-156 43q54 119 181.5 194.5t287.5 75.5q156 0 281 -76t193.5 -203.5t68.5 -279.5q0 -111 -39.5 -211.5t-109 -175t-171 -118t-219.5 -43.5z M600 115q142 0 240.5 101.5t109.5 258.5h-721q10 -157 118 -258.5t253 -101.5z" />
<glyph unicode="&#x2b9;" horiz-adv-x="430" d="M137 1026v444h156l-62 -444h-94z" />
<glyph unicode="&#x2ba;" horiz-adv-x="860" d="M137 1026v444h156l-62 -444h-94zM567 1026v444h156l-61 -444h-95z" />
<glyph unicode="&#x2bb;" horiz-adv-x="344" d="M215 1495l-41 -135h51v-154h-159v154l61 135h88z" />
<glyph unicode="&#x2bc;" horiz-adv-x="475" d="M217 1247l-119 41l119 207h180z" />
<glyph unicode="&#x2be;" horiz-adv-x="321" d="M63 1186v80q40 0 69.5 27.5t29.5 68.5q0 46 -28 72t-71 26v82q87 0 141 -49.5t54 -130.5q0 -79 -54 -127.5t-141 -48.5z" />
<glyph unicode="&#x2bf;" horiz-adv-x="321" d="M258 1186q-86 0 -140.5 48.5t-54.5 127.5q0 81 54.5 130.5t140.5 49.5v-82q-41 0 -68.5 -26t-27.5 -72q0 -41 27.5 -68.5t68.5 -27.5v-80z" />
<glyph unicode="&#x2c6;" horiz-adv-x="700" d="M78 1311l207 184h131l207 -184l-99 -49l-174 129l-174 -129z" />
<glyph unicode="&#x2c7;" horiz-adv-x="700" d="M176 1495l174 -129l174 129l99 -49l-207 -184h-131l-207 184z" />
<glyph unicode="&#x2c8;" horiz-adv-x="495" d="M326 1587v-825h-156v825h156z" />
<glyph unicode="&#x2c9;" horiz-adv-x="825" d="M115 1339v119h598v-119h-598z" />
<glyph unicode="&#x2ca;" horiz-adv-x="430" d="M137 1026v444h156l-62 -444h-94z" />
<glyph unicode="&#x2cb;" horiz-adv-x="430" d="M199 1026l-62 444h156v-444h-94z" />
<glyph unicode="&#x2cc;" horiz-adv-x="495" d="M326 559v-825h-156v825h156z" />
<glyph unicode="&#x2d8;" horiz-adv-x="606" d="M422 1495h102q0 -97 -63.5 -162t-157.5 -65t-157.5 65t-63.5 162h104q0 -55 35.5 -97t81.5 -42q45 0 79 39.5t40 99.5z" />
<glyph unicode="&#x2d9;" horiz-adv-x="368" d="M102 1278v217h164v-217h-164z" />
<glyph unicode="&#x2da;" horiz-adv-x="516" d="M258 1542q87 0 141 -49.5t54 -130.5q0 -79 -54 -127.5t-141 -48.5q-86 0 -140.5 48.5t-54.5 127.5q0 81 54.5 130.5t140.5 49.5zM162 1362q0 -41 27.5 -68.5t68.5 -27.5q40 0 69 27t29 69q0 46 -27.5 72t-70.5 26q-41 0 -68.5 -26t-27.5 -72z" />
<glyph unicode="&#x2db;" horiz-adv-x="522" d="M111 -219q0 134 190 256h49l41 -37q-84 -64 -122 -110.5t-38 -84.5q0 -39 40 -55.5t120 -21.5l-41 -115q-239 16 -239 168z" />
<glyph unicode="&#x2dc;" horiz-adv-x="849" d="M289 1370q-25 0 -44.5 -9.5t-30 -22.5t-17 -28.5t-8 -24.5t-1.5 -13h-106q0 18 9.5 48.5t30.5 69t64 66t99 27.5q49 0 94 -22t87 -44t83 -22q29 0 51.5 10t34 23t18.5 28.5t9 24.5t2 14h106q0 -12 -5.5 -34t-21 -53.5t-38.5 -58.5t-63 -46t-89 -19q-52 0 -99.5 21.5 t-88 43t-76.5 21.5z" />
<glyph unicode="&#x2dd;" horiz-adv-x="692" d="M176 1247l-94 41l111 207h155zM455 1247l-95 41l111 207h156z" />
<glyph unicode="&#x300;" horiz-adv-x="0" d="M-377 1495h178l121 -207l-117 -41z" />
<glyph unicode="&#x301;" horiz-adv-x="0" d="M-258 1247l-119 41l119 207h180z" />
<glyph unicode="&#x302;" horiz-adv-x="0" d="M-623 1311l207 184h131l207 -184l-98 -49l-174 129l-174 -129z" />
<glyph unicode="&#x303;" horiz-adv-x="0" d="M-561 1370q-25 0 -44.5 -9.5t-30 -22.5t-17 -28.5t-8 -24.5t-1.5 -13h-106q0 18 9.5 48.5t30.5 69t64 66t99 27.5q49 0 94 -22t87 -44t83 -22q29 0 51.5 10t34 23t18.5 28.5t9 24.5t2 14h106q0 -12 -5.5 -34t-21 -53.5t-38.5 -58.5t-63 -46t-89 -19q-52 0 -99.5 21.5 t-88 43t-76.5 21.5z" />
<glyph unicode="&#x304;" horiz-adv-x="0" d="M-711 1339v119h598v-119h-598z" />
<glyph unicode="&#x306;" horiz-adv-x="0" d="M-184 1495h102q0 -97 -63.5 -162t-157.5 -65t-157.5 65t-63.5 162h104q0 -55 35.5 -97t81.5 -42q45 0 79 39.5t40 99.5z" />
<glyph unicode="&#x307;" horiz-adv-x="0" d="M-266 1278v217h164v-217h-164z" />
<glyph unicode="&#x308;" horiz-adv-x="0" d="M-618 1278v209h151v-209h-151zM-287 1278v209h152v-209h-152z" />
<glyph unicode="&#x309;" horiz-adv-x="0" d="M-700 1425l-68 68q84 74 178 74q69 0 107.5 -40t38.5 -95q0 -86 -115 -181l-51 60q59 54 59 104q0 24 -15.5 39.5t-39.5 15.5q-26 0 -45.5 -9.5t-48.5 -35.5z" />
<glyph unicode="&#x30a;" horiz-adv-x="0" d="M-258 1542q87 0 141 -49.5t54 -130.5q0 -79 -54 -127.5t-141 -48.5q-86 0 -140.5 48.5t-54.5 127.5q0 81 54.5 130.5t140.5 49.5zM-354 1362q0 -41 27.5 -68.5t68.5 -27.5q40 0 69 27t29 69q0 46 -27.5 72t-70.5 26q-41 0 -68.5 -26t-27.5 -72z" />
<glyph unicode="&#x30b;" horiz-adv-x="0" d="M-516 1247l-94 41l110 207h156zM-238 1247l-94 41l111 207h155z" />
<glyph unicode="&#x30c;" horiz-adv-x="0" d="M-524 1495l174 -129l174 129l98 -49l-207 -184h-131l-207 184z" />
<glyph unicode="&#x30f;" horiz-adv-x="0" d="M-627 1495h156l111 -207l-95 -41zM-348 1495h155l111 -207l-94 -41z" />
<glyph unicode="&#x311;" horiz-adv-x="0" d="M-420 1268h-104q0 97 63.5 162t157.5 65t157.5 -65t63.5 -162h-102q-6 60 -40 99.5t-79 39.5q-46 0 -81.5 -42t-35.5 -97z" />
<glyph unicode="&#x312;" horiz-adv-x="0" d="M-129 1495l-41 -135h51v-154h-160v154l62 135h88z" />
<glyph unicode="&#x31b;" horiz-adv-x="0" d="M-453 1010l4 131q69 0 106 11.5t58 35.5q32 41 35 125h148q-11 -139 -72 -209q-79 -94 -279 -94z" />
<glyph unicode="&#x323;" horiz-adv-x="0" d="M-266 -383v217h164v-217h-164z" />
<glyph unicode="&#x324;" horiz-adv-x="0" d="M-618 -383v209h151v-209h-151zM-287 -383v209h152v-209h-152z" />
<glyph unicode="&#x326;" horiz-adv-x="0" d="M-215 -436l41 166h-51v172h159v-172l-61 -166h-88z" />
<glyph unicode="&#x327;" horiz-adv-x="0" d="M-301 -381q-124 0 -238 57l50 101q88 -45 157 -45q64 0 98.5 25.5t34.5 74.5t-34 88.5t-103 79.5l66 47q93 -57 139.5 -112.5t46.5 -133.5q0 -85 -57.5 -133.5t-159.5 -48.5z" />
<glyph unicode="&#x328;" horiz-adv-x="0" d="M-412 -219q0 134 191 256h49l41 -37q-84 -64 -122 -110.5t-38 -84.5q0 -39 40 -55.5t120 -21.5l-41 -115q-240 17 -240 168z" />
<glyph unicode="&#x32e;" horiz-adv-x="0" d="M-184 -113h102q0 -97 -63.5 -162t-157.5 -65t-157.5 65t-63.5 162h104q0 -55 35.5 -97t81.5 -42q45 0 79 39.5t40 99.5z" />
<glyph unicode="&#x331;" horiz-adv-x="0" d="M-711 -293v119h598v-119h-598z" />
<glyph unicode="&#x335;" horiz-adv-x="0" d="M-621 557v115h519v-115h-519z" />
<glyph unicode="&#x3c0;" horiz-adv-x="1247" d="M389 905v-905h-174v905h-164v164h1108v-164h-225v-629q0 -60 32 -93t89 -33q50 0 110 24l29 -145q-44 -19 -105.5 -31t-109.5 -12q-101 0 -160 60t-59 165v694h-371z" />
<glyph unicode="&#x400;" horiz-adv-x="1239" d="M471 1878h178l121 -207l-117 -41zM1161 164v-164h-987v1454h969v-164h-785v-471h682v-153h-682v-502h803z" />
<glyph unicode="&#x401;" horiz-adv-x="1239" d="M442 1661v209h152v-209h-152zM774 1661v209h152v-209h-152zM1161 164v-164h-987v1454h969v-164h-785v-471h682v-153h-682v-502h803z" />
<glyph unicode="&#x402;" horiz-adv-x="1515" d="M965 -16q-100 0 -191 26l41 152q82 -23 133 -23q139 0 217 76t78 227t-90 234.5t-231 83.5q-187 0 -373 -127v-633h-180v1294h-334v160h1079v-160h-565v-497q189 118 395 118q215 0 347 -127.5t132 -345.5q0 -224 -121.5 -341t-336.5 -117z" />
<glyph unicode="&#x403;" horiz-adv-x="1071" d="M721 1632l-119 41l119 207h180zM174 0v1454h846v-164h-662v-1290h-184z" />
<glyph unicode="&#x404;" horiz-adv-x="1464" d="M776 -12q-121 0 -231.5 42t-194 114.5t-145 167.5t-93.5 204.5t-32 220.5q0 108 29 212t89 197t143 163.5t198.5 111.5t248.5 41q194 0 339.5 -86.5t218.5 -230.5l-146 -94q-63 128 -176 186.5t-244 58.5q-108 0 -200 -39.5t-154 -107t-99.5 -152t-47.5 -178.5h639v-151 h-644q7 -138 75.5 -256t184 -188t250.5 -70q84 0 164.5 25.5t154.5 85t116 145.5l153 -84q-46 -104 -144.5 -182.5t-215.5 -117t-236 -38.5z" />
<glyph unicode="&#x405;" horiz-adv-x="1247" d="M1028 1149q-55 62 -163.5 106.5t-231.5 44.5q-165 0 -246.5 -62t-81.5 -175q0 -39 9.5 -69t32.5 -54t50.5 -41.5t75.5 -34t95 -28.5t120 -29q98 -22 168 -44.5t135 -56t104 -75.5t62 -102.5t23 -137.5q0 -136 -71 -229t-187.5 -134.5t-270.5 -41.5q-340 0 -592 204 l88 156q73 -77 213 -135.5t295 -58.5q157 0 242.5 56.5t85.5 164.5q0 35 -10 64t-25.5 51.5t-45.5 42.5t-60 34.5t-78.5 30.5t-91.5 27.5t-109 27.5q-95 23 -161 45.5t-123.5 54t-91.5 70t-53 91.5t-19 122q0 136 68 234.5t185 147t269 48.5q273 0 477 -166z" />
<glyph unicode="&#x406;" horiz-adv-x="532" d="M174 0v1454h184v-1454h-184z" />
<glyph unicode="&#x407;" horiz-adv-x="532" d="M25 1661v209h151v-209h-151zM356 1661v209h152v-209h-152zM174 0v1454h184v-1454h-184z" />
<glyph unicode="&#x408;" horiz-adv-x="993" d="M72 217q108 -74 270 -74q77 0 131 21t89 59.5t54.5 106t27 147.5t7.5 197v780h185v-739q0 -101 -4.5 -178t-17 -157.5t-34.5 -138t-58.5 -110t-87.5 -84.5t-123 -51t-163 -19q-190 0 -323 91z" />
<glyph unicode="&#x409;" horiz-adv-x="2074" d="M72 -6v162q81 4 135.5 48t95 149t60.5 283.5t24 448.5l6 369h854v-565h283q228 0 350.5 -121t122.5 -324q0 -127 -51.5 -226t-157.5 -158.5t-252 -59.5h-479v1290h-502l-2 -309q-2 -204 -18 -360t-47 -263.5t-70.5 -179t-96.5 -111.5t-117 -56t-138 -17zM1247 154h273 q148 0 221.5 82.5t73.5 207.5q0 59 -15.5 109t-48.5 91.5t-93 65t-142 23.5h-269v-579z" />
<glyph unicode="&#x40a;" horiz-adv-x="2076" d="M174 0v1454h184v-610h707v610h184v-602h283q228 0 350.5 -114t122.5 -306q0 -190 -121 -311t-340 -121h-479v680h-707v-680h-184zM1249 154h273q148 0 221.5 79t73.5 199q0 54 -15.5 99.5t-48.5 83.5t-93 59.5t-142 21.5h-269v-542z" />
<glyph unicode="&#x40b;" horiz-adv-x="1480" d="M369 0v1294h-334v160h1063v-160h-549v-465q176 76 369 76q236 0 353.5 -114t117.5 -355v-436h-181v416q0 164 -75 240.5t-242 76.5q-92 0 -186.5 -23t-155.5 -59v-651h-180z" />
<glyph unicode="&#x40c;" horiz-adv-x="1333" d="M725 1632l-119 41l119 207h180zM174 0v1454h184v-629h195l479 629h213l-540 -704l577 -750h-225l-500 657h-199v-657h-184z" />
<glyph unicode="&#x40d;" horiz-adv-x="1566" d="M571 1882h179l120 -207l-116 -41zM184 0v1454h185v-1198l841 1198h172v-1454h-184v1176l-831 -1176h-183z" />
<glyph unicode="&#x40e;" horiz-adv-x="1273" d="M662 1614q-132 0 -205.5 58t-73.5 149h100q0 -52 44.5 -86.5t134.5 -34.5q88 0 128 31.5t50 89.5h100q0 -91 -73 -149t-205 -58zM330 -6v156h92q48 0 73.5 22t57.5 80l53 115l-606 1087h203l487 -899l410 899h194l-600 -1290q-45 -94 -96 -132t-137 -38h-131z" />
<glyph unicode="&#x40f;" horiz-adv-x="1439" d="M641 -279v279h-467v1454h184v-1290h723v1290h185v-1454h-465v-279h-160z" />
<glyph unicode="&#x410;" horiz-adv-x="1386" d="M616 1454h156l594 -1454h-197l-172 426h-610l-170 -426h-197zM956 569l-262 672l-270 -672h532z" />
<glyph unicode="&#x411;" horiz-adv-x="1345" d="M174 0v1454h997v-162h-813v-458h455q233 0 354 -110t121 -298q0 -189 -119.5 -307.5t-343.5 -118.5h-651zM358 162h445q149 0 223 78t74 192q0 53 -14.5 95.5t-47 80t-94 58t-147.5 20.5h-439v-524z" />
<glyph unicode="&#x412;" horiz-adv-x="1374" d="M864 0h-690v1454h723q98 0 176 -55.5t117 -139t39 -176.5q0 -110 -55.5 -202.5t-153.5 -135.5q125 -37 197.5 -136t72.5 -234q0 -165 -123.5 -270t-302.5 -105zM358 1294v-485h463q96 0 161 70.5t65 171.5q0 103 -60.5 173t-152.5 70h-476zM879 659h-521v-499h506 q100 0 170 74t70 174q0 102 -65 176.5t-160 74.5z" />
<glyph unicode="&#x413;" horiz-adv-x="1071" d="M174 0v1454h846v-164h-662v-1290h-184z" />
<glyph unicode="&#x414;" horiz-adv-x="1550" d="M72 -279v443h65q78 1 128.5 82.5t81 277t40.5 525.5l10 405h901v-1290h181v-443h-164v279h-1079v-279h-164zM383 164h731v1126h-547l-6 -264q-11 -390 -51.5 -591t-126.5 -271z" />
<glyph unicode="&#x415;" horiz-adv-x="1239" d="M1161 164v-164h-987v1454h969v-164h-785v-471h682v-153h-682v-502h803z" />
<glyph unicode="&#x416;" horiz-adv-x="2072" d="M51 0l563 752l-528 702h217l465 -629h176v629h184v-629h175l466 629h216l-529 -702l565 -752h-215l-499 657h-179v-657h-184v657h-180l-500 -657h-213z" />
<glyph unicode="&#x417;" horiz-adv-x="1155" d="M573 -16q-158 0 -284.5 66t-196.5 186l141 86q52 -87 138.5 -135t197.5 -48q148 0 232 73.5t84 197.5q0 119 -78.5 192.5t-216.5 73.5h-150v145h152q108 0 175 68t67 172q0 107 -73.5 174.5t-197.5 67.5q-105 0 -185.5 -46t-125.5 -127l-135 93q149 247 454 247 q199 0 320 -104.5t121 -280.5q0 -108 -54 -197t-153 -132q125 -35 195.5 -133t70.5 -230q0 -190 -138.5 -299.5t-359.5 -109.5z" />
<glyph unicode="&#x418;" horiz-adv-x="1566" d="M184 0v1454h185v-1198l841 1198h172v-1454h-184v1176l-831 -1176h-183z" />
<glyph unicode="&#x419;" horiz-adv-x="1566" d="M784 1614q-132 0 -205 58t-73 149h100q0 -52 44.5 -86.5t133.5 -34.5q88 0 128.5 31.5t50.5 89.5h100q0 -91 -73.5 -149t-205.5 -58zM184 0v1454h185v-1198l841 1198h172v-1454h-184v1176l-831 -1176h-183z" />
<glyph unicode="&#x41a;" horiz-adv-x="1333" d="M174 0v1454h184v-629h195l479 629h213l-540 -704l577 -750h-225l-500 657h-199v-657h-184z" />
<glyph unicode="&#x41b;" horiz-adv-x="1495" d="M1137 0v1290h-543l-8 -289q-8 -239 -32 -409.5t-63 -286.5t-100.5 -184t-137.5 -96.5t-181 -28.5v162q83 0 138.5 38t99.5 136.5t67.5 273.5t32.5 443l12 405h899v-1454h-184z" />
<glyph unicode="&#x41c;" horiz-adv-x="1789" d="M1432 0v1110l-480 -854h-112l-482 854v-1110h-184v1454h195l526 -944l528 944h193v-1454h-184z" />
<glyph unicode="&#x41d;" horiz-adv-x="1517" d="M1343 1454v-1454h-184v662h-801v-662h-184v1454h184v-629h801v629h184z" />
<glyph unicode="&#x41e;" horiz-adv-x="1531" d="M80 727q0 192 89 361t248.5 272.5t350.5 103.5q119 0 227 -41.5t189.5 -113.5t142 -166t92 -201.5t31.5 -216.5q0 -193 -88.5 -361t-247.5 -271t-350 -103q-148 0 -278 62.5t-217.5 166t-138 236t-50.5 272.5zM766 156q112 0 207.5 49.5t158 130.5t97.5 183t35 208 q0 149 -62 278.5t-177.5 210t-258.5 80.5q-112 0 -208 -49t-158.5 -129.5t-98 -182t-35.5 -208.5q0 -111 36.5 -214.5t100.5 -182.5t158.5 -126.5t204.5 -47.5z" />
<glyph unicode="&#x41f;" horiz-adv-x="1470" d="M174 0v1454h1122v-1454h-184v1290h-754v-1290h-184z" />
<glyph unicode="&#x420;" horiz-adv-x="1275" d="M174 0v1454h606q123 0 226 -68.5t159 -175t56 -221.5q0 -121 -52.5 -227t-152 -173t-223.5 -67h-435v-522h-184zM358 686h424q112 0 182 88t70 215t-78.5 214t-185.5 87h-412v-604z" />
<glyph unicode="&#x421;" horiz-adv-x="1396" d="M772 1462q188 0 329.5 -86.5t211.5 -230.5l-146 -94q-31 66 -78 115.5t-101.5 76.5t-110 40t-113.5 13q-117 0 -214 -50t-157.5 -131.5t-93.5 -181t-33 -204.5q0 -151 65 -282.5t181.5 -212t257.5 -80.5q80 0 156.5 25.5t148 85t111.5 145.5l153 -84 q-44 -104 -139.5 -182.5t-209 -117t-228.5 -38.5q-145 0 -274 65t-217 171t-139.5 240.5t-51.5 272.5q0 106 29.5 210.5t88.5 197t140.5 163.5t194 112.5t239.5 41.5z" />
<glyph unicode="&#x422;" horiz-adv-x="1257" d="M1223 1290h-502v-1290h-184v1290h-502v164h1188v-164z" />
<glyph unicode="&#x423;" horiz-adv-x="1273" d="M330 -6v156h92q48 0 73.5 22t57.5 80l53 115l-606 1087h203l487 -899l410 899h194l-600 -1290q-45 -94 -96 -132t-137 -38h-131z" />
<glyph unicode="&#x424;" horiz-adv-x="1673" d="M748 0v133q-136 5 -258.5 53.5t-213.5 130.5t-144 200t-52 255q1 114 36.5 215t98.5 176t147 130.5t182.5 85.5t203.5 34v109h176v-109q134 -5 254.5 -53t212.5 -129t146 -200.5t54 -258.5t-55 -258.5t-148 -200t-213 -128t-251 -52.5v-133h-176zM752 285v977 q-136 -6 -245.5 -65t-176 -170t-66.5 -255q0 -109 40.5 -200.5t108.5 -152t155.5 -95t183.5 -39.5zM920 285q99 5 187.5 40.5t155 97t105.5 152t39 197.5q0 144 -68.5 255.5t-178 170t-240.5 64.5v-977z" />
<glyph unicode="&#x425;" horiz-adv-x="1304" d="M215 1454l438 -602l439 602h206l-542 -737l526 -717h-207l-422 582l-422 -582h-208l526 717l-543 737h209z" />
<glyph unicode="&#x426;" horiz-adv-x="1509" d="M1274 -276v276h-1100v1454h184v-1290h715v1290h184v-1290h181v-440h-164z" />
<glyph unicode="&#x427;" horiz-adv-x="1327" d="M973 0v608q-169 -76 -365 -76q-244 0 -359.5 108.5t-115.5 342.5v471h178v-450q0 -159 77.5 -231.5t250.5 -72.5q89 0 181.5 20.5t152.5 51.5v682h180v-1454h-180z" />
<glyph unicode="&#x428;" horiz-adv-x="1990" d="M174 0v1454h184v-1290h545v1290h184v-1290h545v1290h185v-1454h-1643z" />
<glyph unicode="&#x429;" horiz-adv-x="2068" d="M1833 -276v276h-1659v1454h184v-1290h545v1290h184v-1290h545v1290h185v-1290h180v-440h-164z" />
<glyph unicode="&#x42a;" horiz-adv-x="1476" d="M414 0v1298h-373v156h557v-551h326q232 0 356.5 -122t124.5 -328q0 -130 -52 -231t-160 -161.5t-257 -60.5h-522zM598 154h315q152 0 229 85t77 214q0 61 -16 112t-51 94t-97 67t-146 24h-311v-596z" />
<glyph unicode="&#x42b;" horiz-adv-x="1787" d="M174 0v1454h184v-551h349q232 0 356.5 -122t124.5 -328q0 -199 -123.5 -326t-345.5 -127h-545zM1430 0v1452h184v-1452h-184zM358 154h336q153 0 229 85t76 214q0 61 -15.5 112t-50 94t-96 67t-145.5 24h-334v-596z" />
<glyph unicode="&#x42c;" horiz-adv-x="1259" d="M174 0v1454h184v-551h349q232 0 356.5 -122t124.5 -328q0 -199 -123.5 -326t-345.5 -127h-545zM358 154h336q153 0 229 85t76 214q0 61 -15.5 112t-50 94t-96 67t-145.5 24h-334v-596z" />
<glyph unicode="&#x42d;" horiz-adv-x="1466" d="M682 -12q-193 0 -350 90t-240 248l156 84q64 -124 180.5 -190t251.5 -66q208 0 353 150.5t157 363.5h-643v151h639q-10 94 -48.5 178.5t-101 152t-154.5 107t-200 39.5q-133 0 -242.5 -62t-173.5 -185l-149 96q84 148 224.5 232.5t338.5 84.5q130 0 244 -41t197 -111.5 t143 -163.5t90 -199t30 -216q0 -143 -51.5 -277.5t-141.5 -237.5t-223 -165.5t-286 -62.5z" />
<glyph unicode="&#x42e;" horiz-adv-x="2025" d="M1274 -10q-274 0 -451.5 180t-199.5 479h-265v-649h-184v1454h184v-641h267q23 298 204.5 474.5t446.5 176.5q197 0 349.5 -94t235.5 -262t83 -383q0 -171 -51 -310.5t-140.5 -232t-212 -142.5t-266.5 -50zM1276 156q220 0 349.5 158.5t129.5 412.5q0 260 -132.5 414.5 t-348.5 154.5t-342.5 -157t-126.5 -412q0 -262 128.5 -416.5t342.5 -154.5z" />
<glyph unicode="&#x42f;" horiz-adv-x="1337" d="M133 0l379 606q-149 38 -232 150.5t-83 269.5q0 184 132.5 306t346.5 122h487v-1454h-184v584h-225h-52l-356 -584h-213zM690 743h289v551h-281q-139 0 -226 -72.5t-87 -195.5q0 -128 80.5 -205.5t224.5 -77.5z" />
<glyph unicode="&#x430;" horiz-adv-x="1134" d="M61 309q0 151 126.5 242.5t330.5 91.5q166 0 293 -45v78q0 124 -74.5 194t-208.5 70q-157 0 -340 -123l-65 127q211 143 426 143q205 0 323.5 -114t118.5 -316v-452q0 -34 13.5 -49t44.5 -17v-139q-49 -8 -78 -8q-60 0 -94 32.5t-37 75.5l-4 68q-69 -88 -180.5 -138 t-225.5 -50q-160 0 -264.5 95t-104.5 234zM758 233q24 27 38.5 57.5t14.5 51.5v133q-130 51 -270 51q-139 0 -223.5 -54.5t-84.5 -147.5q0 -83 65 -146t179 -63q82 0 158.5 32.5t122.5 85.5z" />
<glyph unicode="&#x431;" horiz-adv-x="1255" d="M649 -20q-262 0 -398 158.5t-136 451.5q0 157 22 276.5t61.5 204.5t105 147t142.5 101t183 70l452 137l11 -156l-441 -133q-175 -59 -259.5 -164t-104.5 -309q53 109 159.5 169t247.5 60q225 0 356.5 -136t131.5 -357q0 -238 -139.5 -379t-393.5 -141zM649 135 q164 0 256 97t92 260q0 160 -92 257t-256 97q-154 0 -251 -94t-97 -260q0 -160 91.5 -258.5t256.5 -98.5z" />
<glyph unicode="&#x432;" horiz-adv-x="1114" d="M143 0v1069h553q137 0 212 -77t75 -185q0 -87 -42 -155t-118 -103q94 -27 150.5 -96.5t56.5 -167.5q0 -133 -94 -209t-250 -76h-543zM315 598h334q70 0 117 53.5t47 124.5q0 69 -45 117.5t-113 48.5h-340v-344zM315 127h367q72 0 123 53t51 123q0 73 -48.5 124.5 t-119.5 51.5h-373v-352z" />
<glyph unicode="&#x433;" horiz-adv-x="841" d="M143 0v1069h660v-160h-479v-909h-181z" />
<glyph unicode="&#x434;" horiz-adv-x="1210" d="M27 -252v412h22q48 0 84 27t66.5 92t49 185.5t23.5 295.5l11 309h727v-909h145v-412h-160v252h-809v-252h-159zM301 160h528v749h-387l-6 -166q-9 -256 -42 -393.5t-93 -189.5z" />
<glyph unicode="&#x435;" horiz-adv-x="1210" d="M618 -20q-157 0 -282.5 76t-193.5 202.5t-68 276.5q0 112 40.5 213t111.5 176t174 119t221 44t219.5 -44.5t169.5 -119.5t106.5 -174t38.5 -206q0 -46 -4 -70h-887q12 -156 116 -257t245 -101q99 0 185.5 49.5t119.5 128.5l155 -43q-53 -120 -180.5 -195t-286.5 -75z M258 598h729q-13 155 -117.5 254.5t-248.5 99.5t-248.5 -100t-114.5 -254z" />
<glyph unicode="&#x436;" horiz-adv-x="1648" d="M72 0l393 551l-359 518h203l307 -444h115v444h184v-444h119l301 444h205l-358 -518l395 -551h-207l-336 467h-119v-467h-184v467h-115l-337 -467h-207z" />
<glyph unicode="&#x437;" horiz-adv-x="962" d="M479 -14q-153 0 -261.5 57.5t-166.5 163.5l148 65q77 -139 272 -139q117 0 184.5 51t67.5 138q0 78 -55 126.5t-152 49.5h-108v118h114q64 0 107 46.5t43 115.5q0 74 -53 117t-152 43q-162 0 -231 -131l-138 74q51 98 148.5 151t228.5 53q160 0 259.5 -76t99.5 -208 q0 -77 -37.5 -142t-104.5 -96q96 -29 147.5 -98.5t51.5 -167.5q0 -145 -114 -228t-298 -83z" />
<glyph unicode="&#x438;" horiz-adv-x="1228" d="M143 0v1067h181v-825l598 827h163v-1069h-180v809l-590 -809h-172z" />
<glyph unicode="&#x439;" horiz-adv-x="1228" d="M616 1229q-132 0 -205 58t-73 149h100q0 -52 44.5 -86.5t133.5 -34.5q88 0 128.5 31.5t50.5 89.5h100q0 -91 -73.5 -149t-205.5 -58zM143 0v1067h181v-825l598 827h163v-1069h-180v809l-590 -809h-172z" />
<glyph unicode="&#x43a;" horiz-adv-x="1062" d="M143 0v1069h181v-440h118l336 440h205l-399 -518l446 -551h-209l-379 463h-118v-463h-181z" />
<glyph unicode="&#x43b;" horiz-adv-x="1183" d="M51 -8v162q55 1 95.5 28t74 92.5t53 186.5t25.5 299l12 309h727v-1069h-180v909h-387l-4 -166q-7 -217 -35.5 -363t-82 -231t-125 -120.5t-173.5 -36.5z" />
<glyph unicode="&#x43c;" horiz-adv-x="1454" d="M143 0v1069h187l397 -700l399 700h183v-1069h-172v809l-353 -619h-114l-355 619v-809h-172z" />
<glyph unicode="&#x43d;" horiz-adv-x="1206" d="M143 0v1069h181v-442h557v442h180v-1069h-180v467h-557v-467h-181z" />
<glyph unicode="&#x43e;" d="M74 532q0 149 67.5 275.5t192 203t278.5 76.5q155 0 280 -76.5t193 -203t68 -275.5q0 -111 -39.5 -211.5t-109.5 -176t-172 -120t-220 -44.5q-157 0 -281 76t-190.5 201.5t-66.5 274.5zM612 135q148 0 252.5 116.5t104.5 283.5q0 165 -104.5 281t-252.5 116 q-146 0 -250 -117.5t-104 -284.5t103 -281t251 -114z" />
<glyph unicode="&#x43f;" horiz-adv-x="1175" d="M143 0v1069h887v-1069h-180v909h-526v-909h-181z" />
<glyph unicode="&#x440;" horiz-adv-x="1275" d="M326 211v-647h-181v1505h160v-201q64 100 167 159.5t222 59.5q142 0 259.5 -77.5t182 -203.5t64.5 -271q0 -152 -60 -278.5t-170.5 -201.5t-248.5 -75q-127 0 -229.5 63t-165.5 168zM1016 535q0 163 -106.5 280t-260.5 117q-100 0 -201.5 -72.5t-121.5 -167.5v-305 q45 -108 139.5 -180t200.5 -72q102 0 183.5 58t124 149t42.5 193z" />
<glyph unicode="&#x441;" horiz-adv-x="1134" d="M618 -20q-157 0 -282.5 76.5t-193.5 203.5t-68 277q0 151 66.5 275.5t191.5 199.5t284 75q156 0 273.5 -69.5t177.5 -190.5l-176 -55q-41 75 -115.5 117.5t-163.5 42.5q-150 0 -252 -113t-102 -282q0 -168 104.5 -285t251.5 -117q93 0 176.5 49t108.5 117l176 -53 q-48 -119 -173 -193.5t-284 -74.5z" />
<glyph unicode="&#x442;" horiz-adv-x="989" d="M406 0v909h-369v160h917v-160h-368v-909h-180z" />
<glyph unicode="&#x443;" horiz-adv-x="1116" d="M195 -291q70 -8 94 -8q49 0 82 53.5t106 245.5l-452 1069h190l360 -887l326 887h178l-520 -1350q-31 -79 -100.5 -129.5t-177.5 -50.5q-40 0 -86 10v160z" />
<glyph unicode="&#x444;" horiz-adv-x="1460" d="M639 -436v436h-41q-157 0 -278 73.5t-183.5 193.5t-62.5 265t63.5 266.5t184.5 195t276 73.5h41v428h180v-428h43q155 0 276 -73.5t184.5 -195t63.5 -266.5t-62.5 -265t-183.5 -193.5t-278 -73.5h-43v-436h-180zM598 147h49v773h-49q-151 0 -249.5 -112.5t-98.5 -277.5 t97 -274t251 -109zM811 147h51q152 0 250 109.5t98 273.5q0 165 -98.5 277.5t-249.5 112.5h-51v-773z" />
<glyph unicode="&#x445;" horiz-adv-x="1050" d="M225 1069l283 -393l16 -33l19 33l280 393h201l-395 -537l397 -532h-201l-282 391l-19 31l-16 -31l-283 -391h-200l397 532l-395 537h198z" />
<glyph unicode="&#x446;" horiz-adv-x="1202" d="M987 -252v252h-844v1069h181v-911h495v911h180v-911h148v-410h-160z" />
<glyph unicode="&#x447;" horiz-adv-x="1079" d="M752 0v428q-124 -59 -283 -59q-356 0 -356 364v336h180v-311q0 -129 53 -188.5t170 -59.5q148 0 236 53v506h182v-1069h-182z" />
<glyph unicode="&#x448;" horiz-adv-x="1673" d="M143 0v1069h181v-911h421v911h183v-911h420v911h180v-1069h-1385z" />
<glyph unicode="&#x449;" horiz-adv-x="1730" d="M1516 -252v252h-1373v1069h181v-909h421v909h183v-909h420v909h180v-909h147v-412h-159z" />
<glyph unicode="&#x44a;" horiz-adv-x="1222" d="M342 0v920h-309v149h489v-364h269q183 0 281.5 -93.5t98.5 -251.5q0 -160 -96.5 -260t-273.5 -100h-459zM522 141h254q106 0 159.5 61t53.5 154q0 92 -51 149.5t-166 57.5h-250v-422z" />
<glyph unicode="&#x44b;" horiz-adv-x="1433" d="M143 0v1069h181v-364h217q185 0 284 -93.5t99 -251.5q0 -160 -97 -260t-274 -100h-410zM1108 0v1067h180v-1067h-180zM324 141h204q106 0 159.5 61t53.5 154q0 92 -51 149.5t-166 57.5h-200v-422z" />
<glyph unicode="&#x44c;" horiz-adv-x="1024" d="M143 0v1069h181v-364h266q185 0 284 -93.5t99 -251.5q0 -160 -97 -260t-274 -100h-459zM324 141h254q106 0 159.5 61t53.5 154q0 92 -51.5 149.5t-166.5 57.5h-249v-422z" />
<glyph unicode="&#x44d;" horiz-adv-x="1148" d="M537 -18q-151 0 -278 68.5t-187 189.5l145 67q48 -89 129.5 -134.5t177.5 -45.5q144 0 248.5 103.5t118.5 250.5h-461v123h459q-19 139 -116 237.5t-247 98.5q-203 0 -297 -170l-139 72q62 114 175 179.5t267 65.5q127 0 232 -47t171.5 -124.5t103 -175t36.5 -201.5 q0 -144 -64 -269.5t-189 -206.5t-285 -81z" />
<glyph unicode="&#x44e;" horiz-adv-x="1624" d="M1028 -20q-210 0 -346 132t-158 343h-198v-455h-181v1069h181v-457h198q23 214 160.5 344.5t343.5 130.5q158 0 278 -74.5t182 -200t62 -280.5q0 -242 -144 -397t-378 -155zM1028 135q150 0 244 111t94 286q0 180 -95.5 290t-242.5 110q-146 0 -237 -111t-91 -289 q0 -181 91.5 -289t236.5 -108z" />
<glyph unicode="&#x44f;" horiz-adv-x="1081" d="M66 0l303 430q-107 21 -169.5 101t-62.5 210q0 144 100 237t261 93h438v-1071h-180v401h-209l-283 -401h-198zM510 535h246v395h-226q-96 0 -153.5 -53.5t-57.5 -139.5q0 -89 49.5 -145.5t141.5 -56.5z" />
<glyph unicode="&#x450;" horiz-adv-x="1210" d="M399 1497h179l120 -207l-116 -41zM618 -20q-157 0 -282.5 76t-193.5 202.5t-68 276.5q0 112 40.5 213t111.5 176t174 119t221 44t219.5 -44.5t169.5 -119.5t106.5 -174t38.5 -206q0 -46 -4 -70h-887q12 -156 116 -257t245 -101q99 0 185.5 49.5t119.5 128.5l155 -43 q-53 -120 -180.5 -195t-286.5 -75zM258 598h729q-13 155 -117.5 254.5t-248.5 99.5t-248.5 -100t-114.5 -254z" />
<glyph unicode="&#x451;" horiz-adv-x="1210" d="M371 1280v209h151v-209h-151zM702 1280v209h152v-209h-152zM618 -20q-157 0 -282.5 76t-193.5 202.5t-68 276.5q0 112 40.5 213t111.5 176t174 119t221 44t219.5 -44.5t169.5 -119.5t106.5 -174t38.5 -206q0 -46 -4 -70h-887q12 -156 116 -257t245 -101q99 0 185.5 49.5 t119.5 128.5l155 -43q-53 -120 -180.5 -195t-286.5 -75zM258 598h729q-13 155 -117.5 254.5t-248.5 99.5t-248.5 -100t-114.5 -254z" />
<glyph unicode="&#x452;" horiz-adv-x="1167" d="M662 -391q-163 0 -271 108l125 93q24 -20 62 -36t73 -16q131 0 190 126.5t64 408.5q3 270 -60 384t-212 114q-112 0 -190 -60.5t-119 -169.5v-561h-181v1141h-155v114h155v240h181v-240h469v-114h-469v-389q133 200 368 200q210 0 301.5 -144t91.5 -478q0 -174 -21 -302 t-69 -224.5t-131.5 -145.5t-201.5 -49z" />
<glyph unicode="&#x453;" horiz-adv-x="841" d="M592 1247l-119 41l119 207h180zM143 0v1069h660v-160h-479v-909h-181z" />
<glyph unicode="&#x454;" horiz-adv-x="1150" d="M614 -18q-160 0 -285.5 81t-190 207t-64.5 269q0 104 36.5 201.5t103.5 175t172 124.5t232 47q153 0 267 -65.5t174 -179.5l-137 -72q-94 170 -299 170q-150 0 -247 -98.5t-116 -237.5h461v-123h-461q14 -149 117.5 -251.5t249.5 -102.5q95 0 176.5 45.5t130.5 134.5 l145 -67q-60 -121 -187 -189.5t-278 -68.5z" />
<glyph unicode="&#x455;" horiz-adv-x="999" d="M512 -20q-281 0 -451 176l70 127q171 -160 373 -160q113 0 181.5 43t68.5 123q0 22 -6 39.5t-14 30.5t-26 25t-32 19.5t-43.5 17t-49 15t-59 16t-63.5 17.5q-88 25 -147 50.5t-105 60.5t-67 81.5t-21 108.5q0 149 113.5 233t297.5 84q242 0 381 -145l-82 -125 q-126 129 -309 129q-62 0 -111 -12.5t-84.5 -49t-35.5 -93.5q0 -30 11 -53.5t27 -39t51 -31.5t65 -26t87 -27q93 -27 136.5 -41t105 -42t88 -55.5t47.5 -72t21 -102.5q0 -150 -114 -235.5t-304 -85.5z" />
<glyph unicode="&#x456;" horiz-adv-x="471" d="M145 1270v225h181v-225h-181zM145 0v1069h181v-1069h-181z" />
<glyph unicode="&#x457;" horiz-adv-x="471" d="M-6 1280v209h151v-209h-151zM326 1280v209h151v-209h-151zM145 0v1069h181v-1069h-181z" />
<glyph unicode="&#x458;" horiz-adv-x="485" d="M160 1270v225h180v-225h-180zM-238 -295l84 121q52 -47 142 -47q68 0 120 50.5t52 123.5v1116h180v-1104q0 -149 -99 -247.5t-233 -98.5q-150 0 -246 86z" />
<glyph unicode="&#x459;" horiz-adv-x="1665" d="M51 -8v162q55 1 95.5 28t74 92.5t53 186.5t25.5 299l12 309h699v-405h221q184 0 283.5 -88t99.5 -236q0 -151 -97.5 -245.5t-273.5 -94.5h-414v909h-358l-4 -166q-7 -217 -35.5 -363t-82 -231t-125 -120.5t-173.5 -36.5zM1010 141h207q106 0 159.5 55.5t53.5 139.5 q0 83 -51.5 135.5t-164.5 52.5h-204v-383z" />
<glyph unicode="&#x45a;" horiz-adv-x="1681" d="M143 0v1069h181v-428h510v428h180v-405h233q185 0 284 -87.5t99 -236.5q0 -152 -96.5 -246t-273.5 -94h-426v483h-510v-483h-181zM1014 141h219q107 0 160 55t53 140q0 83 -51 135.5t-164 52.5h-217v-383z" />
<glyph unicode="&#x45b;" horiz-adv-x="1206" d="M143 0v1141h-155v114h155v240h181v-240h469v-114h-469v-389q132 200 383 200q193 0 279.5 -103t86.5 -308v-541h-180v500q0 147 -59 219t-187 72q-119 0 -201 -59.5t-122 -170.5v-561h-181z" />
<glyph unicode="&#x45c;" horiz-adv-x="1062" d="M590 1247l-119 41l119 207h180zM143 0v1069h181v-440h118l336 440h205l-399 -518l446 -551h-209l-379 463h-118v-463h-181z" />
<glyph unicode="&#x45d;" horiz-adv-x="1228" d="M403 1497h179l120 -207l-116 -41zM143 0v1067h181v-825l598 827h163v-1069h-180v809l-590 -809h-172z" />
<glyph unicode="&#x45e;" horiz-adv-x="1116" d="M557 1229q-132 0 -205 58t-73 149h100q0 -52 44.5 -86.5t133.5 -34.5q88 0 128 31.5t50 89.5h101q0 -91 -73.5 -149t-205.5 -58zM195 -291q70 -8 94 -8q49 0 82 53.5t106 245.5l-452 1069h190l360 -887l326 887h178l-520 -1350q-31 -79 -100.5 -129.5t-177.5 -50.5 q-40 0 -86 10v160z" />
<glyph unicode="&#x45f;" horiz-adv-x="1173" d="M508 -252v252h-365v1069h181v-911h524v911h180v-1069h-364v-252h-156z" />
<glyph unicode="&#x462;" horiz-adv-x="1265" d="M713 903q232 0 356.5 -122t124.5 -328q0 -199 -123.5 -326t-345.5 -127h-545v1133h-221v143h221v178h185v-178h372v-143h-372v-230h348zM700 154q153 0 229.5 85t76.5 214q0 48 -9.5 90t-32 81t-57 66t-88 43.5t-121.5 16.5h-333v-596h335z" />
<glyph unicode="&#x463;" horiz-adv-x="1064" d="M184 0v1053h-245v118h245v324h181v-324h380v-118h-380v-348h266q185 0 284 -93.5t99 -251.5q0 -160 -97 -260t-274 -100h-459zM365 141h253q106 0 159.5 61t53.5 154q0 92 -51 149.5t-166 57.5h-249v-422z" />
<glyph unicode="&#x46a;" horiz-adv-x="2062" d="M51 0l563 743l-528 711h1888l-528 -711l565 -743h-209l-499 649h-181v-649h-184v649h-178l-500 -649h-209zM764 817h534l385 520h-1304z" />
<glyph unicode="&#x46b;" horiz-adv-x="1679" d="M72 0l417 551l-374 518h1450l-377 -518l420 -551h-217l-351 467h-108v-467h-184v467h-107l-350 -467h-219zM653 608h375l254 361h-887z" />
<glyph unicode="&#x472;" horiz-adv-x="1556" d="M768 1464q119 0 227 -41.5t189.5 -113.5t142 -166t92 -201.5t31.5 -216.5q0 -193 -88.5 -361t-247.5 -271t-350 -103q-148 0 -278 62.5t-217.5 166t-138 236t-50.5 272.5q0 192 89 361t248.5 272.5t350.5 103.5zM766 1296q-104 0 -193.5 -42t-151.5 -112.5t-101.5 -160.5 t-49.5 -188h990q-14 136 -78.5 250t-174 183.5t-241.5 69.5zM766 156q108 0 200.5 46t155 122t100 172t42.5 198h-998q5 -107 43.5 -204.5t102 -171.5t156 -118t198.5 -44z" />
<glyph unicode="&#x473;" horiz-adv-x="1222" d="M612 1087q155 0 280 -76.5t193 -203t68 -275.5q0 -111 -39.5 -211.5t-109.5 -176t-172 -120t-220 -44.5q-157 0 -281 76t-190.5 201.5t-66.5 274.5t67.5 275.5t192 203t278.5 76.5zM612 932q-133 0 -233 -99t-117 -247h705q-17 148 -118.5 247t-236.5 99zM612 135 q140 0 242.5 105t112.5 260h-709q10 -157 111.5 -261t242.5 -104z" />
<glyph unicode="&#x474;" horiz-adv-x="1490" d="M616 0l-596 1454h195l481 -1214l398 985q46 124 109 176.5t181 52.5h97v-156h-72q-64 0 -98.5 -31t-65.5 -106l-479 -1161h-150z" />
<glyph unicode="&#x475;" horiz-adv-x="1163" d="M455 0l-422 1069h182l338 -903l266 688q36 115 97.5 165t173.5 50h90v-141h-60q-62 0 -95 -29t-58 -104l-320 -795h-192z" />
<glyph unicode="&#x490;" horiz-adv-x="1071" d="M174 0v1454h682v301h164v-465h-662v-1290h-184z" />
<glyph unicode="&#x491;" horiz-adv-x="841" d="M143 0v1069h498v252h162v-412h-479v-909h-181z" />
<glyph unicode="&#x492;" horiz-adv-x="1099" d="M1049 1290h-662v-545h377v-124h-377v-621h-184v621h-201v124h201v709h846v-164z" />
<glyph unicode="&#x493;" horiz-adv-x="886" d="M848 909h-479v-391h303v-117h-303v-401h-181v401h-204v117h204v551h660v-160z" />
<glyph unicode="&#x494;" horiz-adv-x="1325" d="M743 801q236 0 363 -140.5t127 -394.5q0 -255 -121.5 -387.5t-337.5 -132.5q-91 0 -190 27l43 151q79 -22 133 -22q137 0 215 91t78 273q0 185 -84.5 282t-253.5 97q-171 0 -357 -106v-539h-184v1454h846v-164h-662v-588q182 99 385 99z" />
<glyph unicode="&#x495;" horiz-adv-x="1073" d="M643 688q183 0 286 -114t103 -314v-45q-2 -283 -113 -443.5t-307 -160.5q-142 0 -231 74l82 120q47 -36 127 -36q255 0 262 411v41q0 166 -68.5 245t-208.5 79q-144 0 -251 -96v-449h-181v1069h660v-160h-479v-317q125 96 319 96z" />
<glyph unicode="&#x496;" horiz-adv-x="2043" d="M1898 164h125v-440h-163v276h-93v51l-460 606h-179v-657h-184v657h-180l-500 -657h-213l563 752l-528 702h217l465 -629h176v629h184v-629h175l466 629h216l-529 -702z" />
<glyph unicode="&#x497;" horiz-adv-x="1646" d="M1464 158h168v-410h-159v252h-103l-336 467h-119v-467h-184v467h-115l-337 -467h-207l393 551l-359 518h203l307 -444h115v444h184v-444h119l301 444h205l-358 -518z" />
<glyph unicode="&#x498;" horiz-adv-x="1155" d="M1071 393q0 -164 -104.5 -269t-280.5 -132q107 -83 107 -191q0 -85 -58 -133.5t-160 -48.5q-123 0 -237 57l49 101q88 -45 158 -45q64 0 98.5 25.5t34.5 74.5q0 83 -111 152q-156 1 -280 67t-195 185l141 86q52 -87 138.5 -135t197.5 -48q148 0 232 73.5t84 197.5 q0 119 -78.5 192.5t-216.5 73.5h-150v145h152q108 0 175 68t67 172q0 107 -73.5 174.5t-197.5 67.5q-105 0 -185.5 -46t-125.5 -127l-135 93q149 247 454 247q199 0 320 -104.5t121 -280.5q0 -108 -54 -197t-153 -132q125 -35 195.5 -133t70.5 -230z" />
<glyph unicode="&#x499;" horiz-adv-x="962" d="M891 297q0 -126 -88 -206t-234 -99q105 -85 105 -191q0 -85 -57.5 -133.5t-159.5 -48.5q-124 0 -238 57l49 101q88 -45 158 -45q64 0 98.5 25.5t34.5 74.5q0 84 -115 154q-280 15 -393 221l148 65q77 -139 272 -139q117 0 184.5 51t67.5 138q0 78 -55 126.5t-152 49.5 h-108v118h114q64 0 107 46.5t43 115.5q0 74 -53 117t-152 43q-162 0 -231 -131l-138 74q51 98 148.5 151t228.5 53q160 0 259.5 -76t99.5 -208q0 -77 -37.5 -142t-104.5 -96q96 -29 147.5 -98.5t51.5 -167.5z" />
<glyph unicode="&#x49a;" horiz-adv-x="1343" d="M1155 164h168v-440h-164v276h-102l-500 657h-199v-657h-184v1454h184v-629h195l479 629h213l-540 -704z" />
<glyph unicode="&#x49b;" horiz-adv-x="1087" d="M903 158h170v-410h-160v252h-94v2l-377 461h-118v-463h-181v1069h181v-440h118l336 440h205l-399 -518z" />
<glyph unicode="&#x49c;" horiz-adv-x="1308" d="M829 750l484 -750h-205l-430 666h-60v-260h-88v260h-174v-666h-182v1454h182v-637h174v240h88v-240h56l409 637h195z" />
<glyph unicode="&#x49d;" horiz-adv-x="1157" d="M735 551l389 -551h-200l-338 469h-49v-201h-88v201h-125v-469h-179v1069h179v-446h125v202h88v-202h49l295 446h194z" />
<glyph unicode="&#x4a0;" horiz-adv-x="1482" d="M909 750l578 -750h-225l-500 657h-199v-657h-184v1298h-371v156h555v-629h195l479 629h213z" />
<glyph unicode="&#x4a1;" horiz-adv-x="1214" d="M758 551l446 -551h-209l-379 463h-118v-463h-181v920h-309v149h490v-440h118l336 440h205z" />
<glyph unicode="&#x4a2;" horiz-adv-x="1595" d="M1343 164h181v-440h-164v276h-201v662h-801v-662h-184v1454h184v-629h801v629h184v-1290z" />
<glyph unicode="&#x4a3;" horiz-adv-x="1271" d="M1061 158h156v-410h-160v252h-176v467h-557v-467h-181v1069h181v-442h557v442h180v-911z" />
<glyph unicode="&#x4a4;" horiz-adv-x="2052" d="M2001 1454v-164h-658v-1290h-184v662h-801v-662h-184v1454h184v-629h801v627l-2 2h844z" />
<glyph unicode="&#x4a5;" horiz-adv-x="1579" d="M1540 1069v-160h-479v-909h-180v467h-557v-467h-181v1069h181v-442h557v442h659z" />
<glyph unicode="&#x4aa;" horiz-adv-x="1396" d="M1339 326q-58 -135 -193 -223t-294 -109v-277h-156v275q-133 14 -249.5 84t-196 173t-125 230.5t-45.5 257.5q0 106 29.5 210.5t88.5 197t140.5 163.5t194 112.5t239.5 41.5q188 0 329.5 -86.5t211.5 -230.5l-146 -94q-31 66 -78 115.5t-101.5 76.5t-110 40t-113.5 13 q-117 0 -214 -50t-157.5 -131.5t-93.5 -181t-33 -204.5q0 -151 65 -282.5t181.5 -212t257.5 -80.5q80 0 156.5 25.5t148 85t111.5 145.5z" />
<glyph unicode="&#x4ab;" horiz-adv-x="1134" d="M1075 248q-42 -103 -145.5 -175t-239.5 -89v-236h-155v238q-135 20 -241 99t-163 197.5t-57 254.5q0 151 66.5 275.5t191.5 199.5t284 75q156 0 273.5 -69.5t177.5 -190.5l-176 -55q-41 75 -115.5 117.5t-163.5 42.5q-150 0 -252 -113t-102 -282q0 -168 104.5 -285 t251.5 -117q93 0 176.5 49t108.5 117z" />
<glyph unicode="&#x4ae;" horiz-adv-x="1341" d="M229 1454l441 -758l444 758h201l-553 -924v-530h-184v535l-551 919h202z" />
<glyph unicode="&#x4af;" horiz-adv-x="1105" d="M463 -436v438l-430 1067h188l338 -911l340 911h172l-428 -1067v-438h-180z" />
<glyph unicode="&#x4b0;" horiz-adv-x="1310" d="M563 0v373h-307v123h307v39l-551 919h201l440 -758l445 758h202l-555 -924v-34h308v-123h-308v-373h-182z" />
<glyph unicode="&#x4b1;" horiz-adv-x="1130" d="M485 -436v346h-245v90h245v2l-430 1067h183l340 -926l342 926h174l-428 -1067v-2h239v-90h-239v-346h-181z" />
<glyph unicode="&#x4b6;" horiz-adv-x="1431" d="M1153 164h207v-440h-164v276h-223v608q-169 -76 -365 -76q-244 0 -359.5 108.5t-115.5 342.5v471h178v-450q0 -159 77.5 -231.5t250.5 -72.5q89 0 181.5 20.5t152.5 51.5v682h180v-1290z" />
<glyph unicode="&#x4b7;" horiz-adv-x="1116" d="M934 158h127v-410h-160v252h-176v158h27v270q-124 -59 -283 -59q-356 0 -356 364v336h180v-311q0 -129 53 -188.5t170 -59.5q148 0 236 53v506h182v-911z" />
<glyph unicode="&#x4b8;" horiz-adv-x="1327" d="M973 1454h180v-1454h-180v608q-149 -66 -316 -73v-222h-88v219q-224 9 -330 117.5t-106 333.5v471h178v-450q0 -142 61.5 -214.5t196.5 -84.5v260h88v-265q87 3 173.5 23t142.5 49v682z" />
<glyph unicode="&#x4b9;" horiz-adv-x="1079" d="M752 1069h182v-1069h-182v428q-83 -41 -187 -53v-189h-88v183h-8q-356 0 -356 364v336h180v-311q0 -119 44 -178t140 -68v231h88v-231q118 10 187 51v506z" />
<glyph unicode="&#x4ba;" horiz-adv-x="1327" d="M354 1454v-608q169 76 365 76q244 0 359.5 -108.5t115.5 -342.5v-471h-178v451q0 159 -77.5 231t-250.5 72q-89 0 -181.5 -20.5t-152.5 -51.5v-682h-180v1454h180z" />
<glyph unicode="&#x4bb;" horiz-adv-x="1208" d="M1073 0h-180v598q0 163 -57.5 245.5t-167.5 82.5q-107 0 -207 -80.5t-135 -200.5v-645h-181v1495h181v-655q63 115 172 181t237 66q338 0 338 -448v-639z" />
<glyph unicode="&#x4c0;" horiz-adv-x="532" d="M174 0v1454h184v-1454h-184z" />
<glyph unicode="&#x4c1;" horiz-adv-x="2072" d="M1036 1614q-132 0 -205 58t-73 149h100q0 -52 44.5 -86.5t133.5 -34.5q88 0 128 31.5t50 89.5h101q0 -91 -73.5 -149t-205.5 -58zM51 0l563 752l-528 702h217l465 -629h176v629h184v-629h175l466 629h216l-529 -702l565 -752h-215l-499 657h-179v-657h-184v657h-180 l-500 -657h-213z" />
<glyph unicode="&#x4c2;" horiz-adv-x="1648" d="M823 1229q-132 0 -205 58t-73 149h100q0 -52 44.5 -86.5t133.5 -34.5q88 0 128 31.5t50 89.5h101q0 -91 -73.5 -149t-205.5 -58zM72 0l393 551l-359 518h203l307 -444h115v444h184v-444h119l301 444h205l-358 -518l395 -551h-207l-336 467h-119v-467h-184v467h-115 l-337 -467h-207z" />
<glyph unicode="&#x4cb;" horiz-adv-x="1327" d="M973 1454h180v-1454h-229v-276h-164v440h213v444q-169 -76 -365 -76q-244 0 -359.5 108.5t-115.5 342.5v471h178v-450q0 -159 77.5 -231.5t250.5 -72.5q89 0 181.5 20.5t152.5 51.5v682z" />
<glyph unicode="&#x4cc;" horiz-adv-x="1064" d="M592 -252v344h151v359q-132 -58 -266 -58q-177 0 -270.5 96.5t-93.5 276.5v303h172v-278q0 -134 54 -195t175 -61q137 0 229 55v479h177v-1069h-172v-252h-156z" />
<glyph unicode="&#x4cf;" horiz-adv-x="471" d="M145 0v1069h181v-1069h-181z" />
<glyph unicode="&#x4d0;" horiz-adv-x="1386" d="M694 1614q-132 0 -205 58t-73 149h100q0 -52 44.5 -86.5t133.5 -34.5q88 0 128 31.5t50 89.5h101q0 -91 -73.5 -149t-205.5 -58zM616 1454h156l594 -1454h-197l-172 426h-610l-170 -426h-197zM956 569l-262 672l-270 -672h532z" />
<glyph unicode="&#x4d1;" horiz-adv-x="1134" d="M567 1229q-132 0 -205 58t-73 149h100q0 -52 44.5 -86.5t133.5 -34.5q88 0 128 31.5t50 89.5h101q0 -91 -73.5 -149t-205.5 -58zM61 309q0 151 126.5 242.5t330.5 91.5q166 0 293 -45v78q0 124 -74.5 194t-208.5 70q-157 0 -340 -123l-65 127q211 143 426 143 q205 0 323.5 -114t118.5 -316v-452q0 -34 13.5 -49t44.5 -17v-139q-49 -8 -78 -8q-60 0 -94 32.5t-37 75.5l-4 68q-69 -88 -180.5 -138t-225.5 -50q-160 0 -264.5 95t-104.5 234zM758 233q24 27 38.5 57.5t14.5 51.5v133q-130 51 -270 51q-139 0 -223.5 -54.5t-84.5 -147.5 q0 -83 65 -146t179 -63q82 0 158.5 32.5t122.5 85.5z" />
<glyph unicode="&#x4d2;" horiz-adv-x="1386" d="M453 1665v209h151v-209h-151zM784 1665v209h152v-209h-152zM616 1454h156l594 -1454h-197l-172 426h-610l-170 -426h-197zM956 569l-262 672l-270 -672h532z" />
<glyph unicode="&#x4d3;" horiz-adv-x="1134" d="M326 1280v209h151v-209h-151zM657 1280v209h152v-209h-152zM61 309q0 151 126.5 242.5t330.5 91.5q166 0 293 -45v78q0 124 -74.5 194t-208.5 70q-157 0 -340 -123l-65 127q211 143 426 143q205 0 323.5 -114t118.5 -316v-452q0 -34 13.5 -49t44.5 -17v-139 q-49 -8 -78 -8q-60 0 -94 32.5t-37 75.5l-4 68q-69 -88 -180.5 -138t-225.5 -50q-160 0 -264.5 95t-104.5 234zM758 233q24 27 38.5 57.5t14.5 51.5v133q-130 51 -270 51q-139 0 -223.5 -54.5t-84.5 -147.5q0 -83 65 -146t179 -63q82 0 158.5 32.5t122.5 85.5z" />
<glyph unicode="&#x4d4;" horiz-adv-x="1968" d="M877 1454h999v-164h-768v-467h657v-164h-657v-495h786v-164h-968v426h-510l-266 -426h-201zM913 590v649l-415 -649h415z" />
<glyph unicode="&#x4d5;" horiz-adv-x="1910" d="M61 313q0 146 125.5 238t323.5 92q139 0 264 -41q8 83 29 135q-15 104 -87 161.5t-190 57.5q-159 0 -340 -125l-59 117q210 139 416 139q129 0 223.5 -50.5t146.5 -143.5q69 90 173 142t227 52q158 0 282.5 -75.5t191.5 -200.5t68 -276q0 -38 -4 -62h-907 q12 -157 121 -257.5t260 -100.5q99 0 185.5 49.5t119.5 128.5l156 -43q-53 -120 -180.5 -195t-286.5 -75q-142 0 -258.5 62t-188.5 169q-44 -78 -123 -132t-162.5 -76.5t-168.5 -22.5q-151 0 -254 96t-103 237zM1683 590q-12 160 -116 261t-256 101t-256 -102t-113 -260h741 zM772 246q36 36 39 71q-32 64 -37 179q-115 39 -237 39q-135 0 -220.5 -57.5t-85.5 -149.5q0 -90 67.5 -151.5t166.5 -61.5q97 0 180 35.5t127 95.5z" />
<glyph unicode="&#x4d6;" horiz-adv-x="1239" d="M684 1610q-132 0 -205 58t-73 149h100q0 -52 44.5 -86.5t133.5 -34.5q88 0 128 31.5t50 89.5h101q0 -91 -73.5 -149t-205.5 -58zM1161 164v-164h-987v1454h969v-164h-785v-471h682v-153h-682v-502h803z" />
<glyph unicode="&#x4d7;" horiz-adv-x="1210" d="M612 1229q-132 0 -205 58t-73 149h100q0 -52 44.5 -86.5t133.5 -34.5q88 0 128.5 31.5t50.5 89.5h100q0 -91 -73.5 -149t-205.5 -58zM618 -20q-157 0 -282.5 76t-193.5 202.5t-68 276.5q0 112 40.5 213t111.5 176t174 119t221 44t219.5 -44.5t169.5 -119.5t106.5 -174 t38.5 -206q0 -46 -4 -70h-887q12 -156 116 -257t245 -101q99 0 185.5 49.5t119.5 128.5l155 -43q-53 -120 -180.5 -195t-286.5 -75zM258 598h729q-13 155 -117.5 254.5t-248.5 99.5t-248.5 -100t-114.5 -254z" />
<glyph unicode="&#x4d8;" horiz-adv-x="1507" d="M55 715q0 64 6 88h1162q-22 211 -161 351t-327 140q-141 0 -257 -76.5t-154 -195.5l-174 80q79 161 246.5 261.5t355.5 100.5q138 0 263 -58t214.5 -157t142.5 -236t53 -290q0 -152 -53 -288t-143.5 -233.5t-216.5 -154.5t-267 -57q-187 0 -346 97.5t-251.5 264.5 t-92.5 363zM1227 643h-973q12 -205 155.5 -346t340.5 -141q126 0 232 62.5t171 174t74 250.5z" />
<glyph unicode="&#x4d9;" horiz-adv-x="1210" d="M598 -20q-157 0 -282 75.5t-192.5 201t-68.5 275.5q0 34 4 62h887q-12 156 -115 256t-245 100q-99 0 -185 -49.5t-120 -126.5l-156 43q54 119 181.5 194.5t287.5 75.5q156 0 281 -76t193.5 -203.5t68.5 -279.5q0 -111 -39.5 -211.5t-109 -175t-171 -118t-219.5 -43.5z M600 115q142 0 240.5 101.5t109.5 258.5h-721q10 -157 118 -258.5t253 -101.5z" />
<glyph unicode="&#x4dc;" horiz-adv-x="2072" d="M795 1665v209h151v-209h-151zM1126 1665v209h152v-209h-152zM51 0l563 752l-528 702h217l465 -629h176v629h184v-629h175l466 629h216l-529 -702l565 -752h-215l-499 657h-179v-657h-184v657h-180l-500 -657h-213z" />
<glyph unicode="&#x4dd;" horiz-adv-x="1648" d="M582 1280v209h151v-209h-151zM913 1280v209h152v-209h-152zM72 0l393 551l-359 518h203l307 -444h115v444h184v-444h119l301 444h205l-358 -518l395 -551h-207l-336 467h-119v-467h-184v467h-115l-337 -467h-207z" />
<glyph unicode="&#x4de;" horiz-adv-x="1155" d="M354 1665v209h152v-209h-152zM686 1665v209h152v-209h-152zM573 -16q-158 0 -284.5 66t-196.5 186l141 86q52 -87 138.5 -135t197.5 -48q148 0 232 73.5t84 197.5q0 119 -78.5 192.5t-216.5 73.5h-150v145h152q108 0 175 68t67 172q0 107 -73.5 174.5t-197.5 67.5 q-105 0 -185.5 -46t-125.5 -127l-135 93q149 247 454 247q199 0 320 -104.5t121 -280.5q0 -108 -54 -197t-153 -132q125 -35 195.5 -133t70.5 -230q0 -190 -138.5 -299.5t-359.5 -109.5z" />
<glyph unicode="&#x4df;" horiz-adv-x="962" d="M229 1280v209h152v-209h-152zM561 1280v209h152v-209h-152zM479 -14q-153 0 -261.5 57.5t-166.5 163.5l148 65q77 -139 272 -139q117 0 184.5 51t67.5 138q0 78 -55 126.5t-152 49.5h-108v118h114q64 0 107 46.5t43 115.5q0 74 -53 117t-152 43q-162 0 -231 -131l-138 74 q51 98 148.5 151t228.5 53q160 0 259.5 -76t99.5 -208q0 -77 -37.5 -142t-104.5 -96q96 -29 147.5 -98.5t51.5 -167.5q0 -145 -114 -228t-298 -83z" />
<glyph unicode="&#x4e2;" horiz-adv-x="1566" d="M487 1724v119h598v-119h-598zM184 0v1454h185v-1198l841 1198h172v-1454h-184v1176l-831 -1176h-183z" />
<glyph unicode="&#x4e3;" horiz-adv-x="1228" d="M319 1339v119h599v-119h-599zM143 0v1067h181v-825l598 827h163v-1069h-180v809l-590 -809h-172z" />
<glyph unicode="&#x4e4;" horiz-adv-x="1566" d="M543 1665v209h151v-209h-151zM874 1665v209h152v-209h-152zM184 0v1454h185v-1198l841 1198h172v-1454h-184v1176l-831 -1176h-183z" />
<glyph unicode="&#x4e5;" horiz-adv-x="1228" d="M375 1280v209h151v-209h-151zM707 1280v209h151v-209h-151zM143 0v1067h181v-825l598 827h163v-1069h-180v809l-590 -809h-172z" />
<glyph unicode="&#x4e6;" horiz-adv-x="1531" d="M526 1661v209h152v-209h-152zM858 1661v209h152v-209h-152zM80 727q0 192 89 361t248.5 272.5t350.5 103.5q119 0 227 -41.5t189.5 -113.5t142 -166t92 -201.5t31.5 -216.5q0 -193 -88.5 -361t-247.5 -271t-350 -103q-148 0 -278 62.5t-217.5 166t-138 236t-50.5 272.5z M766 156q112 0 207.5 49.5t158 130.5t97.5 183t35 208q0 149 -62 278.5t-177.5 210t-258.5 80.5q-112 0 -208 -49t-158.5 -129.5t-98 -182t-35.5 -208.5q0 -111 36.5 -214.5t100.5 -182.5t158.5 -126.5t204.5 -47.5z" />
<glyph unicode="&#x4e7;" d="M371 1280v209h151v-209h-151zM702 1280v209h152v-209h-152zM74 532q0 149 67.5 275.5t192 203t278.5 76.5q155 0 280 -76.5t193 -203t68 -275.5q0 -111 -39.5 -211.5t-109.5 -176t-172 -120t-220 -44.5q-157 0 -281 76t-190.5 201.5t-66.5 274.5zM612 135 q148 0 252.5 116.5t104.5 283.5q0 165 -104.5 281t-252.5 116q-146 0 -250 -117.5t-104 -284.5t103 -281t251 -114z" />
<glyph unicode="&#x4e8;" horiz-adv-x="1556" d="M768 1464q119 0 227 -41.5t189.5 -113.5t142 -166t92 -201.5t31.5 -216.5q0 -193 -88.5 -361t-247.5 -271t-350 -103q-148 0 -278 62.5t-217.5 166t-138 236t-50.5 272.5q0 192 89 361t248.5 272.5t350.5 103.5zM766 1296q-104 0 -193.5 -42t-151.5 -112.5t-101.5 -160.5 t-49.5 -188h990q-14 136 -78.5 250t-174 183.5t-241.5 69.5zM766 156q108 0 200.5 46t155 122t100 172t42.5 198h-998q5 -107 43.5 -204.5t102 -171.5t156 -118t198.5 -44z" />
<glyph unicode="&#x4e9;" horiz-adv-x="1222" d="M612 1087q155 0 280 -76.5t193 -203t68 -275.5q0 -111 -39.5 -211.5t-109.5 -176t-172 -120t-220 -44.5q-157 0 -281 76t-190.5 201.5t-66.5 274.5t67.5 275.5t192 203t278.5 76.5zM612 932q-133 0 -233 -99t-117 -247h705q-17 148 -118.5 247t-236.5 99zM612 135 q140 0 242.5 105t112.5 260h-709q10 -157 111.5 -261t242.5 -104z" />
<glyph unicode="&#x4ee;" horiz-adv-x="1273" d="M365 1724v119h598v-119h-598zM330 -6v156h92q48 0 73.5 22t57.5 80l53 115l-606 1087h203l487 -899l410 899h194l-600 -1290q-45 -94 -96 -132t-137 -38h-131z" />
<glyph unicode="&#x4ef;" horiz-adv-x="1116" d="M260 1339v119h598v-119h-598zM195 -291q70 -8 94 -8q49 0 82 53.5t106 245.5l-452 1069h190l360 -887l326 887h178l-520 -1350q-31 -79 -100.5 -129.5t-177.5 -50.5q-40 0 -86 10v160z" />
<glyph unicode="&#x4f0;" horiz-adv-x="1273" d="M420 1665v209h151v-209h-151zM752 1665v209h151v-209h-151zM330 -6v156h92q48 0 73.5 22t57.5 80l53 115l-606 1087h203l487 -899l410 899h194l-600 -1290q-45 -94 -96 -132t-137 -38h-131z" />
<glyph unicode="&#x4f1;" horiz-adv-x="1116" d="M315 1280v209h152v-209h-152zM647 1280v209h152v-209h-152zM195 -291q70 -8 94 -8q49 0 82 53.5t106 245.5l-452 1069h190l360 -887l326 887h178l-520 -1350q-31 -79 -100.5 -129.5t-177.5 -50.5q-40 0 -86 10v160z" />
<glyph unicode="&#x4f2;" horiz-adv-x="1273" d="M532 1634l-94 41l111 207h156zM811 1634l-94 41l110 207h156zM330 -6v156h92q48 0 73.5 22t57.5 80l53 115l-606 1087h203l487 -899l410 899h194l-600 -1290q-45 -94 -96 -132t-137 -38h-131z" />
<glyph unicode="&#x4f3;" horiz-adv-x="1116" d="M428 1249l-94 41l110 207h156zM707 1249l-95 41l111 207h156zM195 -291q70 -8 94 -8q49 0 82 53.5t106 245.5l-452 1069h190l360 -887l326 887h178l-520 -1350q-31 -79 -100.5 -129.5t-177.5 -50.5q-40 0 -86 10v160z" />
<glyph unicode="&#x4f4;" horiz-adv-x="1327" d="M420 1665v209h151v-209h-151zM752 1665v209h151v-209h-151zM973 0v608q-169 -76 -365 -76q-244 0 -359.5 108.5t-115.5 342.5v471h178v-450q0 -159 77.5 -231.5t250.5 -72.5q89 0 181.5 20.5t152.5 51.5v682h180v-1454h-180z" />
<glyph unicode="&#x4f5;" horiz-adv-x="1079" d="M297 1280v209h152v-209h-152zM629 1280v209h151v-209h-151zM752 0v428q-124 -59 -283 -59q-356 0 -356 364v336h180v-311q0 -129 53 -188.5t170 -59.5q148 0 236 53v506h182v-1069h-182z" />
<glyph unicode="&#x4f6;" horiz-adv-x="1071" d="M1020 1290h-662v-1126h197v-440h-164v276h-217v1454h846v-164z" />
<glyph unicode="&#x4f7;" horiz-adv-x="841" d="M803 909h-479v-751h180v-410h-160v252h-201v1069h660v-160z" />
<glyph unicode="&#x4f8;" horiz-adv-x="1787" d="M653 1665v209h152v-209h-152zM985 1665v209h152v-209h-152zM174 0v1454h184v-551h349q232 0 356.5 -122t124.5 -328q0 -199 -123.5 -326t-345.5 -127h-545zM1430 0v1452h184v-1452h-184zM358 154h336q153 0 229 85t76 214q0 61 -15.5 112t-50 94t-96 67t-145.5 24h-334 v-596z" />
<glyph unicode="&#x4f9;" horiz-adv-x="1433" d="M473 1280v209h152v-209h-152zM805 1280v209h151v-209h-151zM143 0v1069h181v-364h217q185 0 284 -93.5t99 -251.5q0 -160 -97 -260t-274 -100h-410zM1108 0v1067h180v-1067h-180zM324 141h204q106 0 159.5 61t53.5 154q0 92 -51 149.5t-166 57.5h-200v-422z" />
<glyph unicode="&#x51a;" horiz-adv-x="1527" d="M1450 725q0 -144 -51.5 -277t-145.5 -237l183 -211h-181l-102 119q-176 -129 -389 -129q-148 1 -278 63.5t-217.5 165.5t-138 235.5t-50.5 272.5q0 192 89 361t248.5 272.5t350.5 103.5q119 0 227 -41.5t189.5 -113.5t142 -166t92 -201.5t31.5 -216.5zM766 156 q153 0 276 92l-194 227h180l111 -129q60 79 92.5 179t32.5 202q0 149 -62 279t-177.5 211t-258.5 81q-112 0 -208 -49.5t-158.5 -130t-98 -182.5t-35.5 -209q0 -111 36.5 -214.5t100.5 -182.5t158.5 -126.5t204.5 -47.5z" />
<glyph unicode="&#x51b;" horiz-adv-x="1275" d="M76 535q0 149 66.5 275.5t183 201.5t256.5 75q121 0 224 -60.5t165 -160.5v203h159v-1505h-180v647q-146 -231 -395 -231q-138 0 -249 77.5t-170.5 203.5t-59.5 274zM950 365v307q-12 68 -64 128.5t-123.5 96t-141.5 35.5q-102 0 -186 -58.5t-129.5 -150t-45.5 -193.5 q0 -164 101 -279.5t255 -115.5q108 0 192.5 63.5t141.5 166.5z" />
<glyph unicode="&#x51c;" horiz-adv-x="2148" d="M707 1446h174l192 -506l195 506h174l-252 -633l250 -600l491 1241h201l-608 -1454h-160l-289 686l-291 -686h-159l-607 1454h199l494 -1241l247 600z" />
<glyph unicode="&#x51d;" horiz-adv-x="1681" d="M1485 1069h174l-455 -1069h-157l-207 504l-205 -504h-158l-454 1069h172l368 -891l172 438l-180 451h158l127 -340l127 340h157l-178 -451l172 -438z" />
<glyph unicode="&#x524;" horiz-adv-x="1542" d="M1296 164h174v-440h-163v276h-195v1290h-754v-1290h-184v1454h1122v-1290z" />
<glyph unicode="&#x525;" horiz-adv-x="1241" d="M1030 158h156v-410h-160v252h-176v909h-526v-909h-181v1069h887v-911z" />
<glyph unicode="&#x1e08;" horiz-adv-x="1396" d="M1014 1876l-180 -248l-119 41l119 207h180zM1339 326q-57 -136 -193.5 -223.5t-297.5 -108.5q108 -84 108 -193q0 -85 -57.5 -133.5t-159.5 -48.5q-123 0 -237 57l49 101q88 -45 158 -45q64 0 98.5 25.5t34.5 74.5q0 45 -29.5 82t-89.5 76q-138 8 -259.5 76t-204.5 172.5 t-131 235t-48 263.5q0 106 29.5 210.5t88.5 197t140.5 163.5t194 112.5t239.5 41.5q188 0 329.5 -86.5t211.5 -230.5l-146 -94q-31 66 -78 115.5t-101.5 76.5t-110 40t-113.5 13q-117 0 -214 -50t-157.5 -131.5t-93.5 -181t-33 -204.5q0 -151 65 -282.5t181.5 -212 t257.5 -80.5q80 0 156.5 25.5t148 85t111.5 145.5z" />
<glyph unicode="&#x1e09;" horiz-adv-x="1134" d="M858 1495l-180 -248l-119 41l119 207h180zM1075 248q-40 -100 -137 -170t-225 -90q98 -85 98 -187q0 -85 -57.5 -133.5t-159.5 -48.5q-124 0 -238 57l50 101q88 -45 157 -45q64 0 98.5 25.5t34.5 74.5q0 82 -104 148q-150 7 -269.5 84.5t-184 202t-64.5 270.5 q0 151 66.5 275.5t191.5 199.5t284 75q156 0 273.5 -69.5t177.5 -190.5l-176 -55q-41 75 -115.5 117.5t-163.5 42.5q-150 0 -252 -113t-102 -282q0 -168 104.5 -285t251.5 -117q93 0 176.5 49t108.5 117z" />
<glyph unicode="&#x1e0c;" horiz-adv-x="1466" d="M174 0v1454h504q171 0 306 -56.5t220.5 -156t130.5 -230t45 -282.5q0 -331 -191 -530t-511 -199h-504zM678 1290h-320v-1126h320q164 0 282 74.5t176 201t58 289.5q0 252 -137 406.5t-379 154.5zM651 -383v217h164v-217h-164z" />
<glyph unicode="&#x1e0d;" horiz-adv-x="1288" d="M76 532q0 151 61.5 277.5t173.5 202t250 75.5q124 0 226.5 -64.5t164.5 -166.5v639h181v-1290q0 -34 13 -49.5t44 -16.5v-139q-52 -8 -80 -8q-53 0 -93 36.5t-40 82.5v90q-63 -102 -169 -161.5t-222 -59.5q-145 0 -263 76.5t-182.5 202.5t-64.5 273zM952 375v307 q-38 104 -138 177t-202 73t-183.5 -58t-124 -149.5t-42.5 -194.5q0 -163 106.5 -279t260.5 -116q101 0 202 72t121 168zM563 -383v217h164v-217h-164z" />
<glyph unicode="&#x1e0e;" horiz-adv-x="1466" d="M174 0v1454h504q171 0 306 -56.5t220.5 -156t130.5 -230t45 -282.5q0 -331 -191 -530t-511 -199h-504zM678 1290h-320v-1126h320q164 0 282 74.5t176 201t58 289.5q0 252 -137 406.5t-379 154.5zM434 -293v119h598v-119h-598z" />
<glyph unicode="&#x1e0f;" horiz-adv-x="1288" d="M76 532q0 151 61.5 277.5t173.5 202t250 75.5q124 0 226.5 -64.5t164.5 -166.5v639h181v-1290q0 -34 13 -49.5t44 -16.5v-139q-52 -8 -80 -8q-53 0 -93 36.5t-40 82.5v90q-63 -102 -169 -161.5t-222 -59.5q-145 0 -263 76.5t-182.5 202.5t-64.5 273zM952 375v307 q-38 104 -138 177t-202 73t-183.5 -58t-124 -149.5t-42.5 -194.5q0 -163 106.5 -279t260.5 -116q101 0 202 72t121 168zM346 -293v119h598v-119h-598z" />
<glyph unicode="&#x1e14;" horiz-adv-x="1239" d="M473 2267h178l121 -207l-117 -41zM387 1720v119h598v-119h-598zM1161 164v-164h-987v1454h969v-164h-785v-471h682v-153h-682v-502h803z" />
<glyph unicode="&#x1e15;" horiz-adv-x="1210" d="M401 1886h179l120 -207l-116 -41zM315 1339v119h598v-119h-598zM618 -20q-157 0 -282.5 76t-193.5 202.5t-68 276.5q0 112 40.5 213t111.5 176t174 119t221 44t219.5 -44.5t169.5 -119.5t106.5 -174t38.5 -206q0 -46 -4 -70h-887q12 -156 116 -257t245 -101 q99 0 185.5 49.5t119.5 128.5l155 -43q-53 -120 -180.5 -195t-286.5 -75zM258 598h729q-13 155 -117.5 254.5t-248.5 99.5t-248.5 -100t-114.5 -254z" />
<glyph unicode="&#x1e16;" horiz-adv-x="1239" d="M750 2017l-119 41l119 207h180zM387 1720v119h598v-119h-598zM1161 164v-164h-987v1454h969v-164h-785v-471h682v-153h-682v-502h803z" />
<glyph unicode="&#x1e17;" horiz-adv-x="1210" d="M678 1636l-119 41l119 207h180zM315 1339v119h598v-119h-598zM618 -20q-157 0 -282.5 76t-193.5 202.5t-68 276.5q0 112 40.5 213t111.5 176t174 119t221 44t219.5 -44.5t169.5 -119.5t106.5 -174t38.5 -206q0 -46 -4 -70h-887q12 -156 116 -257t245 -101 q99 0 185.5 49.5t119.5 128.5l155 -43q-53 -120 -180.5 -195t-286.5 -75zM258 598h729q-13 155 -117.5 254.5t-248.5 99.5t-248.5 -100t-114.5 -254z" />
<glyph unicode="&#x1e1c;" horiz-adv-x="1239" d="M684 1649q-94 0 -157.5 65t-63.5 162h104q0 -55 35.5 -97t81.5 -42q45 0 79 39.5t40 99.5h102q0 -97 -63.5 -162t-157.5 -65zM1161 164v-164h-401q117 -86 117 -199q0 -85 -58 -133.5t-160 -48.5q-123 0 -237 57l49 101q88 -45 158 -45q64 0 98.5 25.5t34.5 74.5 t-34 88.5t-103 79.5h-451v1454h969v-164h-785v-471h682v-153h-682v-502h803z" />
<glyph unicode="&#x1e1d;" horiz-adv-x="1210" d="M612 1268q-94 0 -157.5 65t-63.5 162h105q0 -55 35 -97t81 -42q45 0 79 39.5t40 99.5h103q0 -97 -64 -162t-158 -65zM1155 543q0 -46 -4 -70h-887q12 -156 116 -257t245 -101q99 0 185.5 49.5t119.5 128.5l155 -43q-45 -102 -144.5 -173t-229.5 -91q98 -79 98 -185 q0 -85 -57.5 -133.5t-159.5 -48.5q-124 0 -238 57l49 101q88 -45 158 -45q64 0 98.5 25.5t34.5 74.5q0 82 -104 148q-226 12 -371 172.5t-145 382.5q0 112 40.5 213t111.5 176t174 119t221 44t219.5 -44.5t169.5 -119.5t106.5 -174t38.5 -206zM258 598h729 q-13 155 -117.5 254.5t-248.5 99.5t-248.5 -100t-114.5 -254z" />
<glyph unicode="&#x1e20;" horiz-adv-x="1462" d="M1057 1839v-119h-598v119h598zM887 725h469v-725h-156v197q-189 -207 -442 -207q-140 0 -267.5 63.5t-216.5 166.5t-141.5 237.5t-52.5 273.5q0 145 52 279t140.5 234t216 160t269.5 60q203 0 342 -84.5t213 -232.5l-142 -98q-63 123 -171.5 186t-245.5 63 q-143 0 -256.5 -81.5t-172.5 -211t-59 -278.5q0 -154 66 -285t183 -208.5t257 -77.5q239 0 428 229v201h-313v139z" />
<glyph unicode="&#x1e21;" horiz-adv-x="1277" d="M319 1339v119h599v-119h-599zM78 532q0 150 62 276.5t176 202.5t257 76q244 0 400 -231v213h160v-1057q0 -147 -73.5 -255t-195.5 -161t-276 -53q-174 0 -290.5 60.5t-195.5 175.5l105 92q62 -92 162.5 -140t218.5 -48q101 0 182 35t131.5 111t50.5 183v189 q-60 -98 -163.5 -155.5t-217.5 -57.5q-106 0 -199 45t-157 120t-100.5 174t-36.5 205zM952 375v307q-43 109 -139.5 179.5t-202.5 70.5q-104 0 -186 -60t-123 -151.5t-41 -192.5q0 -161 107 -277t260 -116q111 0 207 73.5t118 166.5z" />
<glyph unicode="&#x1e24;" horiz-adv-x="1517" d="M1343 1454v-1454h-184v662h-801v-662h-184v1454h184v-629h801v629h184zM678 -383v217h164v-217h-164z" />
<glyph unicode="&#x1e25;" horiz-adv-x="1208" d="M1073 0h-180v598q0 163 -57.5 245.5t-167.5 82.5q-107 0 -207 -80.5t-135 -200.5v-645h-181v1495h181v-655q63 115 172 181t237 66q338 0 338 -448v-639zM522 -383v217h164v-217h-164z" />
<glyph unicode="&#x1e2a;" horiz-adv-x="1517" d="M1343 1454v-1454h-184v662h-801v-662h-184v1454h184v-629h801v629h184zM879 -113h102q0 -97 -63.5 -162t-157.5 -65t-157.5 65t-63.5 162h104q0 -55 35.5 -97t81.5 -42q45 0 79 39.5t40 99.5z" />
<glyph unicode="&#x1e2b;" horiz-adv-x="1208" d="M1073 0h-180v598q0 163 -57.5 245.5t-167.5 82.5q-107 0 -207 -80.5t-135 -200.5v-645h-181v1495h181v-655q63 115 172 181t237 66q338 0 338 -448v-639zM723 -113h102q0 -97 -63.5 -162t-157.5 -65t-157.5 65t-63.5 162h104q0 -55 35.5 -97t81.5 -42q45 0 79 39.5 t40 99.5z" />
<glyph unicode="&#x1e2e;" horiz-adv-x="532" d="M330 2036l-119 41l119 207h180zM25 1661v209h151v-209h-151zM356 1661v209h152v-209h-152zM174 0v1454h184v-1454h-184z" />
<glyph unicode="&#x1e2f;" horiz-adv-x="471" d="M299 1655l-119 41l119 207h180zM-6 1280v209h151v-209h-151zM326 1280v209h151v-209h-151zM145 0v1069h181v-1069h-181z" />
<glyph unicode="&#x1e36;" horiz-adv-x="1196" d="M174 0v1454h184v-1290h811v-164h-995zM604 -383v217h164v-217h-164z" />
<glyph unicode="&#x1e37;" horiz-adv-x="585" d="M150 1495h180v-1219q0 -43 6 -70t19 -39.5t25.5 -16t33.5 -3.5q74 0 147 29l29 -147q-44 -19 -105.5 -31t-109.5 -12q-105 0 -165 60t-60 165v1284zM285 -383v217h164v-217h-164z" />
<glyph unicode="&#x1e3a;" horiz-adv-x="1196" d="M174 0v1454h184v-1290h811v-164h-995zM387 -293v119h598v-119h-598z" />
<glyph unicode="&#x1e3b;" horiz-adv-x="585" d="M150 1495h180v-1219q0 -43 6 -70t19 -39.5t25.5 -16t33.5 -3.5q74 0 147 29l29 -147q-44 -19 -105.5 -31t-109.5 -12q-105 0 -165 60t-60 165v1284zM68 -293v119h598v-119h-598z" />
<glyph unicode="&#x1e42;" horiz-adv-x="1789" d="M1432 0v1110l-480 -854h-112l-482 854v-1110h-184v1454h195l526 -944l528 944h193v-1454h-184zM813 -383v217h164v-217h-164z" />
<glyph unicode="&#x1e43;" horiz-adv-x="1892" d="M1757 0h-180v598q0 328 -215 328q-108 0 -196.5 -78.5t-125.5 -204.5v-643h-180v598q0 168 -53 248t-160 80t-195.5 -77.5t-125.5 -203.5v-645h-181v1069h164v-229q65 119 170.5 183t235.5 64t211 -71t100 -189q144 260 408 260q323 0 323 -448v-639zM864 -383v217h164 v-217h-164z" />
<glyph unicode="&#x1e44;" horiz-adv-x="1576" d="M711 1659v217h163v-217h-163zM358 1114v-1114h-184v1454h156l889 -1137v1135h184v-1452h-168z" />
<glyph unicode="&#x1e45;" horiz-adv-x="1208" d="M539 1278v217h163v-217h-163zM1073 0h-180v598q0 169 -52 248.5t-159 79.5q-112 0 -216 -80.5t-140 -200.5v-645h-181v1069h164v-229q63 113 183.5 180t261.5 67q90 0 154 -33t99 -95.5t50.5 -140t15.5 -179.5v-639z" />
<glyph unicode="&#x1e46;" horiz-adv-x="1576" d="M358 1114v-1114h-184v1454h156l889 -1137v1135h184v-1452h-168zM711 -383v217h163v-217h-163z" />
<glyph unicode="&#x1e47;" horiz-adv-x="1208" d="M1073 0h-180v598q0 169 -52 248.5t-159 79.5q-112 0 -216 -80.5t-140 -200.5v-645h-181v1069h164v-229q63 113 183.5 180t261.5 67q90 0 154 -33t99 -95.5t50.5 -140t15.5 -179.5v-639zM520 -383v217h164v-217h-164z" />
<glyph unicode="&#x1e48;" horiz-adv-x="1576" d="M358 1114v-1114h-184v1454h156l889 -1137v1135h184v-1452h-168zM494 -293v119h598v-119h-598z" />
<glyph unicode="&#x1e49;" horiz-adv-x="1208" d="M1073 0h-180v598q0 169 -52 248.5t-159 79.5q-112 0 -216 -80.5t-140 -200.5v-645h-181v1069h164v-229q63 113 183.5 180t261.5 67q90 0 154 -33t99 -95.5t50.5 -140t15.5 -179.5v-639zM303 -293v119h598v-119h-598z" />
<glyph unicode="&#x1e4c;" horiz-adv-x="1531" d="M831 2054l-118 41l118 207h181zM631 1751q-25 0 -44.5 -9.5t-30 -22.5t-17 -28.5t-8 -24.5t-1.5 -13h-106q0 18 9.5 48.5t30.5 69t64 66t99 27.5q49 0 94 -22t87 -44t83 -22q29 0 51.5 10t34 23t18.5 28.5t9 24.5t2 14h106q0 -12 -5.5 -34t-21 -53.5t-38.5 -58.5t-63 -46 t-89 -19q-52 0 -99.5 21.5t-88 43t-76.5 21.5zM80 727q0 192 89 361t248.5 272.5t350.5 103.5q119 0 227 -41.5t189.5 -113.5t142 -166t92 -201.5t31.5 -216.5q0 -193 -88.5 -361t-247.5 -271t-350 -103q-148 0 -278 62.5t-217.5 166t-138 236t-50.5 272.5zM766 156 q112 0 207.5 49.5t158 130.5t97.5 183t35 208q0 149 -62 278.5t-177.5 210t-258.5 80.5q-112 0 -208 -49t-158.5 -129.5t-98 -182t-35.5 -208.5q0 -111 36.5 -214.5t100.5 -182.5t158.5 -126.5t204.5 -47.5z" />
<glyph unicode="&#x1e4d;" d="M676 1673l-119 41l119 207h180zM475 1370q-31 0 -53 -13.5t-31 -33t-12.5 -32t-3.5 -19.5h-107q0 18 9.5 48.5t30.5 69t64 66t99 27.5q49 0 94 -22t87 -44t83 -22q29 0 51.5 10t34 23t18.5 28.5t9 24.5t2 14h106q0 -12 -5.5 -34t-21 -53.5t-38.5 -58.5t-63 -46t-89 -19 q-52 0 -99.5 21.5t-88 43t-76.5 21.5zM74 532q0 149 67.5 275.5t192 203t278.5 76.5q155 0 280 -76.5t193 -203t68 -275.5q0 -111 -39.5 -211.5t-109.5 -176t-172 -120t-220 -44.5q-157 0 -281 76t-190.5 201.5t-66.5 274.5zM612 135q148 0 252.5 116.5t104.5 283.5 q0 165 -104.5 281t-252.5 116q-146 0 -250 -117.5t-104 -284.5t103 -281t251 -114z" />
<glyph unicode="&#x1e4e;" horiz-adv-x="1531" d="M526 2087v209h152v-209h-152zM858 2087v209h152v-209h-152zM631 1751q-25 0 -44.5 -9.5t-30 -22.5t-17 -28.5t-8 -24.5t-1.5 -13h-106q0 18 9.5 48.5t30.5 69t64 66t99 27.5q49 0 94 -22t87 -44t83 -22q29 0 51.5 10t34 23t18.5 28.5t9 24.5t2 14h106q0 -12 -5.5 -34 t-21 -53.5t-38.5 -58.5t-63 -46t-89 -19q-52 0 -99.5 21.5t-88 43t-76.5 21.5zM80 727q0 192 89 361t248.5 272.5t350.5 103.5q119 0 227 -41.5t189.5 -113.5t142 -166t92 -201.5t31.5 -216.5q0 -193 -88.5 -361t-247.5 -271t-350 -103q-148 0 -278 62.5t-217.5 166 t-138 236t-50.5 272.5zM766 156q112 0 207.5 49.5t158 130.5t97.5 183t35 208q0 149 -62 278.5t-177.5 210t-258.5 80.5q-112 0 -208 -49t-158.5 -129.5t-98 -182t-35.5 -208.5q0 -111 36.5 -214.5t100.5 -182.5t158.5 -126.5t204.5 -47.5z" />
<glyph unicode="&#x1e4f;" d="M371 1706v209h151v-209h-151zM702 1706v209h152v-209h-152zM475 1370q-31 0 -53 -13.5t-31 -33t-12.5 -32t-3.5 -19.5h-107q0 18 9.5 48.5t30.5 69t64 66t99 27.5q49 0 94 -22t87 -44t83 -22q29 0 51.5 10t34 23t18.5 28.5t9 24.5t2 14h106q0 -12 -5.5 -34t-21 -53.5 t-38.5 -58.5t-63 -46t-89 -19q-52 0 -99.5 21.5t-88 43t-76.5 21.5zM74 532q0 149 67.5 275.5t192 203t278.5 76.5q155 0 280 -76.5t193 -203t68 -275.5q0 -111 -39.5 -211.5t-109.5 -176t-172 -120t-220 -44.5q-157 0 -281 76t-190.5 201.5t-66.5 274.5zM612 135 q148 0 252.5 116.5t104.5 283.5q0 165 -104.5 281t-252.5 116q-146 0 -250 -117.5t-104 -284.5t103 -281t251 -114z" />
<glyph unicode="&#x1e50;" horiz-adv-x="1531" d="M557 2267h178l121 -207l-117 -41zM471 1720v119h598v-119h-598zM80 727q0 192 89 361t248.5 272.5t350.5 103.5q119 0 227 -41.5t189.5 -113.5t142 -166t92 -201.5t31.5 -216.5q0 -193 -88.5 -361t-247.5 -271t-350 -103q-148 0 -278 62.5t-217.5 166t-138 236 t-50.5 272.5zM766 156q112 0 207.5 49.5t158 130.5t97.5 183t35 208q0 149 -62 278.5t-177.5 210t-258.5 80.5q-112 0 -208 -49t-158.5 -129.5t-98 -182t-35.5 -208.5q0 -111 36.5 -214.5t100.5 -182.5t158.5 -126.5t204.5 -47.5z" />
<glyph unicode="&#x1e51;" d="M401 1886h179l120 -207l-116 -41zM315 1339v119h598v-119h-598zM74 532q0 149 67.5 275.5t192 203t278.5 76.5q155 0 280 -76.5t193 -203t68 -275.5q0 -111 -39.5 -211.5t-109.5 -176t-172 -120t-220 -44.5q-157 0 -281 76t-190.5 201.5t-66.5 274.5zM612 135 q148 0 252.5 116.5t104.5 283.5q0 165 -104.5 281t-252.5 116q-146 0 -250 -117.5t-104 -284.5t103 -281t251 -114z" />
<glyph unicode="&#x1e52;" horiz-adv-x="1531" d="M834 2017l-119 41l119 207h180zM471 1720v119h598v-119h-598zM80 727q0 192 89 361t248.5 272.5t350.5 103.5q119 0 227 -41.5t189.5 -113.5t142 -166t92 -201.5t31.5 -216.5q0 -193 -88.5 -361t-247.5 -271t-350 -103q-148 0 -278 62.5t-217.5 166t-138 236t-50.5 272.5 zM766 156q112 0 207.5 49.5t158 130.5t97.5 183t35 208q0 149 -62 278.5t-177.5 210t-258.5 80.5q-112 0 -208 -49t-158.5 -129.5t-98 -182t-35.5 -208.5q0 -111 36.5 -214.5t100.5 -182.5t158.5 -126.5t204.5 -47.5z" />
<glyph unicode="&#x1e53;" d="M678 1636l-119 41l119 207h180zM315 1339v119h598v-119h-598zM74 532q0 149 67.5 275.5t192 203t278.5 76.5q155 0 280 -76.5t193 -203t68 -275.5q0 -111 -39.5 -211.5t-109.5 -176t-172 -120t-220 -44.5q-157 0 -281 76t-190.5 201.5t-66.5 274.5zM612 135 q148 0 252.5 116.5t104.5 283.5q0 165 -104.5 281t-252.5 116q-146 0 -250 -117.5t-104 -284.5t103 -281t251 -114z" />
<glyph unicode="&#x1e5a;" horiz-adv-x="1345" d="M174 0v1454h623q93 0 176.5 -40.5t140 -106t90 -149t33.5 -169.5q0 -154 -84.5 -275.5t-220.5 -156.5l352 -557h-209l-332 522h-385v-522h-184zM358 686h441q111 0 181.5 89.5t70.5 213.5q0 122 -79.5 211.5t-185.5 89.5h-428v-604zM598 -383v217h164v-217h-164z" />
<glyph unicode="&#x1e5b;" horiz-adv-x="743" d="M711 911q-136 -3 -239.5 -69.5t-145.5 -182.5v-659h-181v1069h168v-248q56 111 146.5 180t191.5 76q46 0 60 -2v-164zM147 -383v217h164v-217h-164z" />
<glyph unicode="&#x1e5e;" horiz-adv-x="1345" d="M174 0v1454h623q93 0 176.5 -40.5t140 -106t90 -149t33.5 -169.5q0 -154 -84.5 -275.5t-220.5 -156.5l352 -557h-209l-332 522h-385v-522h-184zM358 686h441q111 0 181.5 89.5t70.5 213.5q0 122 -79.5 211.5t-185.5 89.5h-428v-604zM381 -293v119h598v-119h-598z" />
<glyph unicode="&#x1e5f;" horiz-adv-x="743" d="M711 911q-136 -3 -239.5 -69.5t-145.5 -182.5v-659h-181v1069h168v-248q56 111 146.5 180t191.5 76q46 0 60 -2v-164zM-70 -293v119h598v-119h-598z" />
<glyph unicode="&#x1e60;" horiz-adv-x="1247" d="M561 1686v217h164v-217h-164zM1028 1149q-55 62 -163.5 106.5t-231.5 44.5q-165 0 -246.5 -62t-81.5 -175q0 -39 9.5 -69t32.5 -54t50.5 -41.5t75.5 -34t95 -28.5t120 -29q98 -22 168 -44.5t135 -56t104 -75.5t62 -102.5t23 -137.5q0 -136 -71 -229t-187.5 -134.5 t-270.5 -41.5q-340 0 -592 204l88 156q73 -77 213 -135.5t295 -58.5q157 0 242.5 56.5t85.5 164.5q0 35 -10 64t-25.5 51.5t-45.5 42.5t-60 34.5t-78.5 30.5t-91.5 27.5t-109 27.5q-95 23 -161 45.5t-123.5 54t-91.5 70t-53 91.5t-19 122q0 136 68 234.5t185 147t269 48.5 q273 0 477 -166z" />
<glyph unicode="&#x1e61;" horiz-adv-x="999" d="M432 1278v217h164v-217h-164zM512 -20q-281 0 -451 176l70 127q171 -160 373 -160q113 0 181.5 43t68.5 123q0 22 -6 39.5t-14 30.5t-26 25t-32 19.5t-43.5 17t-49 15t-59 16t-63.5 17.5q-88 25 -147 50.5t-105 60.5t-67 81.5t-21 108.5q0 149 113.5 233t297.5 84 q242 0 381 -145l-82 -125q-126 129 -309 129q-62 0 -111 -12.5t-84.5 -49t-35.5 -93.5q0 -30 11 -53.5t27 -39t51 -31.5t65 -26t87 -27q93 -27 136.5 -41t105 -42t88 -55.5t47.5 -72t21 -102.5q0 -150 -114 -235.5t-304 -85.5z" />
<glyph unicode="&#x1e62;" horiz-adv-x="1247" d="M1028 1149q-55 62 -163.5 106.5t-231.5 44.5q-165 0 -246.5 -62t-81.5 -175q0 -39 9.5 -69t32.5 -54t50.5 -41.5t75.5 -34t95 -28.5t120 -29q98 -22 168 -44.5t135 -56t104 -75.5t62 -102.5t23 -137.5q0 -136 -71 -229t-187.5 -134.5t-270.5 -41.5q-340 0 -592 204 l88 156q73 -77 213 -135.5t295 -58.5q157 0 242.5 56.5t85.5 164.5q0 35 -10 64t-25.5 51.5t-45.5 42.5t-60 34.5t-78.5 30.5t-91.5 27.5t-109 27.5q-95 23 -161 45.5t-123.5 54t-91.5 70t-53 91.5t-19 122q0 136 68 234.5t185 147t269 48.5q273 0 477 -166zM567 -383v217 h164v-217h-164z" />
<glyph unicode="&#x1e63;" horiz-adv-x="999" d="M512 -20q-281 0 -451 176l70 127q171 -160 373 -160q113 0 181.5 43t68.5 123q0 22 -6 39.5t-14 30.5t-26 25t-32 19.5t-43.5 17t-49 15t-59 16t-63.5 17.5q-88 25 -147 50.5t-105 60.5t-67 81.5t-21 108.5q0 149 113.5 233t297.5 84q242 0 381 -145l-82 -125 q-126 129 -309 129q-62 0 -111 -12.5t-84.5 -49t-35.5 -93.5q0 -30 11 -53.5t27 -39t51 -31.5t65 -26t87 -27q93 -27 136.5 -41t105 -42t88 -55.5t47.5 -72t21 -102.5q0 -150 -114 -235.5t-304 -85.5zM428 -383v217h164v-217h-164z" />
<glyph unicode="&#x1e64;" horiz-adv-x="1247" d="M655 2111v218h164v-218h-164zM707 1655l-119 41l119 207h180zM1028 1149q-55 62 -163.5 106.5t-231.5 44.5q-165 0 -246.5 -62t-81.5 -175q0 -39 9.5 -69t32.5 -54t50.5 -41.5t75.5 -34t95 -28.5t120 -29q98 -22 168 -44.5t135 -56t104 -75.5t62 -102.5t23 -137.5 q0 -136 -71 -229t-187.5 -134.5t-270.5 -41.5q-340 0 -592 204l88 156q73 -77 213 -135.5t295 -58.5q157 0 242.5 56.5t85.5 164.5q0 35 -10 64t-25.5 51.5t-45.5 42.5t-60 34.5t-78.5 30.5t-91.5 27.5t-109 27.5q-95 23 -161 45.5t-123.5 54t-91.5 70t-53 91.5t-19 122 q0 136 68 234.5t185 147t269 48.5q273 0 477 -166z" />
<glyph unicode="&#x1e65;" horiz-adv-x="999" d="M526 1704v217h164v-217h-164zM578 1247l-119 41l119 207h180zM512 -20q-281 0 -451 176l70 127q171 -160 373 -160q113 0 181.5 43t68.5 123q0 22 -6 39.5t-14 30.5t-26 25t-32 19.5t-43.5 17t-49 15t-59 16t-63.5 17.5q-88 25 -147 50.5t-105 60.5t-67 81.5t-21 108.5 q0 149 113.5 233t297.5 84q242 0 381 -145l-82 -125q-126 129 -309 129q-62 0 -111 -12.5t-84.5 -49t-35.5 -93.5q0 -30 11 -53.5t27 -39t51 -31.5t65 -26t87 -27q93 -27 136.5 -41t105 -42t88 -55.5t47.5 -72t21 -102.5q0 -150 -114 -235.5t-304 -85.5z" />
<glyph unicode="&#x1e66;" horiz-adv-x="1247" d="M561 2111v218h164v-218h-164zM469 1903l174 -129l174 129l98 -50l-206 -184h-131l-207 184zM1028 1149q-55 62 -163.5 106.5t-231.5 44.5q-165 0 -246.5 -62t-81.5 -175q0 -39 9.5 -69t32.5 -54t50.5 -41.5t75.5 -34t95 -28.5t120 -29q98 -22 168 -44.5t135 -56 t104 -75.5t62 -102.5t23 -137.5q0 -136 -71 -229t-187.5 -134.5t-270.5 -41.5q-340 0 -592 204l88 156q73 -77 213 -135.5t295 -58.5q157 0 242.5 56.5t85.5 164.5q0 35 -10 64t-25.5 51.5t-45.5 42.5t-60 34.5t-78.5 30.5t-91.5 27.5t-109 27.5q-95 23 -161 45.5t-123.5 54 t-91.5 70t-53 91.5t-19 122q0 136 68 234.5t185 147t269 48.5q273 0 477 -166z" />
<glyph unicode="&#x1e67;" horiz-adv-x="999" d="M432 1704v217h164v-217h-164zM340 1495l174 -129l174 129l98 -49l-206 -184h-131l-207 184zM512 -20q-281 0 -451 176l70 127q171 -160 373 -160q113 0 181.5 43t68.5 123q0 22 -6 39.5t-14 30.5t-26 25t-32 19.5t-43.5 17t-49 15t-59 16t-63.5 17.5q-88 25 -147 50.5 t-105 60.5t-67 81.5t-21 108.5q0 149 113.5 233t297.5 84q242 0 381 -145l-82 -125q-126 129 -309 129q-62 0 -111 -12.5t-84.5 -49t-35.5 -93.5q0 -30 11 -53.5t27 -39t51 -31.5t65 -26t87 -27q93 -27 136.5 -41t105 -42t88 -55.5t47.5 -72t21 -102.5q0 -150 -114 -235.5 t-304 -85.5z" />
<glyph unicode="&#x1e68;" horiz-adv-x="1247" d="M561 1686v217h164v-217h-164zM1028 1149q-55 62 -163.5 106.5t-231.5 44.5q-165 0 -246.5 -62t-81.5 -175q0 -39 9.5 -69t32.5 -54t50.5 -41.5t75.5 -34t95 -28.5t120 -29q98 -22 168 -44.5t135 -56t104 -75.5t62 -102.5t23 -137.5q0 -136 -71 -229t-187.5 -134.5 t-270.5 -41.5q-340 0 -592 204l88 156q73 -77 213 -135.5t295 -58.5q157 0 242.5 56.5t85.5 164.5q0 35 -10 64t-25.5 51.5t-45.5 42.5t-60 34.5t-78.5 30.5t-91.5 27.5t-109 27.5q-95 23 -161 45.5t-123.5 54t-91.5 70t-53 91.5t-19 122q0 136 68 234.5t185 147t269 48.5 q273 0 477 -166zM567 -383v217h164v-217h-164z" />
<glyph unicode="&#x1e69;" horiz-adv-x="999" d="M432 1278v217h164v-217h-164zM512 -20q-281 0 -451 176l70 127q171 -160 373 -160q113 0 181.5 43t68.5 123q0 22 -6 39.5t-14 30.5t-26 25t-32 19.5t-43.5 17t-49 15t-59 16t-63.5 17.5q-88 25 -147 50.5t-105 60.5t-67 81.5t-21 108.5q0 149 113.5 233t297.5 84 q242 0 381 -145l-82 -125q-126 129 -309 129q-62 0 -111 -12.5t-84.5 -49t-35.5 -93.5q0 -30 11 -53.5t27 -39t51 -31.5t65 -26t87 -27q93 -27 136.5 -41t105 -42t88 -55.5t47.5 -72t21 -102.5q0 -150 -114 -235.5t-304 -85.5zM428 -383v217h164v-217h-164z" />
<glyph unicode="&#x1e6c;" horiz-adv-x="1257" d="M1223 1290h-502v-1290h-184v1290h-502v164h1188v-164zM553 -383v217h164v-217h-164z" />
<glyph unicode="&#x1e6d;" horiz-adv-x="720" d="M698 53q-151 -67 -260 -67q-105 0 -173 56.5t-68 166.5v719h-146v141h146v356h180v-356h239v-141h-239v-664q3 -56 36.5 -84t84.5 -28q82 0 157 45zM356 -383v217h164v-217h-164z" />
<glyph unicode="&#x1e6e;" horiz-adv-x="1257" d="M1223 1290h-502v-1290h-184v1290h-502v164h1188v-164zM336 -293v119h598v-119h-598z" />
<glyph unicode="&#x1e6f;" horiz-adv-x="720" d="M698 53q-151 -67 -260 -67q-105 0 -173 56.5t-68 166.5v719h-146v141h146v356h180v-356h239v-141h-239v-664q3 -56 36.5 -84t84.5 -28q82 0 157 45zM139 -293v119h598v-119h-598z" />
<glyph unicode="&#x1e78;" horiz-adv-x="1546" d="M838 2054l-119 41l119 207h180zM637 1751q-31 0 -53 -13.5t-31 -33t-12.5 -32t-3.5 -19.5h-107q0 18 9.5 48.5t30.5 69t64 66t99 27.5q49 0 94 -22t87 -44t83 -22q29 0 51.5 10t34 23t18.5 28.5t9 24.5t2 14h106q0 -12 -5.5 -34t-21 -53.5t-38.5 -58.5t-63 -46t-89 -19 q-52 0 -99.5 21.5t-88 43t-76.5 21.5zM774 -10q-135 0 -242 40.5t-176.5 108.5t-116 162.5t-66 198t-19.5 219.5v735h184v-735q0 -90 13 -169t44.5 -152.5t80 -126t124.5 -84t172 -31.5q71 0 130.5 16.5t104 46t79 71.5t57.5 90t37.5 105.5t21 114.5t6.5 119v735h185v-735 q0 -121 -21 -227t-68.5 -199t-118.5 -159.5t-176 -105t-235 -38.5z" />
<glyph unicode="&#x1e79;" horiz-adv-x="1230" d="M666 1673l-119 41l119 207h180zM465 1370q-31 0 -53 -13.5t-31 -33t-12.5 -32t-3.5 -19.5h-107q0 18 9.5 48.5t30.5 69t64 66t99 27.5q49 0 94 -22t87 -44t83 -22q29 0 51.5 10t34 23t18.5 28.5t9 24.5t2 14h106q0 -12 -5.5 -34t-21 -53.5t-38.5 -58.5t-63 -46t-89 -19 q-52 0 -99.5 21.5t-88 43t-76.5 21.5zM135 428v641h180v-606q0 -328 228 -328q112 0 208.5 71.5t143.5 192.5v670h180v-864q0 -34 13.5 -49t44.5 -17v-139q-41 -6 -82 -6q-53 0 -89.5 31.5t-37.5 78.5l-4 125q-70 -119 -188 -184t-257 -65q-167 0 -253.5 113.5t-86.5 334.5z " />
<glyph unicode="&#x1e7a;" horiz-adv-x="1546" d="M535 2050v209h151v-209h-151zM866 2050v209h152v-209h-152zM477 1720v119h598v-119h-598zM774 -10q-135 0 -242 40.5t-176.5 108.5t-116 162.5t-66 198t-19.5 219.5v735h184v-735q0 -90 13 -169t44.5 -152.5t80 -126t124.5 -84t172 -31.5q71 0 130.5 16.5t104 46t79 71.5 t57.5 90t37.5 105.5t21 114.5t6.5 119v735h185v-735q0 -121 -21 -227t-68.5 -199t-118.5 -159.5t-176 -105t-235 -38.5z" />
<glyph unicode="&#x1e7b;" horiz-adv-x="1230" d="M362 1669v209h152v-209h-152zM694 1669v209h152v-209h-152zM305 1339v119h598v-119h-598zM135 428v641h180v-606q0 -328 228 -328q112 0 208.5 71.5t143.5 192.5v670h180v-864q0 -34 13.5 -49t44.5 -17v-139q-41 -6 -82 -6q-53 0 -89.5 31.5t-37.5 78.5l-4 125 q-70 -119 -188 -184t-257 -65q-167 0 -253.5 113.5t-86.5 334.5z" />
<glyph unicode="&#x1e80;" horiz-adv-x="2148" d="M860 1878h178l121 -207l-117 -41zM707 1446h174l192 -506l195 506h174l-252 -633l250 -600l491 1241h201l-608 -1454h-160l-289 686l-291 -686h-159l-607 1454h199l494 -1241l247 600z" />
<glyph unicode="&#x1e81;" horiz-adv-x="1681" d="M627 1497h178l121 -207l-117 -41zM1485 1069h174l-455 -1069h-157l-207 504l-205 -504h-158l-454 1069h172l368 -891l172 438l-180 451h158l127 -340l127 340h157l-178 -451l172 -438z" />
<glyph unicode="&#x1e82;" horiz-adv-x="2148" d="M1137 1628l-119 41l119 207h180zM707 1446h174l192 -506l195 506h174l-252 -633l250 -600l491 1241h201l-608 -1454h-160l-289 686l-291 -686h-159l-607 1454h199l494 -1241l247 600z" />
<glyph unicode="&#x1e83;" horiz-adv-x="1681" d="M903 1247l-119 41l119 207h180zM1485 1069h174l-455 -1069h-157l-207 504l-205 -504h-158l-454 1069h172l368 -891l172 438l-180 451h158l127 -340l127 340h157l-178 -451l172 -438z" />
<glyph unicode="&#x1e84;" horiz-adv-x="2148" d="M831 1661v209h152v-209h-152zM1163 1661v209h152v-209h-152zM707 1446h174l192 -506l195 506h174l-252 -633l250 -600l491 1241h201l-608 -1454h-160l-289 686l-291 -686h-159l-607 1454h199l494 -1241l247 600z" />
<glyph unicode="&#x1e85;" horiz-adv-x="1681" d="M598 1280v209h152v-209h-152zM930 1280v209h151v-209h-151zM1485 1069h174l-455 -1069h-157l-207 504l-205 -504h-158l-454 1069h172l368 -891l172 438l-180 451h158l127 -340l127 340h157l-178 -451l172 -438z" />
<glyph unicode="&#x1e8e;" horiz-adv-x="1341" d="M588 1659v217h164v-217h-164zM229 1454l441 -758l444 758h201l-553 -924v-530h-184v535l-551 919h202z" />
<glyph unicode="&#x1e8f;" horiz-adv-x="1116" d="M494 1278v217h163v-217h-163zM195 -291q70 -8 94 -8q49 0 82 53.5t106 245.5l-452 1069h190l360 -887l326 887h178l-520 -1350q-31 -79 -100.5 -129.5t-177.5 -50.5q-40 0 -86 10v160z" />
<glyph unicode="&#x1e92;" horiz-adv-x="1292" d="M66 143l938 1147h-920v164h1135v-143l-922 -1147h922v-164h-1153v143zM565 -383v217h164v-217h-164z" />
<glyph unicode="&#x1e93;" horiz-adv-x="1009" d="M61 117l674 821h-655v131h858v-117l-670 -821h672v-131h-879v117zM424 -383v217h164v-217h-164z" />
<glyph unicode="&#x1e97;" horiz-adv-x="720" d="M63 1665v209h152v-209h-152zM395 1665v209h152v-209h-152zM698 53q-151 -67 -260 -67q-105 0 -173 56.5t-68 166.5v719h-146v141h146v356h180v-356h239v-141h-239v-664q3 -56 36.5 -84t84.5 -28q82 0 157 45z" />
<glyph unicode="&#x1e9e;" horiz-adv-x="1327" d="M860 614q51 -15 78.5 -23t69.5 -22t64 -24t53 -25.5t47.5 -30t35.5 -35t28 -43t15 -50t6 -60.5q0 -150 -113.5 -235.5t-303.5 -85.5q-281 0 -451 176l70 127q171 -160 372 -160q113 0 181.5 43t68.5 123q0 22 -6 39.5t-14 30.5t-26 25t-32 19.5t-43.5 17t-49 15t-59 16 t-63.5 17.5q-91 26 -150.5 52t-104 61.5t-64.5 82.5t-20 111t20 116t58.5 88.5t84.5 63t109.5 44.5t121.5 28.5t130 18.5q-30 83 -116 127.5t-195 44.5q-166 0 -255.5 -97.5t-89.5 -240.5v-969h-172v997q0 134 68.5 241t187.5 165.5t265 58.5q198 0 328.5 -105t156.5 -280 l8 -55q-40 -7 -97.5 -15.5t-93 -14.5t-83 -14.5t-76.5 -16.5t-63.5 -19.5t-54.5 -25.5t-38.5 -32t-26.5 -41.5t-8 -51.5q0 -30 11 -53.5t28 -39.5t50.5 -31.5t65.5 -26t87 -26.5z" />
<glyph unicode="&#x1ea0;" horiz-adv-x="1386" d="M616 1454h156l594 -1454h-197l-172 426h-610l-170 -426h-197zM956 569l-262 672l-270 -672h532zM631 -383v217h164v-217h-164z" />
<glyph unicode="&#x1ea1;" horiz-adv-x="1134" d="M61 309q0 151 126.5 242.5t330.5 91.5q166 0 293 -45v78q0 124 -74.5 194t-208.5 70q-157 0 -340 -123l-65 127q211 143 426 143q205 0 323.5 -114t118.5 -316v-452q0 -34 13.5 -49t44.5 -17v-139q-49 -8 -78 -8q-60 0 -94 32.5t-37 75.5l-4 68q-69 -88 -180.5 -138 t-225.5 -50q-160 0 -264.5 95t-104.5 234zM758 233q24 27 38.5 57.5t14.5 51.5v133q-130 51 -270 51q-139 0 -223.5 -54.5t-84.5 -147.5q0 -83 65 -146t179 -63q82 0 158.5 32.5t122.5 85.5zM530 -383v217h164v-217h-164z" />
<glyph unicode="&#x1ea2;" horiz-adv-x="1386" d="M600 1806l-68 68q84 74 179 74q69 0 107 -40t38 -96q0 -85 -115 -180l-51 60q60 55 60 104q0 24 -16 39.5t-40 15.5q-26 0 -45.5 -9.5t-48.5 -35.5zM616 1454h156l594 -1454h-197l-172 426h-610l-170 -426h-197zM956 569l-262 672l-270 -672h532z" />
<glyph unicode="&#x1ea3;" horiz-adv-x="1134" d="M451 1425l-68 68q84 74 178 74q69 0 107.5 -40t38.5 -95q0 -86 -115 -181l-51 60q59 54 59 104q0 24 -15.5 39.5t-39.5 15.5q-26 0 -45.5 -9.5t-48.5 -35.5zM61 309q0 151 126.5 242.5t330.5 91.5q166 0 293 -45v78q0 124 -74.5 194t-208.5 70q-157 0 -340 -123l-65 127 q211 143 426 143q205 0 323.5 -114t118.5 -316v-452q0 -34 13.5 -49t44.5 -17v-139q-49 -8 -78 -8q-60 0 -94 32.5t-37 75.5l-4 68q-69 -88 -180.5 -138t-225.5 -50q-160 0 -264.5 95t-104.5 234zM758 233q24 27 38.5 57.5t14.5 51.5v133q-130 51 -270 51 q-139 0 -223.5 -54.5t-84.5 -147.5q0 -83 65 -146t179 -63q82 0 158.5 32.5t122.5 85.5z" />
<glyph unicode="&#x1ea4;" horiz-adv-x="1386" d="M987 1778l-119 41l119 206h180zM397 1642l207 185h131l207 -185l-98 -49l-174 129l-174 -129zM616 1454h156l594 -1454h-197l-172 426h-610l-170 -426h-197zM956 569l-262 672l-270 -672h532z" />
<glyph unicode="&#x1ea5;" horiz-adv-x="1134" d="M838 1397l-119 41l119 207h180zM248 1262l207 184h131l207 -184l-99 -50l-174 129l-174 -129zM61 309q0 151 126.5 242.5t330.5 91.5q166 0 293 -45v78q0 124 -74.5 194t-208.5 70q-157 0 -340 -123l-65 127q211 143 426 143q205 0 323.5 -114t118.5 -316v-452 q0 -34 13.5 -49t44.5 -17v-139q-49 -8 -78 -8q-60 0 -94 32.5t-37 75.5l-4 68q-69 -88 -180.5 -138t-225.5 -50q-160 0 -264.5 95t-104.5 234zM758 233q24 27 38.5 57.5t14.5 51.5v133q-130 51 -270 51q-139 0 -223.5 -54.5t-84.5 -147.5q0 -83 65 -146t179 -63 q82 0 158.5 32.5t122.5 85.5z" />
<glyph unicode="&#x1ea6;" horiz-adv-x="1386" d="M215 1995h178l121 -207l-117 -41zM438 1645l207 184h131l207 -184l-98 -50l-174 129l-174 -129zM616 1454h156l594 -1454h-197l-172 426h-610l-170 -426h-197zM956 569l-262 672l-270 -672h532z" />
<glyph unicode="&#x1ea7;" horiz-adv-x="1134" d="M66 1614h178l121 -207l-117 -41zM289 1264l207 184h131l207 -184l-99 -50l-174 129l-174 -129zM61 309q0 151 126.5 242.5t330.5 91.5q166 0 293 -45v78q0 124 -74.5 194t-208.5 70q-157 0 -340 -123l-65 127q211 143 426 143q205 0 323.5 -114t118.5 -316v-452 q0 -34 13.5 -49t44.5 -17v-139q-49 -8 -78 -8q-60 0 -94 32.5t-37 75.5l-4 68q-69 -88 -180.5 -138t-225.5 -50q-160 0 -264.5 95t-104.5 234zM758 233q24 27 38.5 57.5t14.5 51.5v133q-130 51 -270 51q-139 0 -223.5 -54.5t-84.5 -147.5q0 -83 65 -146t179 -63 q82 0 158.5 32.5t122.5 85.5z" />
<glyph unicode="&#x1ea8;" horiz-adv-x="1386" d="M834 1892l-68 68q84 74 178 74q69 0 107.5 -40.5t38.5 -95.5q0 -85 -115 -180l-51 60q59 54 59 104q0 24 -15.5 39.5t-39.5 15.5q-26 0 -45.5 -9.5t-48.5 -35.5zM397 1645l207 184h131l207 -184l-98 -50l-174 129l-174 -129zM616 1454h156l594 -1454h-197l-172 426h-610 l-170 -426h-197zM956 569l-262 672l-270 -672h532z" />
<glyph unicode="&#x1ea9;" horiz-adv-x="1134" d="M684 1511l-68 68q84 74 179 74q69 0 107 -40t38 -95q0 -86 -115 -181l-51 60q60 55 60 104q0 23 -16 39t-40 16q-26 0 -45.5 -9.5t-48.5 -35.5zM248 1264l207 184h131l207 -184l-99 -50l-174 129l-174 -129zM61 309q0 151 126.5 242.5t330.5 91.5q166 0 293 -45v78 q0 124 -74.5 194t-208.5 70q-157 0 -340 -123l-65 127q211 143 426 143q205 0 323.5 -114t118.5 -316v-452q0 -34 13.5 -49t44.5 -17v-139q-49 -8 -78 -8q-60 0 -94 32.5t-37 75.5l-4 68q-69 -88 -180.5 -138t-225.5 -50q-160 0 -264.5 95t-104.5 234zM758 233 q24 27 38.5 57.5t14.5 51.5v133q-130 51 -270 51q-139 0 -223.5 -54.5t-84.5 -147.5q0 -83 65 -146t179 -63q82 0 158.5 32.5t122.5 85.5z" />
<glyph unicode="&#x1eaa;" horiz-adv-x="1386" d="M545 1948q-31 0 -53.5 -14t-31.5 -33.5t-12.5 -32.5t-3.5 -19h-106q0 18 9.5 48.5t30.5 69t64 66t99 27.5q49 0 94 -22t87 -44t83 -22q29 0 51.5 10t34 23t18.5 29t9 25t2 14h106q0 -12 -5.5 -34t-21 -53.5t-38.5 -58.5t-63 -46t-89 -19q-52 0 -99.5 21.5t-88 43 t-76.5 21.5zM397 1638l207 185h131l207 -185l-98 -49l-174 129l-174 -129zM616 1454h156l594 -1454h-197l-172 426h-610l-170 -426h-197zM956 569l-262 672l-270 -672h532z" />
<glyph unicode="&#x1eab;" horiz-adv-x="1134" d="M395 1567q-31 0 -53 -13.5t-31 -33.5t-12.5 -32.5t-3.5 -19.5h-107q0 18 9.5 48.5t30.5 69t64 66t99 27.5q49 0 94 -22t87 -44t83 -22q29 0 51.5 10t34 23t18.5 29t9 25t2 14h107q0 -12 -5.5 -34t-21.5 -53.5t-39 -58.5t-63 -46t-89 -19q-52 0 -99.5 21.5t-88 43 t-76.5 21.5zM248 1257l207 185h131l207 -185l-99 -49l-174 129l-174 -129zM61 309q0 151 126.5 242.5t330.5 91.5q166 0 293 -45v78q0 124 -74.5 194t-208.5 70q-157 0 -340 -123l-65 127q211 143 426 143q205 0 323.5 -114t118.5 -316v-452q0 -34 13.5 -49t44.5 -17v-139 q-49 -8 -78 -8q-60 0 -94 32.5t-37 75.5l-4 68q-69 -88 -180.5 -138t-225.5 -50q-160 0 -264.5 95t-104.5 234zM758 233q24 27 38.5 57.5t14.5 51.5v133q-130 51 -270 51q-139 0 -223.5 -54.5t-84.5 -147.5q0 -83 65 -146t179 -63q82 0 158.5 32.5t122.5 85.5z" />
<glyph unicode="&#x1eac;" horiz-adv-x="1386" d="M422 1692l207 184h131l207 -184l-99 -50l-174 130l-174 -130zM616 1454h156l594 -1454h-197l-172 426h-610l-170 -426h-197zM956 569l-262 672l-270 -672h532zM631 -383v217h164v-217h-164z" />
<glyph unicode="&#x1ead;" horiz-adv-x="1134" d="M272 1311l207 184h131l207 -184l-98 -49l-174 129l-174 -129zM61 309q0 151 126.5 242.5t330.5 91.5q166 0 293 -45v78q0 124 -74.5 194t-208.5 70q-157 0 -340 -123l-65 127q211 143 426 143q205 0 323.5 -114t118.5 -316v-452q0 -34 13.5 -49t44.5 -17v-139 q-49 -8 -78 -8q-60 0 -94 32.5t-37 75.5l-4 68q-69 -88 -180.5 -138t-225.5 -50q-160 0 -264.5 95t-104.5 234zM758 233q24 27 38.5 57.5t14.5 51.5v133q-130 51 -270 51q-139 0 -223.5 -54.5t-84.5 -147.5q0 -83 65 -146t179 -63q82 0 158.5 32.5t122.5 85.5zM530 -383v217 h164v-217h-164z" />
<glyph unicode="&#x1eae;" horiz-adv-x="1386" d="M760 1839l-119 41l119 207h180zM813 1817h102q0 -97 -63.5 -162.5t-157.5 -65.5t-157.5 65.5t-63.5 162.5h105q0 -55 35 -97.5t81 -42.5q44 0 78.5 40t40.5 100zM616 1454h156l594 -1454h-197l-172 426h-610l-170 -426h-197zM956 569l-262 672l-270 -672h532z" />
<glyph unicode="&#x1eaf;" horiz-adv-x="1134" d="M610 1458l-118 41l118 207h181zM664 1436h102q0 -97 -63.5 -162.5t-157.5 -65.5t-157.5 65.5t-63.5 162.5h104q0 -55 35.5 -97.5t81.5 -42.5q44 0 78.5 40t40.5 100zM61 309q0 151 126.5 242.5t330.5 91.5q166 0 293 -45v78q0 124 -74.5 194t-208.5 70q-157 0 -340 -123 l-65 127q211 143 426 143q205 0 323.5 -114t118.5 -316v-452q0 -34 13.5 -49t44.5 -17v-139q-49 -8 -78 -8q-60 0 -94 32.5t-37 75.5l-4 68q-69 -88 -180.5 -138t-225.5 -50q-160 0 -264.5 95t-104.5 234zM758 233q24 27 38.5 57.5t14.5 51.5v133q-130 51 -270 51 q-139 0 -223.5 -54.5t-84.5 -147.5q0 -83 65 -146t179 -63q82 0 158.5 32.5t122.5 85.5z" />
<glyph unicode="&#x1eb0;" horiz-adv-x="1386" d="M455 2077h178l121 -207l-117 -41zM799 1815h102q0 -97 -63.5 -162.5t-157.5 -65.5t-157.5 65.5t-63.5 162.5h104q0 -55 35.5 -97.5t81.5 -42.5q44 0 78.5 40t40.5 100zM616 1454h156l594 -1454h-197l-172 426h-610l-170 -426h-197zM956 569l-262 672l-270 -672h532z" />
<glyph unicode="&#x1eb1;" horiz-adv-x="1134" d="M305 1696h178l121 -207l-117 -41zM649 1434h103q0 -97 -64 -162.5t-158 -65.5t-157.5 65.5t-63.5 162.5h105q0 -55 35 -97.5t81 -42.5q44 0 78.5 40t40.5 100zM61 309q0 151 126.5 242.5t330.5 91.5q166 0 293 -45v78q0 124 -74.5 194t-208.5 70q-157 0 -340 -123 l-65 127q211 143 426 143q205 0 323.5 -114t118.5 -316v-452q0 -34 13.5 -49t44.5 -17v-139q-49 -8 -78 -8q-60 0 -94 32.5t-37 75.5l-4 68q-69 -88 -180.5 -138t-225.5 -50q-160 0 -264.5 95t-104.5 234zM758 233q24 27 38.5 57.5t14.5 51.5v133q-130 51 -270 51 q-139 0 -223.5 -54.5t-84.5 -147.5q0 -83 65 -146t179 -63q82 0 158.5 32.5t122.5 85.5z" />
<glyph unicode="&#x1eb2;" horiz-adv-x="1386" d="M559 1970l-67 68q83 73 178 73q69 0 107 -40t38 -95q0 -85 -115 -180l-51 59q60 55 60 105q0 24 -15.5 39.5t-40.5 15.5q-26 0 -45.5 -9.5t-48.5 -35.5zM813 1823h102q0 -97 -63.5 -162.5t-157.5 -65.5t-157.5 65.5t-63.5 162.5h105q0 -55 35 -97.5t81 -42.5 q44 0 78.5 40t40.5 100zM616 1454h156l594 -1454h-197l-172 426h-610l-170 -426h-197zM956 569l-262 672l-270 -672h532z" />
</font>
</defs>
</svg>
