<?xml version="1.0" standalone="no"?>
<!DOCTYPE svg PUBLIC "-//W3C//DTD SVG 1.1//EN" "http://www.w3.org/Graphics/SVG/1.1/DTD/svg11.dtd" >
<svg xmlns="http://www.w3.org/2000/svg" xmlns:xlink="http://www.w3.org/1999/xlink" version="1.1">
<metadata></metadata>
<defs>
<font id="rawlinemedium_italic" horiz-adv-x="0" >
<font-face units-per-em="2048" ascent="1638" descent="-410" />
<missing-glyph horiz-adv-x="505" />
<glyph unicode="fi" horiz-adv-x="1036" d="M258 928h-137l31 141h137l4 23q16 80 56 155.5t99 135.5t141.5 96.5t174.5 36.5q171 0 301 -107l-104 -133q-34 37 -93 60.5t-127 23.5q-103 0 -173 -78t-93 -184l-6 -29h522l-227 -1069h-180l196 928h-342l-196 -928h-181z" />
<glyph unicode="fl" horiz-adv-x="1198" d="M674 147q0 25 12 86l193 900q8 46 8 69q0 69 -36.5 113.5t-119.5 44.5q-100 0 -165 -73.5t-93 -199.5l-4 -18h197l-29 -141h-199l-196 -928h-181l197 928h-137l31 141h137l8 37q42 190 163 300t302 110q157 0 236 -68.5t79 -187.5q0 -37 -10 -89l-190 -899q-5 -25 -5 -32 q0 -39 20 -66t60 -27q13 0 30.5 2.5t33.5 6.5t29.5 7.5t22.5 6.5l9 2l-8 -147q-3 -3 -34 -12t-83.5 -18t-97.5 -9q-86 0 -133 44.5t-47 116.5z" />
<glyph unicode="&#xd;" />
<glyph unicode=" "  horiz-adv-x="505" />
<glyph unicode="&#x09;" horiz-adv-x="505" />
<glyph unicode="&#xa0;" horiz-adv-x="505" />
<glyph unicode="!" horiz-adv-x="528" d="M147 492l207 976h181l-207 -976h-181zM43 0l53 254h180l-53 -254h-180z" />
<glyph unicode="&#x22;" horiz-adv-x="651" d="M217 1028l94 442h156l-94 -442h-156zM446 1028l95 442h155l-94 -442h-156z" />
<glyph unicode="#" horiz-adv-x="1359" d="M1348 915h-263l-159 -364h258l-29 -139h-291l-182 -412h-150l185 412h-318l-182 -412h-149l184 412h-219l28 139h254l158 364h-248l29 132h281l180 407h147l-180 -407h317l179 407h149l-182 -407h231zM778 551l160 364h-317l-158 -364h315z" />
<glyph unicode="$" horiz-adv-x="1220" d="M1106 1149q-34 58 -120 101.5t-195 49.5l-103 -487l27 -6q95 -24 161 -50t120 -65t80 -94t26 -129q0 -116 -45.5 -208t-125.5 -150.5t-183.5 -90t-223.5 -34.5l-43 -205h-88l43 207q-280 22 -454 202l120 156q43 -68 147 -124.5t232 -67.5l105 489q-5 1 -15.5 4t-15.5 4 q-181 49 -266.5 117.5t-85.5 192.5q0 145 74 257.5t197 173.5t276 70l45 207h88l-43 -205q238 -11 383 -166zM406 1020q0 -73 52 -115t169 -76l100 471q-160 -9 -240.5 -84t-80.5 -196zM897 412q0 80 -61 127.5t-189 85.5l-98 -473q162 2 255 70.5t93 189.5z" />
<glyph unicode="%" horiz-adv-x="1447" d="M188 1124q0 139 115 245t258 106q109 0 177.5 -71t68.5 -177q0 -139 -114.5 -244.5t-258.5 -105.5q-108 0 -177 71t-69 176zM31 68l692 690l670 706l71 -75l-684 -687l-680 -712zM674 1214q0 68 -37.5 115t-95.5 47q-82 0 -150.5 -73.5t-68.5 -165.5q0 -69 37 -115.5 t96 -46.5q82 0 150.5 73.5t68.5 165.5zM688 227q0 139 115 245t258 106q108 0 176 -71t68 -177q0 -92 -53 -173.5t-138.5 -129t-179.5 -47.5q-108 0 -177 71t-69 176zM1174 317q0 68 -39 115t-97 47q-82 0 -150.5 -73.5t-68.5 -165.5q0 -69 38 -115.5t97 -46.5 q83 0 151.5 73t68.5 166z" />
<glyph unicode="&#x26;" horiz-adv-x="1376" d="M1307 711h-203q-58 -201 -164 -363l244 -348h-223l-138 201q-211 -221 -446 -221q-150 0 -246 94t-96 241q0 84 29.5 157t86.5 134t115 106t142 97q-111 177 -111 285q0 103 60 191t160 138t214 50q110 0 196.5 -58t129.5 -158l-123 -110q-30 82 -93.5 135t-138.5 53 q-94 0 -164.5 -64.5t-70.5 -148.5q0 -95 123 -272l262 -375q87 167 125 377h360zM416 123q173 0 329 190l-260 383q-135 -87 -204.5 -170t-69.5 -188q0 -100 58 -157.5t147 -57.5z" />
<glyph unicode="'" horiz-adv-x="421" d="M217 1026l94 444h156l-94 -444h-156z" />
<glyph unicode="(" horiz-adv-x="569" d="M559 1524l125 -62q-67 -80 -132 -174t-136.5 -219t-115.5 -262.5t-44 -257.5q0 -128 29.5 -280.5t81.5 -284.5l-148 -70q-61 144 -97 308.5t-36 312.5q0 105 25.5 211t64 195t105.5 196.5t126.5 188.5t151.5 198z" />
<glyph unicode=")" horiz-adv-x="569" d="M53 -86l-119 70q202 248 310 461t108 423q0 152 -33.5 323.5t-74.5 270.5l153 62q127 -355 127 -639q0 -126 -35 -252t-103 -249.5t-146 -232t-187 -237.5z" />
<glyph unicode="*" horiz-adv-x="659" d="M268 1102l115 133l-125 45l45 86l125 -55l25 151h104l-39 -151l150 55l6 -86l-144 -45l60 -133l-88 -51l-53 137l-117 -137z" />
<glyph unicode="+" horiz-adv-x="851" d="M768 801v-148h-242v-262h-164v262h-241v148h241v262h164v-262h242z" />
<glyph unicode="," horiz-adv-x="425" d="M-14 -166l80 182h-62l45 213h168l-45 -213l-98 -182h-88z" />
<glyph unicode="-" horiz-adv-x="831" d="M98 477l35 164h576l-35 -164h-576z" />
<glyph unicode="." horiz-adv-x="409" d="M0 0l49 229h152l-49 -229h-152z" />
<glyph unicode="/" horiz-adv-x="1286" d="M1393 1454l-1246 -1454h-200l1245 1454h201z" />
<glyph unicode="0" horiz-adv-x="1361" d="M100 565q0 120 38.5 247.5t109.5 241t163.5 204t209.5 143.5t237 53q91 0 167 -35t126.5 -93t85.5 -135t50.5 -159.5t15.5 -167.5q0 -120 -38.5 -247t-109 -240t-162.5 -202.5t-209 -142t-237 -52.5q-91 0 -166.5 34.5t-126.5 92t-86.5 133.5t-51.5 158t-16 167z M1114 852q0 84 -17.5 160t-52 139t-91.5 100t-130 37q-93 0 -179.5 -48.5t-149 -127t-110 -175t-71.5 -196.5t-24 -188q0 -83 17 -154.5t50.5 -129t91 -91t132.5 -33.5q91 0 176 46t148.5 121t111.5 167.5t73 189.5t25 183z" />
<glyph unicode="1" horiz-adv-x="868" d="M37 164h264l238 1116q-46 -53 -159.5 -114.5t-186.5 -61.5l34 168q39 0 89 20t93.5 47.5t83 57.5t62 49.5t25.5 23.5h184l-279 -1306h248l-35 -164h-696z" />
<glyph unicode="2" horiz-adv-x="1157" d="M473 670q32 15 82.5 36t84 35.5t78.5 37t74.5 42.5t61.5 49.5t51 61.5t31 75t12 93q0 91 -54 148t-159 57q-119 0 -226 -59.5t-185 -137.5l-91 117q25 25 52.5 48t85 62t116 67t140.5 49.5t164 21.5q177 0 269.5 -95.5t92.5 -244.5q0 -231 -178 -375q-88 -72 -279 -159 q-13 -6 -38 -17l-1 -1h-1l-1 -1q-213 -96 -303.5 -185.5t-120.5 -230.5h725l-34 -164h-959q30 142 75 247t109.5 183.5t141.5 134t184 105.5z" />
<glyph unicode="3" horiz-adv-x="1144" d="M20 303l125 109q0 -113 74 -187.5t217 -74.5q154 0 266.5 82.5t112.5 205.5q0 112 -98.5 171t-278.5 59h-65l33 153h65q203 0 325 73.5t122 207.5q0 98 -65 154.5t-171 56.5q-110 0 -210.5 -56.5t-152.5 -138.5l-94 125q80 105 217.5 167.5t278.5 62.5q177 0 284 -96.5 t107 -248.5q0 -135 -89.5 -236t-254.5 -140q108 -21 169.5 -104.5t61.5 -201.5q0 -84 -33.5 -159t-90.5 -129.5t-132 -95t-160 -60.5t-171 -20q-181 0 -286.5 87t-105.5 234z" />
<glyph unicode="4" horiz-adv-x="1134" d="M569 0l78 371h-643l35 161l893 922h125l-195 -919h172l-35 -164h-172l-77 -371h-181zM700 535l138 643l-611 -643h473z" />
<glyph unicode="5" horiz-adv-x="1103" d="M2 252l133 98q34 -96 111.5 -152.5t179.5 -56.5q153 0 267 111t114 270q0 111 -64 180.5t-168 69.5q-80 0 -161 -39.5t-140 -109.5h-161q12 25 94.5 233.5t159 403t77.5 194.5h674l-37 -166h-538l-181 -463q109 103 269 103q163 0 263.5 -104t100.5 -269 q0 -161 -85.5 -294.5t-223.5 -207t-295 -73.5q-147 0 -250 73t-139 199z" />
<glyph unicode="6" horiz-adv-x="1210" d="M1100 569q0 173 -107 287.5t-278 114.5q-118 0 -225.5 -63.5t-174.5 -170.5q61 268 186.5 419t282.5 151q101 0 172.5 -56.5t94.5 -152.5l133 108q-38 122 -134 190t-229 68q-126 0 -240 -53.5t-201.5 -149t-152 -223t-98 -280.5t-33.5 -316q0 -216 103.5 -339 t287.5 -123q116 0 228.5 48t196.5 127t136 188.5t52 225.5zM266 420q0 105 58.5 199.5t151.5 150t192 55.5q113 0 184.5 -81t71.5 -201q0 -105 -58.5 -200.5t-152 -151.5t-191.5 -56q-112 0 -184 82.5t-72 202.5z" />
<glyph unicode="7" horiz-adv-x="1052" d="M901 1288h-700l35 166h987l-1006 -1454h-203z" />
<glyph unicode="8" horiz-adv-x="1179" d="M451 -16q-179 0 -290.5 103.5t-111.5 260.5q0 80 31 152t82.5 125t108.5 91t118 62q-67 33 -109 99t-42 147q0 78 33 148t87 120.5t123 87.5t142.5 55.5t142.5 18.5q96 0 179.5 -35.5t138.5 -109.5t55 -172q0 -121 -83 -215.5t-202 -143.5q83 -38 135.5 -118.5 t52.5 -182.5q0 -140 -85.5 -255t-220.5 -176.5t-285 -61.5zM637 842q70 0 140 30t121.5 93t51.5 143q0 84 -62.5 134t-156.5 50q-77 0 -147.5 -31.5t-117 -92.5t-46.5 -138q0 -86 65.5 -137t151.5 -51zM604 702q-86 0 -169.5 -40t-140 -116.5t-56.5 -168.5q0 -103 75 -167.5 t176 -64.5q63 0 128.5 24.5t119.5 66t88.5 103.5t34.5 132q0 104 -76 167.5t-180 63.5z" />
<glyph unicode="9" horiz-adv-x="1212" d="M541 473q118 0 226 64t173 170q-59 -268 -185 -418t-284 -150q-99 0 -170.5 56.5t-93.5 152.5l-133 -108q38 -123 133.5 -191.5t228.5 -68.5q156 0 293 83.5t230.5 223.5t147.5 326t54 388q0 217 -104 340t-287 123q-156 0 -298 -80t-229 -217t-87 -293 q0 -172 107 -286.5t278 -114.5zM993 1024q0 -104 -59 -198.5t-152.5 -149.5t-191.5 -55q-113 0 -184.5 81t-71.5 201q0 105 58.5 200t151.5 151.5t191 56.5q112 0 185 -83.5t73 -203.5z" />
<glyph unicode=":" horiz-adv-x="405" d="M172 831l49 230h150l-49 -230h-150zM-4 0l49 229h150l-50 -229h-149z" />
<glyph unicode=";" horiz-adv-x="413" d="M174 831l47 230h150l-49 -230h-148zM-18 -166l79 182h-61l45 213h168l-45 -213l-98 -182h-88z" />
<glyph unicode="&#x3c;" horiz-adv-x="1120" d="M61 573l861 519v-193l-598 -369l598 -362v-201l-861 512v94z" />
<glyph unicode="=" horiz-adv-x="980" d="M166 641v123h625v-123h-625zM166 367v122h625v-122h-625z" />
<glyph unicode="&#x3e;" horiz-adv-x="1118" d="M1020 479l-860 -512v201l598 362l-598 369v193l860 -519v-94z" />
<glyph unicode="?" horiz-adv-x="946" d="M240 432q24 115 79 196.5t154 139.5q19 11 66 36.5t76.5 42t70.5 48.5t65 63t42 77.5t18 99.5q0 89 -54 138.5t-136 49.5q-91 0 -177.5 -56t-144.5 -139l-104 80q78 124 204 194.5t258 70.5q135 0 226.5 -81t91.5 -231q0 -76 -18.5 -137.5t-44.5 -102.5t-74.5 -81 t-87.5 -63t-105 -58q-38 -19 -55 -28.5t-50 -30t-50.5 -39t-39.5 -46.5t-36 -63.5t-23 -79.5h-151zM152 0l51 238h149l-49 -238h-151z" />
<glyph unicode="@" horiz-adv-x="1654" d="M1444 618q0 102 -33.5 196.5t-95.5 170.5t-162.5 122t-224.5 46q-117 0 -233.5 -40.5t-216.5 -115.5t-177.5 -174.5t-121.5 -226t-44 -260.5q0 -157 59 -282t173 -198t266 -73q139 0 315 78l10 -78q-174 -82 -344 -82q-251 0 -408 173.5t-157 453.5q0 131 37.5 254 t102 221t152.5 180t187.5 137t207 85t212.5 30q135 0 247.5 -50t184.5 -133.5t111 -189t39 -219.5q0 -54 -8.5 -119.5t-26 -143.5t-49 -150t-73 -131.5t-102 -95.5t-132.5 -36q-142 0 -142 135q0 32 4 48q-70 -68 -161 -110t-181 -42q-98 0 -173 52t-112.5 136.5 t-37.5 188.5q0 142 70.5 273t186.5 210.5t241 79.5q104 0 174.5 -54.5t101.5 -142.5l37 181h115l-154 -719q-8 -36 -8 -68q0 -41 15.5 -59.5t49.5 -18.5q62 0 117 58.5t89 146t53.5 182.5t19.5 174zM1026 334l49 280q-31 110 -96 165t-148 55q-65 0 -132.5 -34t-120.5 -90 t-87 -136t-34 -166q0 -133 74 -220.5t180 -87.5q96 0 187.5 69.5t127.5 164.5z" />
<glyph unicode="A" horiz-adv-x="1335" d="M774 1454h158l252 -1454h-197l-69 426h-570l-248 -426h-196zM909 569l-100 672l-395 -672h495z" />
<glyph unicode="B" horiz-adv-x="1325" d="M350 1454h692q115 0 180.5 -87.5t65.5 -209.5q0 -130 -77.5 -244t-202.5 -168q90 -30 139 -108t49 -184q0 -130 -72 -235.5t-185 -161.5t-241 -56h-657zM829 809q104 0 185.5 89t81.5 206q0 83 -41.5 136.5t-110.5 53.5h-444l-103 -485h432zM731 160q108 0 195.5 91.5 t87.5 207.5q0 84 -44.5 142t-117.5 58h-487l-105 -499h471z" />
<glyph unicode="C" horiz-adv-x="1337" d="M92 592q0 123 36.5 247.5t108 236t168 198t226.5 137.5t274 51q192 0 310 -87t157 -230l-153 -88q-20 70 -55 118.5t-81 74t-94.5 36t-107.5 10.5q-118 0 -218.5 -41.5t-170 -110t-118.5 -157.5t-72 -184t-23 -189q0 -128 42 -231t128 -166t202 -63q117 0 235.5 65 t200.5 191l136 -84q-70 -111 -174.5 -189.5t-213.5 -113.5t-217 -35q-102 0 -189 33.5t-148 91.5t-104.5 135.5t-64 164.5t-20.5 179z" />
<glyph unicode="D" horiz-adv-x="1417" d="M350 1454h481q134 0 238 -43t168.5 -119.5t97.5 -177t33 -219.5q0 -253 -109.5 -458t-303.5 -321t-433 -116h-481zM557 164q139 0 257 57.5t197 154.5t123 224t44 266q0 192 -98.5 308t-282.5 116h-297l-240 -1126h297z" />
<glyph unicode="E" horiz-adv-x="1187" d="M350 1454h922l-35 -164h-737l-101 -471h641l-32 -153h-641l-107 -502h756l-35 -164h-940z" />
<glyph unicode="F" horiz-adv-x="1157" d="M350 1454h914l-35 -164h-729l-103 -485h613l-33 -154h-612l-140 -651h-184z" />
<glyph unicode="G" horiz-adv-x="1404" d="M844 586l30 139h451l-154 -725h-155l41 197q-223 -207 -459 -207q-151 0 -268.5 86.5t-177.5 224t-60 297.5q0 162 69 321t181 278.5t263 193t306 73.5q192 0 307.5 -84.5t155.5 -232.5l-162 -98q-33 123 -122 186t-218 63q-157 0 -295.5 -102t-218 -261t-79.5 -327 q0 -192 101.5 -322t266.5 -130q226 0 451 231l43 199h-297z" />
<glyph unicode="H" horiz-adv-x="1460" d="M350 1454h185l-134 -629h748l133 629h184l-309 -1454h-184l141 662h-747l-142 -662h-184z" />
<glyph unicode="I" horiz-adv-x="528" d="M350 1452h185l-310 -1452h-184z" />
<glyph unicode="J" horiz-adv-x="966" d="M-80 68l78 149q34 -31 97 -52.5t141 -21.5q64 0 114.5 15.5t89.5 51t68 79.5t54.5 114t44 140t40.5 172l158 737h184l-158 -737q-22 -104 -42.5 -181t-49.5 -158t-62.5 -138t-80 -109t-102.5 -83.5t-130 -50t-163 -18.5q-173 0 -281 91z" />
<glyph unicode="K" horiz-adv-x="1280" d="M350 1452h185l-173 -803l871 805h201l-689 -641l410 -813h-203l-344 707l-289 -263l-94 -444h-184z" />
<glyph unicode="L" horiz-adv-x="1144" d="M350 1454h185l-275 -1290h764l-35 -164h-948z" />
<glyph unicode="M" horiz-adv-x="1716" d="M350 1454h195l291 -944l694 944h192l-309 -1454h-184l239 1124l-632 -862h-105l-266 862l-240 -1124h-184z" />
<glyph unicode="N" horiz-adv-x="1513" d="M350 1454h144l602 -1132l239 1130h185l-310 -1452h-153l-596 1110l-236 -1110h-184z" />
<glyph unicode="O" horiz-adv-x="1476" d="M90 590q0 130 45 260.5t125 239.5t183.5 194t228 132.5t250.5 47.5q96 0 179.5 -33t143 -90.5t102.5 -134.5t64 -165t21 -181q0 -162 -70 -321t-183 -279.5t-265.5 -195t-309.5 -74.5q-120 0 -219 49.5t-162.5 133.5t-98 191.5t-34.5 225.5zM1243 846q0 123 -41 224 t-124 163.5t-195 62.5q-122 0 -235.5 -62t-193 -160t-127.5 -222t-48 -246q0 -124 40.5 -224.5t124 -163t197.5 -62.5q98 0 191.5 40.5t166.5 109.5t128.5 157t85.5 187.5t30 195.5z" />
<glyph unicode="P" horiz-adv-x="1230" d="M350 1454h578q101 0 178 -55.5t115.5 -142.5t38.5 -187q0 -78 -26.5 -158t-75.5 -149t-113 -123t-143.5 -85.5t-162.5 -31.5h-403l-111 -522h-184zM764 686q81 0 152.5 52.5t113 137.5t41.5 177q0 103 -53.5 170t-136.5 67h-381l-129 -604h393z" />
<glyph unicode="Q" horiz-adv-x="1474" d="M1432 860q0 -180 -84 -353.5t-226 -301.5l127 -205h-180l-70 113q-188 -123 -395 -123q-120 0 -219 49.5t-162.5 133.5t-98 191.5t-34.5 225.5q0 130 45 260.5t125 239.5t183.5 194t228 132.5t250.5 47.5q96 0 179.5 -33t143 -90.5t102.5 -134.5t64 -165t21 -181z M641 156q145 0 279 88l-144 231h178l82 -131q96 102 151.5 236.5t55.5 265.5q0 123 -41 224.5t-124 164.5t-195 63q-122 0 -235.5 -62t-193 -160.5t-127.5 -223t-48 -246.5q0 -124 40.5 -224.5t124 -163t197.5 -62.5z" />
<glyph unicode="R" horiz-adv-x="1296" d="M41 0l309 1454h594q101 0 178 -55.5t115.5 -142.5t38.5 -187q0 -171 -113.5 -321t-275.5 -191l215 -557h-209l-201 522h-356l-111 -522h-184zM782 686q120 0 211.5 113t91.5 250q0 101 -52.5 171t-133.5 70h-399l-129 -604h411z" />
<glyph unicode="S" horiz-adv-x="1204" d="M-25 190l121 156q49 -76 170 -135t269 -59q166 0 261 68.5t95 191.5q0 39 -16 70.5t-42 54.5t-72.5 44t-93 36t-118.5 34q-181 49 -266.5 117.5t-85.5 192.5q0 153 81.5 269t217 175t301.5 59q264 0 420 -166l-117 -149q-36 61 -130.5 106t-211.5 45q-179 0 -269 -76 t-90 -204q0 -85 70 -128t240 -85q95 -24 161 -50t120 -65t80 -94t26 -129q0 -119 -47.5 -213t-130.5 -152t-190.5 -88t-231.5 -30q-159 0 -292.5 52t-228.5 152z" />
<glyph unicode="T" horiz-adv-x="1200" d="M649 1290h-473l35 164h1130l-34 -164h-473l-275 -1290h-184z" />
<glyph unicode="U" horiz-adv-x="1484" d="M145 475q0 109 29 244l156 735h184l-156 -735q-24 -111 -24 -213q0 -77 16 -138.5t51 -110t96.5 -75t145.5 -26.5q91 0 169.5 32t135 85t101.5 127.5t73 152.5t47 166l156 735h184l-155 -735q-33 -152 -93.5 -280.5t-150 -230.5t-218 -160t-282.5 -58q-100 0 -179.5 24.5 t-132.5 68t-87.5 105.5t-50 133t-15.5 154z" />
<glyph unicode="V" horiz-adv-x="1331" d="M195 1454h194l189 -1223l706 1223h195l-871 -1454h-159z" />
<glyph unicode="W" horiz-adv-x="2052" d="M190 1454h199l197 -1241l358 600l-104 633h174l71 -506l289 506h174l-372 -633l102 -600l723 1241h203l-887 -1454h-158l-125 686l-420 -686h-157z" />
<glyph unicode="X" horiz-adv-x="1249" d="M547 717l-361 737h205l285 -606l541 606h202l-674 -737l349 -717h-203l-273 586l-520 -586h-204z" />
<glyph unicode="Y" horiz-adv-x="1253" d="M508 535l-326 919h203l250 -758l575 758h201l-721 -924l-112 -530h-185z" />
<glyph unicode="Z" horiz-adv-x="1228" d="M-39 143l1124 1147h-862l35 164h1077l-30 -143l-1108 -1147h864l-35 -164h-1096z" />
<glyph unicode="[" horiz-adv-x="542" d="M20 -82l340 1598h281l-31 -148h-114l-277 -1302h115l-31 -148h-283z" />
<glyph unicode="\" horiz-adv-x="1138" d="M424 1454l537 -1454h-201l-539 1454h203z" />
<glyph unicode="]" horiz-adv-x="542" d="M-55 -82l30 148h115l277 1302h-115l33 148h280l-338 -1598h-282z" />
<glyph unicode="^" horiz-adv-x="1138" d="M104 621l406 833h152l403 -833h-154l-325 671l-332 -671h-150z" />
<glyph unicode="_" horiz-adv-x="989" d="M-39 -164l35 164h731l-35 -164h-731z" />
<glyph unicode="`" horiz-adv-x="495" d="M307 1495h176l70 -207l-125 -41z" />
<glyph unicode="a" horiz-adv-x="1241" d="M45 424q0 126 49 247.5t129.5 212.5t190 147t223.5 56q118 0 200.5 -64.5t118.5 -166.5l48 213h180l-180 -848q-5 -25 -5 -26q0 -20 10.5 -28.5t34.5 -10.5l-32 -156q-62 -8 -72 -8q-55 0 -86 25.5t-31 66.5q0 30 19 117q-79 -102 -192.5 -161.5t-223.5 -59.5 q-174 0 -277.5 128t-103.5 316zM856 375l64 307q-13 104 -91 177t-172 73q-110 0 -208.5 -71.5t-155.5 -182t-57 -225.5q0 -135 74 -226.5t194 -91.5q93 0 202.5 72t149.5 168z" />
<glyph unicode="b" horiz-adv-x="1226" d="M213 201l-43 -201h-160l318 1495h180l-135 -639q88 108 195.5 169.5t222.5 61.5q86 0 155 -35.5t112 -96.5t66 -139t23 -165q0 -131 -52 -256t-136.5 -215t-195.5 -145t-224 -55q-122 0 -206.5 60t-119.5 161zM956 618q0 130 -67.5 222t-183.5 92q-101 0 -200 -71 t-169 -179l-66 -309q0 -98 77.5 -168t184.5 -70q105 0 204 68.5t159.5 181t60.5 233.5z" />
<glyph unicode="c" horiz-adv-x="1087" d="M45 432q0 170 83.5 320t233.5 242.5t328 92.5q153 0 250 -69t129 -191l-186 -55q-25 78 -82.5 119t-141.5 41q-108 0 -207 -64t-160 -175t-61 -238q0 -139 71.5 -229.5t186.5 -90.5q87 0 174.5 49t124.5 117l166 -53q-71 -119 -205.5 -193.5t-283.5 -74.5 q-131 0 -227.5 61.5t-144.5 162.5t-48 228z" />
<glyph unicode="d" horiz-adv-x="1241" d="M45 424q0 126 49 247.5t129.5 212.5t190 147t223.5 56q118 0 200.5 -64.5t118.5 -166.5l138 639h180l-270 -1274q-5 -25 -5 -26q0 -20 10.5 -28.5t34.5 -10.5l-32 -156q-62 -8 -72 -8q-55 0 -86 25.5t-31 66.5q0 37 19 117q-79 -102 -192.5 -161.5t-223.5 -59.5 q-174 0 -277.5 128t-103.5 316zM856 375l64 307q-13 104 -91 177t-172 73q-110 0 -208.5 -71.5t-155.5 -182t-57 -225.5q0 -135 74 -226.5t194 -91.5q93 0 202.5 72t149.5 168z" />
<glyph unicode="e" horiz-adv-x="1103" d="M467 469q-123 0 -236 10q-2 -16 -2 -47q0 -136 68.5 -226.5t198.5 -90.5q95 0 185 48.5t140 129.5l146 -43q-76 -120 -213.5 -195t-286.5 -75q-195 0 -307.5 127.5t-112.5 324.5q0 127 49.5 246.5t134.5 209.5t206 144.5t257 54.5q162 0 259.5 -74.5t97.5 -213.5 q0 -330 -584 -330zM682 952q-85 0 -158 -29t-124.5 -79t-87 -110t-56.5 -130q137 -10 217 -10q416 0 416 207q0 76 -55 113.5t-152 37.5z" />
<glyph unicode="f" horiz-adv-x="684" d="M258 928h-137l31 141h137l4 23q38 196 148.5 310t256.5 114q121 0 213 -66l-73 -133q-23 20 -61 32.5t-75 12.5q-83 0 -141 -68t-86 -196l-6 -29h268l-30 -141h-269l-288 -1362h-181z" />
<glyph unicode="g" horiz-adv-x="1226" d="M-78 -221l123 92q39 -92 123.5 -140t196.5 -48q147 0 262 85t149 244l39 189q-74 -97 -184.5 -155t-218.5 -58q-167 0 -267 127t-100 309q0 169 82.5 322t223 247t298.5 94q229 0 328 -231l45 213h160l-226 -1057q-31 -147 -123.5 -255t-220.5 -161t-276 -53 q-164 0 -263 60.5t-151 175.5zM854 375l66 307q-17 109 -93 179.5t-174 70.5q-112 0 -211 -74t-155 -184t-56 -221q0 -134 75 -226t194 -92q103 0 208 73.5t146 166.5z" />
<glyph unicode="h" horiz-adv-x="1161" d="M328 1495h180l-139 -655q85 116 202 181.5t238 65.5q246 0 246 -266q0 -83 -21 -182l-135 -639h-180l127 598q16 85 16 139q0 93 -40 141t-117 48q-99 0 -209 -81t-168 -200l-138 -645h-180z" />
<glyph unicode="i" horiz-adv-x="462" d="M328 1495h180l-47 -225h-180zM238 1069h180l-228 -1069h-180z" />
<glyph unicode="j" horiz-adv-x="475" d="M340 1495h180l-49 -225h-180zM-416 -295l109 121q39 -47 123 -47q63 0 122 50.5t74 123.5l238 1116h180l-235 -1104q-32 -149 -147.5 -247.5t-246.5 -98.5q-143 0 -217 86z" />
<glyph unicode="k" horiz-adv-x="1110" d="M1051 872q0 -132 -88.5 -242.5t-255.5 -180.5l235 -449h-194l-254 522q186 41 289.5 132.5t103.5 193.5q0 92 -96 92q-135 0 -281.5 -134.5t-216.5 -324.5l-103 -481h-180l318 1495h180l-150 -707q232 299 480 299q107 0 160 -57.5t53 -157.5z" />
<glyph unicode="l" horiz-adv-x="573" d="M51 145q0 20 8 66l273 1284h178l-258 -1219q-4 -28 -4 -38q0 -42 24 -65t68 -23q50 0 113 24l-7 -145q-45 -18 -108 -30.5t-109 -12.5q-85 0 -131.5 42t-46.5 117z" />
<glyph unicode="m" horiz-adv-x="1808" d="M238 1069h163l-49 -229q82 114 197 180.5t233 66.5t181.5 -67.5t66.5 -192.5q191 260 438 260q238 0 238 -260q0 -76 -23 -188l-137 -639h-180l127 598q18 86 18 150q0 178 -147 178q-100 0 -199 -78.5t-161 -204.5l-136 -643h-180l127 598q19 93 19 152q0 176 -146 176 q-101 0 -199.5 -77.5t-160.5 -203.5l-138 -645h-180z" />
<glyph unicode="n" horiz-adv-x="1161" d="M238 1069h163l-49 -229q83 113 211.5 180t261.5 67q234 0 234 -251q0 -68 -25 -197l-135 -639h-180l127 598q18 88 18 154q0 174 -145 174q-104 0 -218 -80.5t-173 -200.5l-138 -645h-180z" />
<glyph unicode="o" horiz-adv-x="1183" d="M45 430q0 176 85 327.5t230.5 240.5t315.5 89q105 0 187.5 -35t134.5 -97t79 -143.5t27 -176.5q0 -175 -85 -326t-231.5 -240t-318.5 -89q-139 0 -236.5 61.5t-142.5 161.5t-45 227zM915 608q0 144 -70.5 234t-197.5 90q-78 0 -153.5 -37t-133.5 -99.5t-93.5 -152 t-35.5 -188.5q0 -143 71 -231.5t198 -88.5q106 0 201 60.5t154.5 170.5t59.5 242z" />
<glyph unicode="p" horiz-adv-x="1228" d="M238 1069h159l-43 -201q84 101 193.5 160t222.5 59q171 0 274 -129.5t103 -316.5q0 -168 -80.5 -320.5t-217 -246.5t-290.5 -94q-120 0 -203 63t-120 168l-138 -647h-180zM958 612q0 136 -74 228t-194 92q-60 0 -131.5 -32t-132.5 -88.5t-88 -119.5l-66 -305 q21 -109 93.5 -180.5t171.5 -71.5q110 0 208.5 71.5t155.5 181.5t57 224z" />
<glyph unicode="q" horiz-adv-x="1226" d="M819 211q-187 -231 -422 -231q-163 0 -257.5 125t-94.5 311q0 131 52.5 255.5t137.5 215t196.5 145.5t225.5 55q115 0 200.5 -60.5t121.5 -160.5l43 203h160l-320 -1505h-180zM852 365l66 307q0 104 -75.5 182t-176.5 78q-109 0 -210.5 -71t-162 -184t-60.5 -231 q0 -133 70.5 -222t188.5 -89q100 0 192.5 63.5t167.5 166.5z" />
<glyph unicode="r" horiz-adv-x="724" d="M238 1069h168l-54 -248q78 113 178.5 181.5t196.5 68.5q29 0 53 -4l-32 -156q-129 -3 -241 -69.5t-177 -182.5l-140 -659h-180z" />
<glyph unicode="s" horiz-adv-x="972" d="M-49 135l102 121q143 -137 334 -137q124 0 200.5 52.5t76.5 139.5q0 64 -47 92.5t-175 65.5q-15 4 -22 6q-51 15 -81 24.5t-66 23t-55.5 25.5t-40.5 29t-31 37t-16.5 45.5t-6.5 57.5q0 107 61 192t166.5 131.5t235.5 46.5q230 0 358 -141l-104 -108q-52 59 -115 85.5 t-147 26.5q-123 0 -200 -50t-77 -142q0 -61 40 -86.5t163 -59.5q73 -20 121.5 -37t93.5 -40.5t71 -50.5t41 -64.5t15 -85.5q0 -152 -131 -253t-344 -101q-130 0 -241 40.5t-179 114.5z" />
<glyph unicode="t" horiz-adv-x="692" d="M98 150q0 29 6 59l154 719h-139l31 141h137l75 356h181l-76 -356h227l-30 -141h-226l-141 -664q-4 -20 -4 -31q0 -41 25.5 -61t66.5 -20q66 0 160 45l10 -144q-39 -28 -112.5 -47.5t-151.5 -19.5q-87 0 -140 41.5t-53 122.5z" />
<glyph unicode="u" horiz-adv-x="1181" d="M68 250q0 71 22 178l137 641h179l-130 -606q-18 -83 -18 -141q0 -187 160 -187q104 0 209 71t176 193l141 670h180l-180 -848q-4 -20 -4 -26q0 -20 10.5 -28.5t34.5 -10.5l-33 -156q-62 -8 -71 -8q-55 0 -84 24t-29 66q0 35 23 147q-91 -119 -216.5 -184t-257.5 -65 q-249 0 -249 270z" />
<glyph unicode="v" horiz-adv-x="1040" d="M115 1069h186l121 -911q358 495 465 911h172q-137 -498 -580 -1069h-194z" />
<glyph unicode="w" horiz-adv-x="1572" d="M100 1069h187l170 -911q138 181 235 338l-143 573h186l82 -346q87 176 133 346h172q-78 -278 -252 -567l84 -344q358 495 465 911h172q-138 -500 -579 -1069h-195l-76 301q-116 -165 -227 -301h-195z" />
<glyph unicode="x" horiz-adv-x="1007" d="M387 532l-264 537h188l189 -393l8 -33l24 33l355 393h190l-491 -537l266 -532h-190l-189 391l-12 31l-23 -31l-354 -391h-190z" />
<glyph unicode="y" horiz-adv-x="1026" d="M-72 -313q130 19 192 57t132 143l59 90l-207 1092h187l147 -907l70 114q172 283 248 445.5t123 347.5h178q-55 -198 -137 -364.5t-285 -493.5l-164 -264q-140 -225 -253 -314t-265 -92z" />
<glyph unicode="z" horiz-adv-x="962" d="M-47 117l807 821h-615l29 131h815l-24 -117l-803 -821h631l-29 -131h-836z" />
<glyph unicode="{" horiz-adv-x="542" d="M502 1368l-107 -500q-7 -32 -29 -67.5t-57 -63.5q33 -36 33 -100q0 -21 -2 -31l-111 -522h107l-31 -147h-227q-33 0 -33 38q0 15 2 23l117 555q2 10 2 31q0 35 -16 60.5t-44 29.5l29 131q37 0 69.5 40t39.5 77l112 532q7 33 25.5 47.5t32.5 14.5h227l-33 -148h-106z" />
<glyph unicode="|" horiz-adv-x="618" d="M242 -266v1853h155v-1853h-155z" />
<glyph unicode="}" horiz-adv-x="540" d="M254 1368l31 148h225q11 0 23 -10t12 -33q0 -13 -2 -19l-115 -532q-2 -8 -2 -25q0 -36 15 -64t46 -28l-28 -131q-38 -6 -69 -41t-40 -80l-117 -555q-7 -32 -24.5 -46.5t-34.5 -14.5h-225l31 147h108l111 522q7 31 29 68t55 63q-33 42 -33 99q0 12 4 32l106 500h-106z" />
<glyph unicode="~" horiz-adv-x="1050" d="M381 715q43 0 85 -18.5t70.5 -40t67.5 -40t76 -18.5q35 0 66.5 15t50.5 35t29.5 35.5t11.5 21.5h104q-2 -7 -13.5 -29t-37 -55.5t-58 -63t-80.5 -51t-100 -21.5q-45 0 -88.5 18t-72.5 39.5t-66 39.5t-70 18q-44 0 -81 -29t-52.5 -54.5t-15.5 -31.5h-107q3 12 15.5 36.5 t37.5 58.5t56.5 63.5t77.5 50.5t94 21z" />
<glyph unicode="&#xa1;" horiz-adv-x="526" d="M532 1462l-53 -254h-180l53 254h180zM428 971l-207 -977h-180l207 977h180z" />
<glyph unicode="&#xa2;" horiz-adv-x="1122" d="M360 -246l50 228q-107 9 -189 75.5t-123 165t-41 209.5q0 152 74 294t210 241t302 118l51 236h88l-49 -236q138 -4 227 -71t123 -187l-186 -55q-46 144 -199 154l-166 -787q74 7 156.5 52t114.5 110l166 -53q-49 -84 -137 -147.5t-175 -92t-159 -28.5l-47 -226h-91z M444 147l164 773q-150 -20 -257 -164.5t-107 -302.5q0 -113 54.5 -199.5t145.5 -106.5z" />
<glyph unicode="&#xa3;" horiz-adv-x="1005" d="M707 1464q110 0 196 -57.5t129 -157.5l-123 -110q-29 79 -94.5 127.5t-142.5 48.5q-101 0 -178.5 -78.5t-77.5 -187.5q0 -39 9 -83t26 -105t24 -93h352l-30 -139h-305q0 -64 -10.5 -112.5t-41 -106.5t-87 -122t-146.5 -147q79 21 147 21q54 0 137 -18.5t127 -18.5 q66 0 173 37l14 -137q-115 -56 -227 -56q-58 0 -162 25.5t-166 25.5q-113 0 -232 -36l-16 131q187 157 257.5 263t70.5 232v19h-217l28 139h168q-4 17 -18.5 68.5t-20.5 75.5t-12 64t-6 73q0 110 66 207t170.5 152.5t218.5 55.5z" />
<glyph unicode="&#xa4;" horiz-adv-x="1161" d="M371 995q94 72 223 72q125 0 223 -72l146 148l84 -84l-148 -148q68 -96 68 -221q0 -123 -70 -221l150 -147l-74 -74l-152 141q-97 -74 -227 -74q-129 0 -229 74l-150 -141l-74 74l148 147q-68 100 -68 221q0 127 66 221l-146 148l84 84zM594 440q94 0 159.5 73t65.5 179 q0 105 -65.5 176.5t-159.5 71.5t-159.5 -72.5t-65.5 -179.5q0 -104 65.5 -176t159.5 -72z" />
<glyph unicode="&#xa5;" horiz-adv-x="1351" d="M922 772h157l-26 -123h-224l-92 -119l-12 -57h291l-25 -123h-293l-73 -350h-185l74 350h-287l27 123h287l14 62l-39 114h-225l26 123h160l-246 682h201l248 -758l575 758h203z" />
<glyph unicode="&#xa6;" horiz-adv-x="606" d="M391 1587v-825h-155v825h155zM391 559v-825h-155v825h155z" />
<glyph unicode="&#xa7;" horiz-adv-x="1019" d="M850 270q0 -89 -33 -165.5t-85 -127.5t-118.5 -87.5t-133 -53t-128.5 -16.5q-128 0 -217 57.5t-141 136.5l139 111q101 -133 248 -133q65 0 127.5 27t105.5 82.5t43 125.5q0 38 -15.5 63.5t-44.5 38.5t-56.5 18.5t-65.5 8.5q-153 9 -239 81t-86 198q0 132 90 231 q-22 24 -36 70t-14 100q0 118 72.5 218.5t182 155t223.5 54.5q74 0 132.5 -18.5t96.5 -51.5t62 -66.5t42 -76.5l-153 -65q-18 59 -74.5 88t-130.5 29q-103 0 -185.5 -67.5t-82.5 -172.5q0 -140 188 -143q66 -1 124.5 -15.5t108 -45t78.5 -83.5t29 -123q0 -71 -30 -137 t-70 -104q47 -41 47 -142zM645 461q35 25 58.5 71.5t23.5 92.5q0 76 -56 111.5t-132 35.5q-86 0 -142 27q-30 -27 -51.5 -71.5t-21.5 -92.5q0 -51 24 -82.5t63.5 -44.5t80 -18.5t85.5 -11.5t68 -17z" />
<glyph unicode="&#xa8;" horiz-adv-x="677" d="M260 1278l45 209h152l-45 -209h-152zM582 1278l45 209h149l-43 -209h-151z" />
<glyph unicode="&#xa9;" horiz-adv-x="1738" d="M133 727q0 208 98 377t271 264.5t387 95.5q130 0 247.5 -36t211 -102.5t162.5 -156.5t106 -203.5t37 -238.5q0 -157 -58 -294.5t-159 -235.5t-243 -154.5t-304 -56.5q-160 0 -300.5 56.5t-240.5 154.5t-157.5 235.5t-57.5 294.5zM1569 723q0 187 -88 339t-243.5 238 t-348.5 86q-142 0 -267.5 -50.5t-214.5 -138t-140.5 -210.5t-51.5 -262q0 -185 87 -336.5t242 -238.5t345 -87t345 82.5t245 234t90 343.5zM416 727q0 72 18.5 140.5t57.5 130.5t94 108.5t135 74t174 27.5q144 0 253.5 -62t158.5 -175l-174 -56q-35 75 -101.5 106.5 t-136.5 31.5q-138 0 -216.5 -97.5t-78.5 -228.5q0 -98 47 -174.5t114 -113t138 -36.5q74 0 144.5 39.5t101.5 104.5l174 -53q-38 -94 -151.5 -170t-262.5 -76q-133 0 -244 59.5t-178 170t-67 249.5z" />
<glyph unicode="&#xaa;" horiz-adv-x="856" d="M150 891q0 117 100 193.5t244 76.5q106 0 178 -35l10 52q6 27 6 49q0 60 -36 93.5t-103 33.5q-101 0 -238 -84l-26 92q155 94 297 94q119 0 184 -54.5t65 -156.5q0 -32 -10 -84l-57 -268q-2 -6 -2 -19q0 -27 33 -30l-27 -127q-30 -6 -55 -6q-90 0 -90 65q0 13 8 62 q-61 -64 -137.5 -98.5t-155.5 -34.5q-84 0 -136 52.5t-52 133.5zM631 944l20 98q-55 31 -151 31q-90 0 -150.5 -42t-60.5 -109q0 -47 31 -78t81 -31q72 0 146 40.5t84 90.5z" />
<glyph unicode="&#xab;" horiz-adv-x="1179" d="M74 573l573 371l-33 -151l-405 -263l295 -256l-33 -151l-418 356zM553 573l573 371l-30 -151l-406 -263l295 -256l-33 -151l-417 356z" />
<glyph unicode="&#xac;" horiz-adv-x="1169" d="M1059 768l-113 -522h-153l75 358h-735l35 164h891z" />
<glyph unicode="&#xad;" horiz-adv-x="1146" d="M98 477l35 164h891l-35 -164h-891z" />
<glyph unicode="&#xae;" horiz-adv-x="1738" d="M133 727q0 156 57.5 293t157.5 234.5t241 153.5t302 56t302.5 -56t242.5 -153.5t159 -234.5t58 -293q0 -157 -58 -294.5t-159 -235.5t-242.5 -154.5t-302.5 -56.5t-302 56.5t-241 154.5t-157.5 235.5t-57.5 294.5zM1567 725q0 139 -51.5 261.5t-140.5 210t-215 138.5 t-269 51t-268.5 -51t-214 -138.5t-139 -209.5t-50.5 -260q0 -140 50.5 -263t139 -211.5t214 -140t268.5 -51.5q189 0 343 83t243.5 235.5t89.5 345.5zM573 1186h394q117 0 197.5 -91.5t80.5 -203.5q0 -96 -54.5 -174t-141.5 -99l223 -352h-150l-209 332h-206v-332h-134v920z M961 715q72 0 112.5 49t40.5 127q0 77 -45.5 125.5t-114.5 48.5h-247v-350h254z" />
<glyph unicode="&#xaf;" horiz-adv-x="776" d="M272 1335l25 119h571l-26 -119h-570z" />
<glyph unicode="&#xb0;" horiz-adv-x="542" d="M231 1262q0 85 65.5 153t154.5 68q63 0 102 -41.5t39 -104.5q0 -90 -65.5 -154.5t-153.5 -64.5q-63 0 -102.5 40.5t-39.5 103.5zM494 1317q0 31 -17.5 50t-46.5 19q-38 0 -70 -30.5t-32 -69.5q0 -33 17.5 -52.5t47.5 -19.5q36 0 68.5 31.5t32.5 71.5z" />
<glyph unicode="&#xb1;" horiz-adv-x="993" d="M811 827v-147h-258v-279h-164v279h-258v147h258v279h164v-279h258zM131 104v148h680v-148h-680z" />
<glyph unicode="&#xb2;" horiz-adv-x="784" d="M111 819q33 158 109 244t222 141q17 6 53 19t55.5 20.5t51 21t49 24t40 27t34 33t19.5 38.5t8 47q0 116 -146 116q-84 0 -159 -35t-123 -79l-56 86q16 17 45.5 38t75.5 45t110 40t132 16q122 0 186 -55t64 -148q0 -118 -77.5 -192t-250.5 -131q-210 -68 -240 -205h461 l-24 -111h-639z" />
<glyph unicode="&#xb3;" horiz-adv-x="776" d="M143 985l78 62q0 -49 58 -94.5t155 -45.5q99 0 173.5 48.5t74.5 115.5q0 60 -69 92.5t-191 32.5h-45l20 102h45q136 0 214.5 37t78.5 109q0 51 -48.5 81.5t-117.5 30.5q-155 0 -247 -110l-56 88q50 59 139 93t185 34q120 0 194 -55.5t74 -141.5q0 -82 -58 -136.5 t-165 -76.5q75 -12 118.5 -60.5t43.5 -115.5q0 -82 -57 -144.5t-142.5 -92t-183.5 -29.5q-122 0 -196 47t-75 129z" />
<glyph unicode="&#xb4;" horiz-adv-x="493" d="M373 1247l-111 41l156 207h178z" />
<glyph unicode="&#xb5;" horiz-adv-x="1241" d="M254 1069h180l-129 -606q-18 -79 -18 -141q0 -187 164 -187q101 0 206 71.5t174 192.5l144 670h180l-180 -848q-4 -20 -4 -26q0 -20 11 -28.5t36 -10.5l-35 -156q-62 -8 -74 -8q-52 0 -82 24t-30 64q0 51 24 149q-69 -102 -186 -175.5t-227 -73.5q-83 0 -129 44t-54 113 l-110 -571h-181z" />
<glyph unicode="&#xb6;" horiz-adv-x="1218" d="M801 1454h508l-31 -139h-135l-316 -1479h-155l133 623h-127l-133 -623h-156l133 623q-185 3 -288 106t-103 279q0 276 182 443t488 167zM551 598l154 717q-191 -3 -303.5 -126t-112.5 -312q0 -129 72 -200t190 -79zM987 1315h-127l-153 -717h127z" />
<glyph unicode="&#xb7;" horiz-adv-x="407" d="M102 502l54 254h151l-53 -254h-152z" />
<glyph unicode="&#xb8;" horiz-adv-x="612" d="M115 -381q-109 0 -195 57l72 101q65 -45 121 -45q64 0 101.5 33t37.5 94q0 74 -80 141l72 47q112 -93 112 -203q0 -102 -65.5 -163.5t-175.5 -61.5z" />
<glyph unicode="&#xb9;" horiz-adv-x="550" d="M578 932l-25 -113h-412l25 113h156l127 602q-30 -30 -97 -65t-110 -35l24 112q37 0 88.5 28t85 55t35.5 32h115l-156 -729h144z" />
<glyph unicode="&#xba;" horiz-adv-x="882" d="M172 1008q0 115 59 218.5t162 166.5t223 63q132 0 208.5 -86t76.5 -217q0 -114 -58.5 -217t-162 -167t-223.5 -64q-133 0 -209 87t-76 216zM754 1133q0 85 -45.5 140.5t-118.5 55.5q-104 0 -187.5 -90.5t-83.5 -212.5q0 -86 45.5 -141.5t118.5 -55.5q103 0 187 91.5 t84 212.5z" />
<glyph unicode="&#xbb;" horiz-adv-x="1179" d="M586 479l-570 -356l33 151l404 256l-293 263l30 151l416 -371zM1067 479l-569 -356l30 151l404 256l-293 263l33 151l415 -371z" />
<glyph unicode="&#xbc;" horiz-adv-x="1667" d="M543 768l-25 -113h-412l25 113h156l127 602q-30 -30 -97 -65t-110 -35l24 112q37 0 88.5 28t85 55t35.5 32h115l-156 -729h144zM31 68l692 690l670 706l71 -75l-684 -687l-680 -712zM1294 205h-438l23 108l583 518h78l-110 -516h116l-24 -110h-115l-43 -205h-113z M1323 315l78 369l-406 -369h328z" />
<glyph unicode="&#xbd;" horiz-adv-x="1656" d="M543 768l-25 -113h-412l25 113h156l127 602q-30 -30 -97 -65t-110 -35l24 112q37 0 88.5 28t85 55t35.5 32h115l-156 -729h144zM31 68l692 690l670 706l71 -75l-684 -687l-680 -712zM838 0q31 157 105 243t214 142q17 6 51.5 19t53.5 20.5t49 20.5t47.5 24t38.5 27 t32 32.5t19 38.5t8 47q0 117 -141 117q-80 0 -153.5 -35.5t-119.5 -79.5l-53 86q17 18 45 38.5t72 45t106 40.5t127 16q118 0 180 -55.5t62 -147.5q0 -118 -75.5 -192.5t-241.5 -131.5q-202 -68 -232 -204h445l-23 -111h-616z" />
<glyph unicode="&#xbe;" horiz-adv-x="1892" d="M109 819l77 62q0 -49 58 -94.5t155 -45.5q99 0 173.5 48.5t74.5 115.5q0 60 -69 92.5t-191 32.5h-45l20 103h46q136 0 214 36.5t78 108.5q0 51 -48 82t-117 31q-155 0 -248 -111l-56 88q50 59 139 93t185 34q120 0 194 -55.5t74 -141.5q0 -82 -58 -136.5t-165 -76.5 q75 -12 118.5 -60.5t43.5 -115.5q0 -82 -57 -144.5t-142.5 -92t-183.5 -29.5q-122 0 -195.5 47t-74.5 129zM256 68l692 690l670 706l72 -75l-684 -687l-680 -712zM1520 205h-439l23 108l584 518h77l-110 -516h117l-25 -110h-115l-43 -205h-112zM1548 315l78 369l-405 -369 h327z" />
<glyph unicode="&#xbf;" horiz-adv-x="935" d="M748 1036l-52 -237h-149l49 237h152zM659 604q-24 -115 -79 -196.5t-154 -139.5q-19 -11 -66 -36t-76.5 -42t-70.5 -48.5t-65.5 -62.5t-42 -77.5t-17.5 -99.5q0 -89 54.5 -139t136.5 -50q91 0 177 55.5t144 139.5l105 -80q-78 -123 -204.5 -193.5t-258.5 -70.5 q-135 0 -226.5 80.5t-91.5 230.5q0 76 18.5 137.5t44.5 102.5t74.5 81t87.5 63t105 58q38 19 55 28.5t50 30t50.5 39t39.5 46.5t36 63.5t23 79.5h151z" />
<glyph unicode="&#xc0;" horiz-adv-x="1335" d="M672 1880h176l70 -207l-125 -41zM774 1454h158l252 -1454h-197l-69 426h-570l-248 -426h-196zM909 569l-100 672l-395 -672h495z" />
<glyph unicode="&#xc1;" horiz-adv-x="1335" d="M940 1632l-111 41l156 207h178zM774 1454h158l252 -1454h-197l-69 426h-570l-248 -426h-196zM909 569l-100 672l-395 -672h495z" />
<glyph unicode="&#xc2;" horiz-adv-x="1335" d="M647 1696l238 184h131l158 -184l-109 -49l-137 129l-193 -129zM774 1454h158l252 -1454h-197l-69 426h-570l-248 -426h-196zM909 569l-100 672l-395 -672h495z" />
<glyph unicode="&#xc3;" horiz-adv-x="1335" d="M793 1755q-39 0 -67.5 -24t-38 -45t-9.5 -29h-107q4 18 20 48.5t44.5 69t76 66t101.5 27.5q37 0 69.5 -14t52.5 -30t49 -30t60 -14q34 0 61 14t41.5 34t21 32.5t8.5 19.5h104q-3 -16 -19.5 -47t-46 -69.5t-80 -66.5t-108.5 -28q-39 0 -73.5 13.5t-55.5 29.5t-48.5 29.5 t-55.5 13.5zM774 1454h158l252 -1454h-197l-69 426h-570l-248 -426h-196zM909 569l-100 672l-395 -672h495z" />
<glyph unicode="&#xc4;" horiz-adv-x="1335" d="M668 1663l45 209h151l-45 -209h-151zM989 1663l45 209h150l-43 -209h-152zM774 1454h158l252 -1454h-197l-69 426h-570l-248 -426h-196zM909 569l-100 672l-395 -672h495z" />
<glyph unicode="&#xc5;" horiz-adv-x="1335" d="M950 1880q62 0 97.5 -31t35.5 -84q0 -73 -55 -120.5t-139 -47.5q-61 0 -97 31t-36 84q0 74 56.5 121t137.5 47zM840 1724q0 -27 17 -45t46 -18q36 0 67 27t31 65q0 29 -18 46.5t-47 17.5q-38 0 -67 -27t-29 -66zM774 1454h158l252 -1454h-197l-69 426h-570l-248 -426 h-196zM909 569l-100 672l-395 -672h495z" />
<glyph unicode="&#xc6;" horiz-adv-x="1892" d="M1024 1454h954l-34 -164h-723l-99 -467h617l-35 -164h-617l-106 -495h739l-34 -164h-922l92 426h-481l-338 -426h-201zM877 590l139 649l-524 -649h385z" />
<glyph unicode="&#xc7;" horiz-adv-x="1337" d="M651 154q117 0 235.5 65t200.5 191l136 -84q-100 -160 -261.5 -246.5t-326.5 -91.5q53 -66 53 -144q0 -102 -66 -163.5t-176 -61.5q-108 0 -194 57l72 101q65 -45 120 -45q64 0 102 33.5t38 93.5q0 74 -80 141q-132 27 -227.5 119t-140 213.5t-44.5 259.5 q0 123 36.5 247.5t108 236t168 198t226.5 137.5t274 51q192 0 310 -87t157 -230l-153 -88q-20 70 -55 118.5t-81 74t-94.5 36t-107.5 10.5q-118 0 -218.5 -41.5t-170 -110t-118.5 -157.5t-72 -184t-23 -189q0 -128 42 -231t128 -166t202 -63z" />
<glyph unicode="&#xc8;" horiz-adv-x="1187" d="M602 1880h176l70 -207l-125 -41zM350 1454h922l-35 -164h-737l-101 -471h641l-32 -153h-641l-107 -502h756l-35 -164h-940z" />
<glyph unicode="&#xc9;" horiz-adv-x="1187" d="M870 1632l-110 41l155 207h179zM350 1454h922l-35 -164h-737l-101 -471h641l-32 -153h-641l-107 -502h756l-35 -164h-940z" />
<glyph unicode="&#xca;" horiz-adv-x="1187" d="M578 1696l237 184h131l158 -184l-109 -49l-137 129l-192 -129zM350 1454h922l-35 -164h-737l-101 -471h641l-32 -153h-641l-107 -502h756l-35 -164h-940z" />
<glyph unicode="&#xcb;" horiz-adv-x="1187" d="M598 1663l45 209h152l-45 -209h-152zM920 1663l45 209h149l-43 -209h-151zM350 1454h922l-35 -164h-737l-101 -471h641l-32 -153h-641l-107 -502h756l-35 -164h-940z" />
<glyph unicode="&#xcc;" horiz-adv-x="528" d="M256 1880h176l70 -207l-125 -41zM350 1452h185l-310 -1452h-184z" />
<glyph unicode="&#xcd;" horiz-adv-x="528" d="M524 1632l-110 41l155 207h179zM350 1452h185l-310 -1452h-184z" />
<glyph unicode="&#xce;" horiz-adv-x="528" d="M231 1696l238 184h131l158 -184l-109 -49l-137 129l-193 -129zM350 1452h185l-310 -1452h-184z" />
<glyph unicode="&#xcf;" horiz-adv-x="528" d="M252 1663l45 209h152l-46 -209h-151zM573 1663l45 209h150l-43 -209h-152zM350 1452h185l-310 -1452h-184z" />
<glyph unicode="&#xd0;" horiz-adv-x="1431" d="M846 1454q134 0 238 -43t168.5 -119.5t97 -177t32.5 -219.5q0 -253 -109.5 -458t-303 -321t-432.5 -116h-482l142 662h-111l31 139h108l140 653h481zM571 164q139 0 257 57.5t197 154.5t123 224t44 266q0 192 -98.5 308t-282.5 116h-297l-104 -489h309l-29 -139h-309 l-107 -498h297z" />
<glyph unicode="&#xd1;" horiz-adv-x="1513" d="M901 1751q-39 0 -67.5 -24t-38 -45t-9.5 -29h-106q4 18 20 48.5t44.5 69t76 66t101.5 27.5q37 0 69.5 -14t52.5 -30t49 -30t60 -14q34 0 61 14t41 34t20.5 32.5t8.5 19.5h105q-3 -16 -19.5 -47t-46 -69.5t-80 -66.5t-108.5 -28q-50 0 -90.5 21.5t-75 43t-68.5 21.5z M350 1454h144l602 -1132l239 1130h185l-310 -1452h-153l-596 1110l-236 -1110h-184z" />
<glyph unicode="&#xd2;" horiz-adv-x="1476" d="M737 1876h176l70 -207l-125 -41zM90 590q0 130 45 260.5t125 239.5t183.5 194t228 132.5t250.5 47.5q96 0 179.5 -33t143 -90.5t102.5 -134.5t64 -165t21 -181q0 -162 -70 -321t-183 -279.5t-265.5 -195t-309.5 -74.5q-120 0 -219 49.5t-162.5 133.5t-98 191.5 t-34.5 225.5zM1243 846q0 123 -41 224t-124 163.5t-195 62.5q-122 0 -235.5 -62t-193 -160t-127.5 -222t-48 -246q0 -124 40.5 -224.5t124 -163t197.5 -62.5q98 0 191.5 40.5t166.5 109.5t128.5 157t85.5 187.5t30 195.5z" />
<glyph unicode="&#xd3;" horiz-adv-x="1476" d="M1006 1628l-111 41l156 207h178zM90 590q0 130 45 260.5t125 239.5t183.5 194t228 132.5t250.5 47.5q96 0 179.5 -33t143 -90.5t102.5 -134.5t64 -165t21 -181q0 -162 -70 -321t-183 -279.5t-265.5 -195t-309.5 -74.5q-120 0 -219 49.5t-162.5 133.5t-98 191.5 t-34.5 225.5zM1243 846q0 123 -41 224t-124 163.5t-195 62.5q-122 0 -235.5 -62t-193 -160t-127.5 -222t-48 -246q0 -124 40.5 -224.5t124 -163t197.5 -62.5q98 0 191.5 40.5t166.5 109.5t128.5 157t85.5 187.5t30 195.5z" />
<glyph unicode="&#xd4;" horiz-adv-x="1476" d="M713 1692l237 184h131l158 -184l-109 -50l-137 130l-192 -130zM90 590q0 130 45 260.5t125 239.5t183.5 194t228 132.5t250.5 47.5q96 0 179.5 -33t143 -90.5t102.5 -134.5t64 -165t21 -181q0 -162 -70 -321t-183 -279.5t-265.5 -195t-309.5 -74.5q-120 0 -219 49.5 t-162.5 133.5t-98 191.5t-34.5 225.5zM1243 846q0 123 -41 224t-124 163.5t-195 62.5q-122 0 -235.5 -62t-193 -160t-127.5 -222t-48 -246q0 -124 40.5 -224.5t124 -163t197.5 -62.5q98 0 191.5 40.5t166.5 109.5t128.5 157t85.5 187.5t30 195.5z" />
<glyph unicode="&#xd5;" horiz-adv-x="1476" d="M858 1751q-30 0 -54 -14t-36 -32.5t-18.5 -32.5t-6.5 -19h-106q4 18 20 48.5t44.5 69t76 66t101.5 27.5q37 0 69.5 -14t52.5 -30t49 -30t60 -14q34 0 61 14t41 34t20.5 32.5t8.5 19.5h105q-3 -16 -19.5 -47t-46 -69.5t-80 -66.5t-108.5 -28q-50 0 -90.5 21.5t-75 43 t-68.5 21.5zM90 590q0 130 45 260.5t125 239.5t183.5 194t228 132.5t250.5 47.5q96 0 179.5 -33t143 -90.5t102.5 -134.5t64 -165t21 -181q0 -162 -70 -321t-183 -279.5t-265.5 -195t-309.5 -74.5q-120 0 -219 49.5t-162.5 133.5t-98 191.5t-34.5 225.5zM1243 846 q0 123 -41 224t-124 163.5t-195 62.5q-122 0 -235.5 -62t-193 -160t-127.5 -222t-48 -246q0 -124 40.5 -224.5t124 -163t197.5 -62.5q98 0 191.5 40.5t166.5 109.5t128.5 157t85.5 187.5t30 195.5z" />
<glyph unicode="&#xd6;" horiz-adv-x="1476" d="M733 1659l45 209h152l-45 -209h-152zM1055 1659l45 209h149l-43 -209h-151zM90 590q0 130 45 260.5t125 239.5t183.5 194t228 132.5t250.5 47.5q96 0 179.5 -33t143 -90.5t102.5 -134.5t64 -165t21 -181q0 -162 -70 -321t-183 -279.5t-265.5 -195t-309.5 -74.5 q-120 0 -219 49.5t-162.5 133.5t-98 191.5t-34.5 225.5zM1243 846q0 123 -41 224t-124 163.5t-195 62.5q-122 0 -235.5 -62t-193 -160t-127.5 -222t-48 -246q0 -124 40.5 -224.5t124 -163t197.5 -62.5q98 0 191.5 40.5t166.5 109.5t128.5 157t85.5 187.5t30 195.5z" />
<glyph unicode="&#xd7;" horiz-adv-x="964" d="M819 322l-114 -113l-238 237l-238 -237l-112 115l235 235l-231 234l115 112l231 -231l233 233l113 -114l-231 -234z" />
<glyph unicode="&#xd8;" horiz-adv-x="1476" d="M1491 1454l-172 -201q113 -170 113 -393q0 -162 -70 -321t-183 -279.5t-265.5 -195t-309.5 -74.5q-163 0 -289 92l-69 -82h-201l164 193q-119 166 -119 397q0 130 45 260.5t125 239.5t183.5 194t228 132.5t250.5 47.5q167 0 292 -98l76 88h201zM279 606q0 -149 59 -264 l754 881q-85 73 -209 73q-122 0 -235.5 -62t-193 -160t-127.5 -222t-48 -246zM1243 846q0 144 -55 254l-752 -877q86 -67 205 -67q98 0 191.5 40.5t166.5 109.5t128.5 157t85.5 187.5t30 195.5z" />
<glyph unicode="&#xd9;" horiz-adv-x="1484" d="M723 1876h176l70 -207l-125 -41zM145 475q0 109 29 244l156 735h184l-156 -735q-24 -111 -24 -213q0 -77 16 -138.5t51 -110t96.5 -75t145.5 -26.5q91 0 169.5 32t135 85t101.5 127.5t73 152.5t47 166l156 735h184l-155 -735q-33 -152 -93.5 -280.5t-150 -230.5 t-218 -160t-282.5 -58q-100 0 -179.5 24.5t-132.5 68t-87.5 105.5t-50 133t-15.5 154z" />
<glyph unicode="&#xda;" horiz-adv-x="1484" d="M991 1628l-110 41l155 207h178zM145 475q0 109 29 244l156 735h184l-156 -735q-24 -111 -24 -213q0 -77 16 -138.5t51 -110t96.5 -75t145.5 -26.5q91 0 169.5 32t135 85t101.5 127.5t73 152.5t47 166l156 735h184l-155 -735q-33 -152 -93.5 -280.5t-150 -230.5t-218 -160 t-282.5 -58q-100 0 -179.5 24.5t-132.5 68t-87.5 105.5t-50 133t-15.5 154z" />
<glyph unicode="&#xdb;" horiz-adv-x="1484" d="M698 1692l238 184h131l158 -184l-109 -50l-137 130l-193 -130zM145 475q0 109 29 244l156 735h184l-156 -735q-24 -111 -24 -213q0 -77 16 -138.5t51 -110t96.5 -75t145.5 -26.5q91 0 169.5 32t135 85t101.5 127.5t73 152.5t47 166l156 735h184l-155 -735 q-33 -152 -93.5 -280.5t-150 -230.5t-218 -160t-282.5 -58q-100 0 -179.5 24.5t-132.5 68t-87.5 105.5t-50 133t-15.5 154z" />
<glyph unicode="&#xdc;" horiz-adv-x="1484" d="M719 1659l45 209h151l-45 -209h-151zM1040 1659l45 209h150l-43 -209h-152zM145 475q0 109 29 244l156 735h184l-156 -735q-24 -111 -24 -213q0 -77 16 -138.5t51 -110t96.5 -75t145.5 -26.5q91 0 169.5 32t135 85t101.5 127.5t73 152.5t47 166l156 735h184l-155 -735 q-33 -152 -93.5 -280.5t-150 -230.5t-218 -160t-282.5 -58q-100 0 -179.5 24.5t-132.5 68t-87.5 105.5t-50 133t-15.5 154z" />
<glyph unicode="&#xdd;" horiz-adv-x="1253" d="M844 1628l-111 41l156 207h178zM508 535l-326 919h203l250 -758l575 758h201l-721 -924l-112 -530h-185z" />
<glyph unicode="&#xde;" horiz-adv-x="1189" d="M350 1454h185l-60 -280h356q151 0 242.5 -115t91.5 -271q0 -132 -70 -258t-191.5 -207t-258.5 -81h-369l-51 -242h-184zM672 406q81 0 152.5 54.5t112 138t40.5 171.5q0 102 -53 171t-136 69h-348l-129 -604h361z" />
<glyph unicode="&#xdf;" horiz-adv-x="1089" d="M377 154q192 3 307 90t115 258q0 105 -62.5 167t-169.5 62h-39l35 164h37q106 0 180 73t74 181q0 76 -47.5 117t-120.5 41q-112 0 -186 -79.5t-99 -197.5l-219 -1030h-172l226 1059q38 178 175.5 290.5t315.5 112.5q137 0 222 -74.5t85 -197.5q0 -121 -82 -229.5 t-184 -137.5q104 -24 160.5 -109.5t56.5 -203.5q0 -97 -32.5 -180t-91 -144t-139 -104.5t-176.5 -66.5t-204 -27z" />
<glyph unicode="&#xe0;" horiz-adv-x="1241" d="M547 1495h176l70 -207l-125 -41zM45 424q0 126 49 247.5t129.5 212.5t190 147t223.5 56q118 0 200.5 -64.5t118.5 -166.5l48 213h180l-180 -848q-5 -25 -5 -26q0 -20 10.5 -28.5t34.5 -10.5l-32 -156q-62 -8 -72 -8q-55 0 -86 25.5t-31 66.5q0 30 19 117 q-79 -102 -192.5 -161.5t-223.5 -59.5q-174 0 -277.5 128t-103.5 316zM856 375l64 307q-13 104 -91 177t-172 73q-110 0 -208.5 -71.5t-155.5 -182t-57 -225.5q0 -135 74 -226.5t194 -91.5q93 0 202.5 72t149.5 168z" />
<glyph unicode="&#xe1;" horiz-adv-x="1241" d="M815 1247l-110 41l155 207h178zM45 424q0 126 49 247.5t129.5 212.5t190 147t223.5 56q118 0 200.5 -64.5t118.5 -166.5l48 213h180l-180 -848q-5 -25 -5 -26q0 -20 10.5 -28.5t34.5 -10.5l-32 -156q-62 -8 -72 -8q-55 0 -86 25.5t-31 66.5q0 30 19 117 q-79 -102 -192.5 -161.5t-223.5 -59.5q-174 0 -277.5 128t-103.5 316zM856 375l64 307q-13 104 -91 177t-172 73q-110 0 -208.5 -71.5t-155.5 -182t-57 -225.5q0 -135 74 -226.5t194 -91.5q93 0 202.5 72t149.5 168z" />
<glyph unicode="&#xe2;" horiz-adv-x="1241" d="M522 1311l238 184h131l158 -184l-109 -49l-137 129l-193 -129zM45 424q0 126 49 247.5t129.5 212.5t190 147t223.5 56q118 0 200.5 -64.5t118.5 -166.5l48 213h180l-180 -848q-5 -25 -5 -26q0 -20 10.5 -28.5t34.5 -10.5l-32 -156q-62 -8 -72 -8q-55 0 -86 25.5t-31 66.5 q0 30 19 117q-79 -102 -192.5 -161.5t-223.5 -59.5q-174 0 -277.5 128t-103.5 316zM856 375l64 307q-13 104 -91 177t-172 73q-110 0 -208.5 -71.5t-155.5 -182t-57 -225.5q0 -135 74 -226.5t194 -91.5q93 0 202.5 72t149.5 168z" />
<glyph unicode="&#xe3;" horiz-adv-x="1241" d="M668 1370q-39 0 -67.5 -24t-38 -45t-9.5 -29h-107q4 18 20 48.5t44.5 69t76 66t101.5 27.5q47 0 85 -22t73 -44t74 -22q34 0 61 14t41 34t20.5 32.5t8.5 19.5h104q-3 -16 -19.5 -47t-46 -69.5t-80 -66.5t-108.5 -28q-39 0 -73.5 13.5t-55.5 29.5t-48.5 29.5t-55.5 13.5z M45 424q0 126 49 247.5t129.5 212.5t190 147t223.5 56q118 0 200.5 -64.5t118.5 -166.5l48 213h180l-180 -848q-5 -25 -5 -26q0 -20 10.5 -28.5t34.5 -10.5l-32 -156q-62 -8 -72 -8q-55 0 -86 25.5t-31 66.5q0 30 19 117q-79 -102 -192.5 -161.5t-223.5 -59.5 q-174 0 -277.5 128t-103.5 316zM856 375l64 307q-13 104 -91 177t-172 73q-110 0 -208.5 -71.5t-155.5 -182t-57 -225.5q0 -135 74 -226.5t194 -91.5q93 0 202.5 72t149.5 168z" />
<glyph unicode="&#xe4;" horiz-adv-x="1241" d="M543 1278l45 209h151l-45 -209h-151zM864 1278l45 209h150l-43 -209h-152zM45 424q0 126 49 247.5t129.5 212.5t190 147t223.5 56q118 0 200.5 -64.5t118.5 -166.5l48 213h180l-180 -848q-5 -25 -5 -26q0 -20 10.5 -28.5t34.5 -10.5l-32 -156q-62 -8 -72 -8 q-55 0 -86 25.5t-31 66.5q0 30 19 117q-79 -102 -192.5 -161.5t-223.5 -59.5q-174 0 -277.5 128t-103.5 316zM856 375l64 307q-13 104 -91 177t-172 73q-110 0 -208.5 -71.5t-155.5 -182t-57 -225.5q0 -135 74 -226.5t194 -91.5q93 0 202.5 72t149.5 168z" />
<glyph unicode="&#xe5;" horiz-adv-x="1241" d="M825 1495q62 0 97.5 -31t35.5 -84q0 -73 -55 -120.5t-139 -47.5q-61 0 -97 31t-36 84q0 74 56.5 121t137.5 47zM715 1339q0 -27 17 -45t46 -18q36 0 67.5 27t31.5 65q0 29 -18.5 46.5t-47.5 17.5q-38 0 -67 -27t-29 -66zM45 424q0 126 49 247.5t129.5 212.5t190 147 t223.5 56q118 0 200.5 -64.5t118.5 -166.5l48 213h180l-180 -848q-5 -25 -5 -26q0 -20 10.5 -28.5t34.5 -10.5l-32 -156q-62 -8 -72 -8q-55 0 -86 25.5t-31 66.5q0 30 19 117q-79 -102 -192.5 -161.5t-223.5 -59.5q-174 0 -277.5 128t-103.5 316zM856 375l64 307 q-13 104 -91 177t-172 73q-110 0 -208.5 -71.5t-155.5 -182t-57 -225.5q0 -135 74 -226.5t194 -91.5q93 0 202.5 72t149.5 168z" />
<glyph unicode="&#xe6;" horiz-adv-x="1818" d="M-12 254q0 168 145.5 278.5t358.5 110.5q133 0 241 -41q5 16 30 77.5t25 100.5q0 76 -57 126t-158 50q-148 0 -348 -125l-32 117q230 139 428 139q122 0 200.5 -50.5t108.5 -143.5q86 91 195 142.5t229 51.5q190 0 299.5 -127.5t109.5 -322.5q0 -21 -1.5 -40t-3.5 -34.5 t-4.5 -27.5t-6 -23t-6 -17t-5.5 -13.5t-3 -8.5h-856q-5 -50 -5 -61q0 -132 79 -214.5t202 -82.5q95 0 186 49.5t138 128.5l147 -43q-76 -120 -213.5 -195t-290.5 -75q-135 0 -233.5 62t-143.5 169q-86 -115 -221 -173t-250 -58q-131 0 -207.5 77t-76.5 197zM1587 590 q4 23 4 67q0 133 -73.5 214t-198.5 81q-141 0 -259 -102t-161 -260h688zM707 317q-7 32 -7 68q0 54 11 111q-98 39 -213 39q-144 0 -239 -69t-95 -177q0 -75 48 -124.5t134 -49.5q103 0 217.5 62t143.5 140z" />
<glyph unicode="&#xe7;" horiz-adv-x="1087" d="M489 135q87 0 174.5 49t124.5 117l166 -53q-59 -96 -161.5 -165.5t-221.5 -92.5q56 -66 56 -146q0 -102 -66 -163.5t-176 -61.5q-109 0 -195 57l72 101q65 -45 121 -45q64 0 101.5 33t37.5 94q0 64 -57 121q-131 0 -227.5 61.5t-144.5 162.5t-48 228q0 170 83.5 320 t233.5 242.5t328 92.5q153 0 250 -69t129 -191l-186 -55q-25 78 -82.5 119t-141.5 41q-108 0 -207 -64t-160 -175t-61 -238q0 -139 71.5 -229.5t186.5 -90.5z" />
<glyph unicode="&#xe8;" horiz-adv-x="1103" d="M758 1288l-125 -41l-121 248h176zM467 469q-123 0 -236 10q-2 -16 -2 -47q0 -136 68.5 -226.5t198.5 -90.5q95 0 185 48.5t140 129.5l146 -43q-76 -120 -213.5 -195t-286.5 -75q-195 0 -307.5 127.5t-112.5 324.5q0 127 49.5 246.5t134.5 209.5t206 144.5t257 54.5 q162 0 259.5 -74.5t97.5 -213.5q0 -330 -584 -330zM682 952q-85 0 -158 -29t-124.5 -79t-87 -110t-56.5 -130q137 -10 217 -10q416 0 416 207q0 76 -55 113.5t-152 37.5z" />
<glyph unicode="&#xe9;" horiz-adv-x="1103" d="M1004 1495l-224 -248l-110 41l155 207h179zM467 469q-123 0 -236 10q-2 -16 -2 -47q0 -136 68.5 -226.5t198.5 -90.5q95 0 185 48.5t140 129.5l146 -43q-76 -120 -213.5 -195t-286.5 -75q-195 0 -307.5 127.5t-112.5 324.5q0 127 49.5 246.5t134.5 209.5t206 144.5 t257 54.5q162 0 259.5 -74.5t97.5 -213.5q0 -330 -584 -330zM682 952q-85 0 -158 -29t-124.5 -79t-87 -110t-56.5 -130q137 -10 217 -10q416 0 416 207q0 76 -55 113.5t-152 37.5z" />
<glyph unicode="&#xea;" horiz-adv-x="1103" d="M768 1391l-193 -129l-88 49l238 184h131l158 -184l-109 -49zM467 469q-123 0 -236 10q-2 -16 -2 -47q0 -136 68.5 -226.5t198.5 -90.5q95 0 185 48.5t140 129.5l146 -43q-76 -120 -213.5 -195t-286.5 -75q-195 0 -307.5 127.5t-112.5 324.5q0 127 49.5 246.5t134.5 209.5 t206 144.5t257 54.5q162 0 259.5 -74.5t97.5 -213.5q0 -330 -584 -330zM682 952q-85 0 -158 -29t-124.5 -79t-87 -110t-56.5 -130q137 -10 217 -10q416 0 416 207q0 76 -55 113.5t-152 37.5z" />
<glyph unicode="&#xeb;" horiz-adv-x="1103" d="M705 1487l-46 -209h-151l45 209h152zM1024 1487l-43 -209h-152l45 209h150zM467 469q-123 0 -236 10q-2 -16 -2 -47q0 -136 68.5 -226.5t198.5 -90.5q95 0 185 48.5t140 129.5l146 -43q-76 -120 -213.5 -195t-286.5 -75q-195 0 -307.5 127.5t-112.5 324.5 q0 127 49.5 246.5t134.5 209.5t206 144.5t257 54.5q162 0 259.5 -74.5t97.5 -213.5q0 -330 -584 -330zM682 952q-85 0 -158 -29t-124.5 -79t-87 -110t-56.5 -130q137 -10 217 -10q416 0 416 207q0 76 -55 113.5t-152 37.5z" />
<glyph unicode="&#xec;" horiz-adv-x="462" d="M350 1466h176l70 -206l-125 -41zM238 1069h180l-228 -1069h-180z" />
<glyph unicode="&#xed;" horiz-adv-x="462" d="M406 1247l-111 41l156 207h178zM238 1069h180l-228 -1069h-180z" />
<glyph unicode="&#xee;" horiz-adv-x="462" d="M113 1311l237 184h131l158 -184l-109 -49l-137 129l-192 -129zM238 1069h180l-228 -1069h-180z" />
<glyph unicode="&#xef;" horiz-adv-x="462" d="M133 1278l45 209h152l-45 -209h-152zM455 1278l45 209h149l-43 -209h-151zM238 1069h180l-228 -1069h-180z" />
<glyph unicode="&#xf0;" horiz-adv-x="1193" d="M1153 1384l-178 -98q77 -117 113 -254.5t36 -269.5q0 -140 -38 -265t-104 -218t-152 -161t-184.5 -103t-199.5 -35q-179 0 -294 118t-115 293q0 90 32.5 177.5t90 159t131 126t161 85t175.5 30.5q119 0 205.5 -58.5t119.5 -156.5q0 74 -8 131q-19 182 -121 332l-225 -127 l-39 75l213 119q-92 109 -244 211h250q86 -62 148 -139l188 104zM485 135q105 0 202.5 58.5t156.5 155t59 200.5q0 118 -73.5 195t-190.5 77q-105 0 -201 -55.5t-155.5 -150t-59.5 -201.5q0 -119 73.5 -199t188.5 -80z" />
<glyph unicode="&#xf1;" horiz-adv-x="1161" d="M760 1370q-39 0 -67.5 -24t-38 -45t-9.5 -29h-106q3 13 13 35.5t30.5 54t47 57.5t66.5 45t84 19q47 0 85 -22t73 -44t74 -22q34 0 61 14t41 34t20.5 32.5t8.5 19.5h104q-3 -16 -19.5 -47t-46 -69.5t-80 -66.5t-108.5 -28q-39 0 -73.5 13.5t-55.5 29.5t-48.5 29.5 t-55.5 13.5zM238 1069h163l-49 -229q83 113 211.5 180t261.5 67q234 0 234 -251q0 -68 -25 -197l-135 -639h-180l127 598q18 88 18 154q0 174 -145 174q-104 0 -218 -80.5t-173 -200.5l-138 -645h-180z" />
<glyph unicode="&#xf2;" horiz-adv-x="1183" d="M504 1495h176l70 -207l-125 -41zM45 430q0 176 85 327.5t230.5 240.5t315.5 89q105 0 187.5 -35t134.5 -97t79 -143.5t27 -176.5q0 -175 -85 -326t-231.5 -240t-318.5 -89q-139 0 -236.5 61.5t-142.5 161.5t-45 227zM915 608q0 144 -70.5 234t-197.5 90q-78 0 -153.5 -37 t-133.5 -99.5t-93.5 -152t-35.5 -188.5q0 -143 71 -231.5t198 -88.5q106 0 201 60.5t154.5 170.5t59.5 242z" />
<glyph unicode="&#xf3;" horiz-adv-x="1183" d="M772 1247l-110 41l155 207h178zM45 430q0 176 85 327.5t230.5 240.5t315.5 89q105 0 187.5 -35t134.5 -97t79 -143.5t27 -176.5q0 -175 -85 -326t-231.5 -240t-318.5 -89q-139 0 -236.5 61.5t-142.5 161.5t-45 227zM915 608q0 144 -70.5 234t-197.5 90q-78 0 -153.5 -37 t-133.5 -99.5t-93.5 -152t-35.5 -188.5q0 -143 71 -231.5t198 -88.5q106 0 201 60.5t154.5 170.5t59.5 242z" />
<glyph unicode="&#xf4;" horiz-adv-x="1183" d="M479 1311l238 184h131l158 -184l-109 -49l-137 129l-193 -129zM45 430q0 176 85 327.5t230.5 240.5t315.5 89q105 0 187.5 -35t134.5 -97t79 -143.5t27 -176.5q0 -175 -85 -326t-231.5 -240t-318.5 -89q-139 0 -236.5 61.5t-142.5 161.5t-45 227zM915 608 q0 144 -70.5 234t-197.5 90q-78 0 -153.5 -37t-133.5 -99.5t-93.5 -152t-35.5 -188.5q0 -143 71 -231.5t198 -88.5q106 0 201 60.5t154.5 170.5t59.5 242z" />
<glyph unicode="&#xf5;" horiz-adv-x="1183" d="M625 1370q-39 0 -67.5 -24t-38 -45t-9.5 -29h-107q4 18 20 48.5t44.5 69t76 66t101.5 27.5q47 0 85 -22t73 -44t74 -22q34 0 61 14t41 34t20.5 32.5t8.5 19.5h104q-3 -16 -19.5 -47t-46 -69.5t-80 -66.5t-108.5 -28q-39 0 -73.5 13.5t-55.5 29.5t-48.5 29.5t-55.5 13.5z M45 430q0 176 85 327.5t230.5 240.5t315.5 89q105 0 187.5 -35t134.5 -97t79 -143.5t27 -176.5q0 -175 -85 -326t-231.5 -240t-318.5 -89q-139 0 -236.5 61.5t-142.5 161.5t-45 227zM915 608q0 144 -70.5 234t-197.5 90q-78 0 -153.5 -37t-133.5 -99.5t-93.5 -152 t-35.5 -188.5q0 -143 71 -231.5t198 -88.5q106 0 201 60.5t154.5 170.5t59.5 242z" />
<glyph unicode="&#xf6;" horiz-adv-x="1183" d="M500 1278l45 209h151l-45 -209h-151zM821 1278l45 209h150l-43 -209h-152zM45 430q0 176 85 327.5t230.5 240.5t315.5 89q105 0 187.5 -35t134.5 -97t79 -143.5t27 -176.5q0 -175 -85 -326t-231.5 -240t-318.5 -89q-139 0 -236.5 61.5t-142.5 161.5t-45 227zM915 608 q0 144 -70.5 234t-197.5 90q-78 0 -153.5 -37t-133.5 -99.5t-93.5 -152t-35.5 -188.5q0 -143 71 -231.5t198 -88.5q106 0 201 60.5t154.5 170.5t59.5 242z" />
<glyph unicode="&#xf7;" horiz-adv-x="1091" d="M461 829v209h153v-209h-153zM125 514v148h825v-148h-825zM461 135v209h153v-209h-153z" />
<glyph unicode="&#xf8;" horiz-adv-x="1183" d="M1118 1073l-119 -121q105 -127 105 -313q0 -168 -87 -320t-237.5 -245.5t-322.5 -93.5q-146 0 -254 81l-66 -65h-110l120 121q-102 123 -102 309q0 169 88 321.5t238 246t321 93.5q142 0 248 -79l66 65h112zM657 932q-77 0 -154.5 -39.5t-137 -104.5t-97 -155t-37.5 -184 q0 -113 52 -197l534 620q-70 60 -160 60zM489 135q78 0 155.5 39t137 103.5t96.5 154t37 184.5q0 115 -51 197l-536 -616q68 -62 161 -62z" />
<glyph unicode="&#xf9;" horiz-adv-x="1181" d="M518 1495h176l70 -207l-125 -41zM68 250q0 71 22 178l137 641h179l-130 -606q-18 -83 -18 -141q0 -187 160 -187q104 0 209 71t176 193l141 670h180l-180 -848q-4 -20 -4 -26q0 -20 10.5 -28.5t34.5 -10.5l-33 -156q-62 -8 -71 -8q-55 0 -84 24t-29 66q0 35 23 147 q-91 -119 -216.5 -184t-257.5 -65q-249 0 -249 270z" />
<glyph unicode="&#xfa;" horiz-adv-x="1181" d="M786 1247l-110 41l155 207h179zM68 250q0 71 22 178l137 641h179l-130 -606q-18 -83 -18 -141q0 -187 160 -187q104 0 209 71t176 193l141 670h180l-180 -848q-4 -20 -4 -26q0 -20 10.5 -28.5t34.5 -10.5l-33 -156q-62 -8 -71 -8q-55 0 -84 24t-29 66q0 35 23 147 q-91 -119 -216.5 -184t-257.5 -65q-249 0 -249 270z" />
<glyph unicode="&#xfb;" horiz-adv-x="1181" d="M494 1311l237 184h131l158 -184l-109 -49l-137 129l-192 -129zM68 250q0 71 22 178l137 641h179l-130 -606q-18 -83 -18 -141q0 -187 160 -187q104 0 209 71t176 193l141 670h180l-180 -848q-4 -20 -4 -26q0 -20 10.5 -28.5t34.5 -10.5l-33 -156q-62 -8 -71 -8 q-55 0 -84 24t-29 66q0 35 23 147q-91 -119 -216.5 -184t-257.5 -65q-249 0 -249 270z" />
<glyph unicode="&#xfc;" horiz-adv-x="1181" d="M514 1278l45 209h152l-45 -209h-152zM836 1278l45 209h149l-43 -209h-151zM68 250q0 71 22 178l137 641h179l-130 -606q-18 -83 -18 -141q0 -187 160 -187q104 0 209 71t176 193l141 670h180l-180 -848q-4 -20 -4 -26q0 -20 10.5 -28.5t34.5 -10.5l-33 -156 q-62 -8 -71 -8q-55 0 -84 24t-29 66q0 35 23 147q-91 -119 -216.5 -184t-257.5 -65q-249 0 -249 270z" />
<glyph unicode="&#xfd;" horiz-adv-x="1026" d="M664 1247l-111 41l156 207h178zM-72 -313q130 19 192 57t132 143l59 90l-207 1092h187l147 -907l70 114q172 283 248 445.5t123 347.5h178q-55 -198 -137 -364.5t-285 -493.5l-164 -264q-140 -225 -253 -314t-265 -92z" />
<glyph unicode="&#xfe;" horiz-adv-x="1183" d="M-82 -436l401 1890h185l-121 -557q76 88 178.5 139t208.5 51q171 0 274 -129.5t103 -316.5q0 -168 -80.5 -320.5t-217 -246.5t-290.5 -94q-120 0 -203 63t-120 168l-138 -647h-180zM537 135q110 0 208.5 71.5t155.5 181.5t57 224q0 136 -74 228t-194 92q-60 0 -131.5 -32 t-132.5 -88.5t-88 -119.5l-66 -305q21 -109 93.5 -180.5t171.5 -71.5z" />
<glyph unicode="&#xff;" horiz-adv-x="1026" d="M391 1278l45 209h152l-45 -209h-152zM713 1278l45 209h149l-43 -209h-151zM-72 -313q130 19 192 57t132 143l59 90l-207 1092h187l147 -907l70 114q172 283 248 445.5t123 347.5h178q-55 -198 -137 -364.5t-285 -493.5l-164 -264q-140 -225 -253 -314t-265 -92z" />
<glyph unicode="&#x100;" horiz-adv-x="1335" d="M629 1720l24 119h572l-27 -119h-569zM774 1454h158l252 -1454h-197l-69 426h-570l-248 -426h-196zM909 569l-100 672l-395 -672h495z" />
<glyph unicode="&#x101;" horiz-adv-x="1241" d="M504 1335l24 119h572l-27 -119h-569zM45 424q0 126 49 247.5t129.5 212.5t190 147t223.5 56q118 0 200.5 -64.5t118.5 -166.5l48 213h180l-180 -848q-5 -25 -5 -26q0 -20 10.5 -28.5t34.5 -10.5l-32 -156q-62 -8 -72 -8q-55 0 -86 25.5t-31 66.5q0 30 19 117 q-79 -102 -192.5 -161.5t-223.5 -59.5q-174 0 -277.5 128t-103.5 316zM856 375l64 307q-13 104 -91 177t-172 73q-110 0 -208.5 -71.5t-155.5 -182t-57 -225.5q0 -135 74 -226.5t194 -91.5q93 0 202.5 72t149.5 168z" />
<glyph unicode="&#x102;" horiz-adv-x="1335" d="M1059 1880h102q-20 -97 -95.5 -162t-166.5 -65q-79 0 -126.5 48.5t-47.5 125.5q0 26 6 53h105q-5 -30 -5 -35q0 -43 24.5 -73.5t62.5 -30.5q41 0 81.5 39.5t59.5 99.5zM774 1454h158l252 -1454h-197l-69 426h-570l-248 -426h-196zM909 569l-100 672l-395 -672h495z" />
<glyph unicode="&#x103;" horiz-adv-x="1241" d="M934 1495h102q-20 -97 -95.5 -162t-166.5 -65q-79 0 -126.5 48.5t-47.5 125.5q0 26 6 53h105q-4 -24 -4 -35q0 -44 24 -74t62 -30q41 0 81.5 39.5t59.5 99.5zM45 424q0 126 49 247.5t129.5 212.5t190 147t223.5 56q118 0 200.5 -64.5t118.5 -166.5l48 213h180l-180 -848 q-5 -25 -5 -26q0 -20 10.5 -28.5t34.5 -10.5l-32 -156q-62 -8 -72 -8q-55 0 -86 25.5t-31 66.5q0 30 19 117q-79 -102 -192.5 -161.5t-223.5 -59.5q-174 0 -277.5 128t-103.5 316zM856 375l64 307q-13 104 -91 177t-172 73q-110 0 -208.5 -71.5t-155.5 -182t-57 -225.5 q0 -135 74 -226.5t194 -91.5q93 0 202.5 72t149.5 168z" />
<glyph unicode="&#x104;" horiz-adv-x="1335" d="M1022 -211q0 -29 23 -42.5t69 -18.5l-67 -115q-77 8 -110.5 46t-33.5 89q0 126 162 252h-78l-69 426h-570l-248 -426h-196l870 1454h158l252 -1454q-87 -76 -124.5 -123.5t-37.5 -87.5zM414 569h495l-100 672z" />
<glyph unicode="&#x105;" horiz-adv-x="1241" d="M999 195q0 -20 10.5 -28.5t34.5 -10.5l-32 -156q-87 -76 -124.5 -123.5t-37.5 -87.5q0 -29 23 -42.5t69 -18.5l-68 -115q-77 8 -110 46t-33 89q0 127 160 250q-68 22 -68 86q0 30 19 117q-79 -102 -192.5 -161.5t-223.5 -59.5q-174 0 -277.5 128t-103.5 316 q0 126 49 247.5t129.5 212.5t190 147t223.5 56q118 0 200.5 -64.5t118.5 -166.5l48 213h180l-180 -848q-5 -25 -5 -26zM504 135q93 0 202.5 72t149.5 168l64 307q-13 104 -91 177t-172 73q-110 0 -208.5 -71.5t-155.5 -182t-57 -225.5q0 -135 74 -226.5t194 -91.5z" />
<glyph unicode="&#x106;" horiz-adv-x="1337" d="M946 1632l-110 41l155 207h178zM92 592q0 123 36.5 247.5t108 236t168 198t226.5 137.5t274 51q192 0 310 -87t157 -230l-153 -88q-20 70 -55 118.5t-81 74t-94.5 36t-107.5 10.5q-118 0 -218.5 -41.5t-170 -110t-118.5 -157.5t-72 -184t-23 -189q0 -128 42 -231 t128 -166t202 -63q117 0 235.5 65t200.5 191l136 -84q-70 -111 -174.5 -189.5t-213.5 -113.5t-217 -35q-102 0 -189 33.5t-148 91.5t-104.5 135.5t-64 164.5t-20.5 179z" />
<glyph unicode="&#x107;" horiz-adv-x="1087" d="M776 1247l-110 41l155 207h178zM45 432q0 170 83.5 320t233.5 242.5t328 92.5q153 0 250 -69t129 -191l-186 -55q-25 78 -82.5 119t-141.5 41q-108 0 -207 -64t-160 -175t-61 -238q0 -139 71.5 -229.5t186.5 -90.5q87 0 174.5 49t124.5 117l166 -53 q-71 -119 -205.5 -193.5t-283.5 -74.5q-131 0 -227.5 61.5t-144.5 162.5t-48 228z" />
<glyph unicode="&#x108;" horiz-adv-x="1337" d="M653 1696l238 184h131l158 -184l-109 -49l-137 129l-193 -129zM92 592q0 123 36.5 247.5t108 236t168 198t226.5 137.5t274 51q192 0 310 -87t157 -230l-153 -88q-20 70 -55 118.5t-81 74t-94.5 36t-107.5 10.5q-118 0 -218.5 -41.5t-170 -110t-118.5 -157.5t-72 -184 t-23 -189q0 -128 42 -231t128 -166t202 -63q117 0 235.5 65t200.5 191l136 -84q-70 -111 -174.5 -189.5t-213.5 -113.5t-217 -35q-102 0 -189 33.5t-148 91.5t-104.5 135.5t-64 164.5t-20.5 179z" />
<glyph unicode="&#x109;" horiz-adv-x="1087" d="M483 1311l238 184h131l158 -184l-109 -49l-137 129l-193 -129zM45 432q0 170 83.5 320t233.5 242.5t328 92.5q153 0 250 -69t129 -191l-186 -55q-25 78 -82.5 119t-141.5 41q-108 0 -207 -64t-160 -175t-61 -238q0 -139 71.5 -229.5t186.5 -90.5q87 0 174.5 49t124.5 117 l166 -53q-71 -119 -205.5 -193.5t-283.5 -74.5q-131 0 -227.5 61.5t-144.5 162.5t-48 228z" />
<glyph unicode="&#x10a;" horiz-adv-x="1337" d="M827 1663l47 217h162l-45 -217h-164zM92 592q0 123 36.5 247.5t108 236t168 198t226.5 137.5t274 51q192 0 310 -87t157 -230l-153 -88q-20 70 -55 118.5t-81 74t-94.5 36t-107.5 10.5q-118 0 -218.5 -41.5t-170 -110t-118.5 -157.5t-72 -184t-23 -189q0 -128 42 -231 t128 -166t202 -63q117 0 235.5 65t200.5 191l136 -84q-70 -111 -174.5 -189.5t-213.5 -113.5t-217 -35q-102 0 -189 33.5t-148 91.5t-104.5 135.5t-64 164.5t-20.5 179z" />
<glyph unicode="&#x10b;" horiz-adv-x="1087" d="M657 1278l48 217h161l-45 -217h-164zM45 432q0 170 83.5 320t233.5 242.5t328 92.5q153 0 250 -69t129 -191l-186 -55q-25 78 -82.5 119t-141.5 41q-108 0 -207 -64t-160 -175t-61 -238q0 -139 71.5 -229.5t186.5 -90.5q87 0 174.5 49t124.5 117l166 -53 q-71 -119 -205.5 -193.5t-283.5 -74.5q-131 0 -227.5 61.5t-144.5 162.5t-48 228z" />
<glyph unicode="&#x10c;" horiz-adv-x="1337" d="M668 1831l108 49l137 -129l193 129l88 -49l-238 -184h-131zM92 592q0 123 36.5 247.5t108 236t168 198t226.5 137.5t274 51q192 0 310 -87t157 -230l-153 -88q-20 70 -55 118.5t-81 74t-94.5 36t-107.5 10.5q-118 0 -218.5 -41.5t-170 -110t-118.5 -157.5t-72 -184 t-23 -189q0 -128 42 -231t128 -166t202 -63q117 0 235.5 65t200.5 191l136 -84q-70 -111 -174.5 -189.5t-213.5 -113.5t-217 -35q-102 0 -189 33.5t-148 91.5t-104.5 135.5t-64 164.5t-20.5 179z" />
<glyph unicode="&#x10d;" horiz-adv-x="1087" d="M498 1446l108 49l137 -129l193 129l88 -49l-238 -184h-131zM45 432q0 170 83.5 320t233.5 242.5t328 92.5q153 0 250 -69t129 -191l-186 -55q-25 78 -82.5 119t-141.5 41q-108 0 -207 -64t-160 -175t-61 -238q0 -139 71.5 -229.5t186.5 -90.5q87 0 174.5 49t124.5 117 l166 -53q-71 -119 -205.5 -193.5t-283.5 -74.5q-131 0 -227.5 61.5t-144.5 162.5t-48 228z" />
<glyph unicode="&#x10e;" horiz-adv-x="1417" d="M604 1827l109 49l137 -129l192 129l88 -49l-237 -185h-131zM350 1454h481q134 0 238 -43t168.5 -119.5t97.5 -177t33 -219.5q0 -253 -109.5 -458t-303.5 -321t-433 -116h-481zM557 164q139 0 257 57.5t197 154.5t123 224t44 266q0 192 -98.5 308t-282.5 116h-297 l-240 -1126h297z" />
<glyph unicode="&#x10f;" horiz-adv-x="1241" d="M45 424q0 126 49 247.5t129.5 212.5t190 147t223.5 56q118 0 200.5 -64.5t118.5 -166.5l138 639h180l-270 -1274q-5 -25 -5 -26q0 -20 10.5 -28.5t34.5 -10.5l-32 -156q-62 -8 -72 -8q-55 0 -86 25.5t-31 66.5q0 37 19 117q-79 -102 -192.5 -161.5t-223.5 -59.5 q-174 0 -277.5 128t-103.5 316zM1268 1288l155 207h179l-224 -248zM856 375l64 307q-13 104 -91 177t-172 73q-110 0 -208.5 -71.5t-155.5 -182t-57 -225.5q0 -135 74 -226.5t194 -91.5q93 0 202.5 72t149.5 168z" />
<glyph unicode="&#x110;" horiz-adv-x="1431" d="M846 1454q134 0 238 -43t168.5 -119.5t97 -177t32.5 -219.5q0 -253 -109.5 -458t-303 -321t-432.5 -116h-482l142 662h-111l31 139h108l140 653h481zM571 164q139 0 257 57.5t197 154.5t123 224t44 266q0 192 -98.5 308t-282.5 116h-297l-104 -489h309l-29 -139h-309 l-107 -498h297z" />
<glyph unicode="&#x111;" horiz-adv-x="1241" d="M1219 1231l-215 -1010q-5 -25 -5 -26q0 -20 10.5 -28.5t34.5 -10.5l-32 -156q-62 -8 -72 -8q-55 0 -86 25.5t-31 66.5q0 37 19 117q-79 -102 -192.5 -161.5t-223.5 -59.5q-174 0 -277.5 128t-103.5 316q0 126 49 247.5t129.5 212.5t190 147t223.5 56q118 0 200.5 -64.5 t118.5 -166.5l80 375h-186l24 115h187l33 149h180l-31 -149h156l-25 -115h-155zM856 375l64 307q-13 104 -91 177t-172 73q-110 0 -208.5 -71.5t-155.5 -182t-57 -225.5q0 -135 74 -226.5t194 -91.5q93 0 202.5 72t149.5 168z" />
<glyph unicode="&#x112;" horiz-adv-x="1187" d="M559 1720l25 119h571l-27 -119h-569zM350 1454h922l-35 -164h-737l-101 -471h641l-32 -153h-641l-107 -502h756l-35 -164h-940z" />
<glyph unicode="&#x113;" horiz-adv-x="1103" d="M1065 1454l-27 -119h-569l25 119h571zM694 1087q162 0 259.5 -74.5t97.5 -213.5q0 -330 -584 -330q-123 0 -236 10q-2 -16 -2 -47q0 -136 68.5 -226.5t198.5 -90.5q95 0 185 48.5t140 129.5l146 -43q-76 -120 -213.5 -195t-286.5 -75q-195 0 -307.5 127.5t-112.5 324.5 q0 127 49.5 246.5t134.5 209.5t206 144.5t257 54.5zM473 594q416 0 416 207q0 76 -55 113.5t-152 37.5q-85 0 -158 -29t-124.5 -79t-87 -110t-56.5 -130q137 -10 217 -10z" />
<glyph unicode="&#x114;" horiz-adv-x="1187" d="M989 1880h103q-20 -96 -96 -161.5t-167 -65.5q-79 0 -126.5 48.5t-47.5 125.5q0 21 7 53h104q-4 -24 -4 -35q0 -44 24 -74t62 -30q41 0 81.5 39.5t59.5 99.5zM350 1454h922l-35 -164h-737l-101 -471h641l-32 -153h-641l-107 -502h756l-35 -164h-940z" />
<glyph unicode="&#x115;" horiz-adv-x="1103" d="M739 1268q-79 0 -126.5 48.5t-47.5 125.5q0 26 6 53h105q-4 -24 -4 -35q0 -44 24 -74t62 -30q41 0 81.5 39.5t59.5 99.5h102q-20 -97 -95.5 -162t-166.5 -65zM467 469q-123 0 -236 10q-2 -16 -2 -47q0 -136 68.5 -226.5t198.5 -90.5q95 0 185 48.5t140 129.5l146 -43 q-76 -120 -213.5 -195t-286.5 -75q-195 0 -307.5 127.5t-112.5 324.5q0 127 49.5 246.5t134.5 209.5t206 144.5t257 54.5q162 0 259.5 -74.5t97.5 -213.5q0 -330 -584 -330zM682 952q-85 0 -158 -29t-124.5 -79t-87 -110t-56.5 -130q137 -10 217 -10q416 0 416 207 q0 76 -55 113.5t-152 37.5z" />
<glyph unicode="&#x116;" horiz-adv-x="1187" d="M752 1663l47 217h162l-46 -217h-163zM350 1454h922l-35 -164h-737l-101 -471h641l-32 -153h-641l-107 -502h756l-35 -164h-940z" />
<glyph unicode="&#x117;" horiz-adv-x="1103" d="M870 1495l-45 -217h-163l47 217h161zM467 469q-123 0 -236 10q-2 -16 -2 -47q0 -136 68.5 -226.5t198.5 -90.5q95 0 185 48.5t140 129.5l146 -43q-76 -120 -213.5 -195t-286.5 -75q-195 0 -307.5 127.5t-112.5 324.5q0 127 49.5 246.5t134.5 209.5t206 144.5t257 54.5 q162 0 259.5 -74.5t97.5 -213.5q0 -330 -584 -330zM682 952q-85 0 -158 -29t-124.5 -79t-87 -110t-56.5 -130q137 -10 217 -10q416 0 416 207q0 76 -55 113.5t-152 37.5z" />
<glyph unicode="&#x118;" horiz-adv-x="1187" d="M1237 1290h-737l-101 -471h641l-32 -153h-641l-107 -502h756l-35 -164q-87 -76 -124.5 -123.5t-37.5 -87.5q0 -29 23 -42.5t69 -18.5l-67 -115q-77 8 -110.5 46t-33.5 89q0 126 162 252h-821l309 1454h922z" />
<glyph unicode="&#x119;" horiz-adv-x="1103" d="M467 469q-123 0 -236 10q-2 -16 -2 -47q0 -136 68.5 -226.5t198.5 -90.5q95 0 185 48.5t140 129.5l146 -43q-57 -89 -151 -156t-204 -96q-86 -74 -122.5 -121.5t-36.5 -87.5q0 -29 23 -42.5t69 -18.5l-68 -115q-77 8 -110 46t-33 89q0 118 137 232h-4 q-195 0 -307.5 127.5t-112.5 324.5q0 127 49.5 246.5t134.5 209.5t206 144.5t257 54.5q162 0 259.5 -74.5t97.5 -213.5q0 -330 -584 -330zM682 952q-85 0 -158 -29t-124.5 -79t-87 -110t-56.5 -130q137 -10 217 -10q416 0 416 207q0 76 -55 113.5t-152 37.5z" />
<glyph unicode="&#x11a;" horiz-adv-x="1187" d="M592 1831l108 49l138 -129l192 129l88 -49l-237 -184h-131zM350 1454h922l-35 -164h-737l-101 -471h641l-32 -153h-641l-107 -502h756l-35 -164h-940z" />
<glyph unicode="&#x11b;" horiz-adv-x="1103" d="M791 1262h-132l-157 184l108 49l138 -129l192 129l88 -49zM467 469q-123 0 -236 10q-2 -16 -2 -47q0 -136 68.5 -226.5t198.5 -90.5q95 0 185 48.5t140 129.5l146 -43q-76 -120 -213.5 -195t-286.5 -75q-195 0 -307.5 127.5t-112.5 324.5q0 127 49.5 246.5t134.5 209.5 t206 144.5t257 54.5q162 0 259.5 -74.5t97.5 -213.5q0 -330 -584 -330zM682 952q-85 0 -158 -29t-124.5 -79t-87 -110t-56.5 -130q137 -10 217 -10q416 0 416 207q0 76 -55 113.5t-152 37.5z" />
<glyph unicode="&#x11c;" horiz-adv-x="1404" d="M985 1772l-192 -130l-88 50l237 184h131l158 -184l-109 -50zM844 586l30 139h451l-154 -725h-155l41 197q-223 -207 -459 -207q-151 0 -268.5 86.5t-177.5 224t-60 297.5q0 162 69 321t181 278.5t263 193t306 73.5q192 0 307.5 -84.5t155.5 -232.5l-162 -98 q-33 123 -122 186t-218 63q-157 0 -295.5 -102t-218 -261t-79.5 -327q0 -192 101.5 -322t266.5 -130q226 0 451 231l43 199h-297z" />
<glyph unicode="&#x11d;" horiz-adv-x="1226" d="M471 1311l238 184h131l157 -184l-108 -49l-137 129l-193 -129zM-78 -221l123 92q39 -92 123.5 -140t196.5 -48q147 0 262 85t149 244l39 189q-74 -97 -184.5 -155t-218.5 -58q-167 0 -267 127t-100 309q0 169 82.5 322t223 247t298.5 94q229 0 328 -231l45 213h160 l-226 -1057q-31 -147 -123.5 -255t-220.5 -161t-276 -53q-164 0 -263 60.5t-151 175.5zM854 375l66 307q-17 109 -93 179.5t-174 70.5q-112 0 -211 -74t-155 -184t-56 -221q0 -134 75 -226t194 -92q103 0 208 73.5t146 166.5z" />
<glyph unicode="&#x11e;" horiz-adv-x="1404" d="M956 1649q-79 0 -126.5 48.5t-47.5 125.5q0 26 6 53h105q-4 -24 -4 -35q0 -44 24 -74t62 -30q41 0 81.5 39.5t59.5 99.5h103q-20 -96 -96 -161.5t-167 -65.5zM844 586l30 139h451l-154 -725h-155l41 197q-223 -207 -459 -207q-151 0 -268.5 86.5t-177.5 224t-60 297.5 q0 162 69 321t181 278.5t263 193t306 73.5q192 0 307.5 -84.5t155.5 -232.5l-162 -98q-33 123 -122 186t-218 63q-157 0 -295.5 -102t-218 -261t-79.5 -327q0 -192 101.5 -322t266.5 -130q226 0 451 231l43 199h-297z" />
<glyph unicode="&#x11f;" horiz-adv-x="1226" d="M883 1495h102q-20 -97 -95.5 -162t-166.5 -65q-79 0 -126.5 48.5t-47.5 125.5q0 26 6 53h104q-4 -24 -4 -35q0 -44 24 -74t62 -30q42 0 82.5 39.5t59.5 99.5zM-78 -221l123 92q39 -92 123.5 -140t196.5 -48q147 0 262 85t149 244l39 189q-74 -97 -184.5 -155t-218.5 -58 q-167 0 -267 127t-100 309q0 169 82.5 322t223 247t298.5 94q229 0 328 -231l45 213h160l-226 -1057q-31 -147 -123.5 -255t-220.5 -161t-276 -53q-164 0 -263 60.5t-151 175.5zM854 375l66 307q-17 109 -93 179.5t-174 70.5q-112 0 -211 -74t-155 -184t-56 -221 q0 -134 75 -226t194 -92q103 0 208 73.5t146 166.5z" />
<glyph unicode="&#x120;" horiz-adv-x="1404" d="M1087 1876l-45 -217h-163l47 217h161zM844 586l30 139h451l-154 -725h-155l41 197q-223 -207 -459 -207q-151 0 -268.5 86.5t-177.5 224t-60 297.5q0 162 69 321t181 278.5t263 193t306 73.5q192 0 307.5 -84.5t155.5 -232.5l-162 -98q-33 123 -122 186t-218 63 q-157 0 -295.5 -102t-218 -261t-79.5 -327q0 -192 101.5 -322t266.5 -130q226 0 451 231l43 199h-297z" />
<glyph unicode="&#x121;" horiz-adv-x="1226" d="M645 1278l47 217h162l-45 -217h-164zM-78 -221l123 92q39 -92 123.5 -140t196.5 -48q147 0 262 85t149 244l39 189q-74 -97 -184.5 -155t-218.5 -58q-167 0 -267 127t-100 309q0 169 82.5 322t223 247t298.5 94q229 0 328 -231l45 213h160l-226 -1057 q-31 -147 -123.5 -255t-220.5 -161t-276 -53q-164 0 -263 60.5t-151 175.5zM854 375l66 307q-17 109 -93 179.5t-174 70.5q-112 0 -211 -74t-155 -184t-56 -221q0 -134 75 -226t194 -92q103 0 208 73.5t146 166.5z" />
<glyph unicode="&#x122;" horiz-adv-x="1404" d="M844 586l30 139h451l-154 -725h-155l41 197q-223 -207 -459 -207q-151 0 -268.5 86.5t-177.5 224t-60 297.5q0 162 69 321t181 278.5t263 193t306 73.5q192 0 307.5 -84.5t155.5 -232.5l-162 -98q-33 123 -122 186t-218 63q-157 0 -295.5 -102t-218 -261t-79.5 -327 q0 -192 101.5 -322t266.5 -130q226 0 451 231l43 199h-297zM512 -270l37 172h158l-37 -172l-95 -166h-88l76 166h-51z" />
<glyph unicode="&#x123;" horiz-adv-x="1226" d="M852 1495l-70 -135h49l-45 -154h-137l45 154l86 135h72zM-78 -221l123 92q39 -92 123.5 -140t196.5 -48q147 0 262 85t149 244l39 189q-74 -97 -184.5 -155t-218.5 -58q-167 0 -267 127t-100 309q0 169 82.5 322t223 247t298.5 94q229 0 328 -231l45 213h160l-226 -1057 q-31 -147 -123.5 -255t-220.5 -161t-276 -53q-164 0 -263 60.5t-151 175.5zM854 375l66 307q-17 109 -93 179.5t-174 70.5q-112 0 -211 -74t-155 -184t-56 -221q0 -134 75 -226t194 -92q103 0 208 73.5t146 166.5z" />
<glyph unicode="&#x124;" horiz-adv-x="1460" d="M715 1696l237 184h131l158 -184l-108 -49l-138 129l-192 -129zM350 1454h185l-134 -629h748l133 629h184l-309 -1454h-184l141 662h-747l-142 -662h-184z" />
<glyph unicode="&#x125;" horiz-adv-x="1161" d="M586 1694l221 182h121l147 -182l-100 -49l-129 127l-178 -127zM328 1495h180l-139 -655q85 116 202 181.5t238 65.5q246 0 246 -266q0 -83 -21 -182l-135 -639h-180l127 598q16 85 16 139q0 93 -40 141t-117 48q-99 0 -209 -81t-168 -200l-138 -645h-180z" />
<glyph unicode="&#x126;" horiz-adv-x="1480" d="M1526 1219l-21 -97h-96l-240 -1122h-184l141 662h-747l-141 -662h-185l240 1122h-98l20 97h98l49 235h185l-49 -235h747l49 235h185l-49 -235h96zM1161 825l64 297h-748l-63 -297h747z" />
<glyph unicode="&#x127;" horiz-adv-x="1161" d="M809 1087q246 0 246 -266q0 -83 -21 -182l-135 -639h-180l127 598q16 85 16 139q0 93 -40 141t-117 48q-99 0 -209 -81t-168 -200l-138 -645h-180l262 1231h-143l25 115h143l31 149h180l-33 -149h203l-25 -115h-200l-84 -391q85 116 202 181.5t238 65.5z" />
<glyph unicode="&#x128;" horiz-adv-x="528" d="M377 1755q-39 0 -67.5 -24t-38 -45t-9.5 -29h-106q3 13 13 35.5t30.5 54t47 57.5t66.5 45t84 19q47 0 85 -22t73 -44t74 -22q34 0 61 14t41 34t20.5 32.5t8.5 19.5h104q-3 -16 -19.5 -47t-46 -69.5t-80 -66.5t-108.5 -28q-39 0 -73.5 13.5t-55.5 29.5t-48.5 29.5 t-55.5 13.5zM350 1452h185l-310 -1452h-184z" />
<glyph unicode="&#x129;" horiz-adv-x="462" d="M434 1341q-39 0 -67.5 -24t-38 -45t-9.5 -29h-106q4 18 20 48.5t44.5 69t76 66t101.5 27.5q37 0 69.5 -14t52.5 -30t49 -30t60 -14q34 0 61 14t41 34t20.5 32.5t8.5 19.5h105q-3 -16 -19.5 -47t-46 -69.5t-80 -66.5t-108.5 -28q-50 0 -90.5 21.5t-75 43t-68.5 21.5z M238 1069h180l-228 -1069h-180z" />
<glyph unicode="&#x12a;" horiz-adv-x="528" d="M213 1720l25 119h571l-27 -119h-569zM350 1452h185l-310 -1452h-184z" />
<glyph unicode="&#x12b;" horiz-adv-x="462" d="M94 1335l25 119h571l-26 -119h-570zM238 1069h180l-228 -1069h-180z" />
<glyph unicode="&#x12c;" horiz-adv-x="528" d="M643 1880h102q-20 -97 -95.5 -162t-166.5 -65q-79 0 -126.5 48.5t-47.5 125.5q0 26 6 53h105q-4 -24 -4 -35q0 -44 24 -74t62 -30q41 0 81.5 39.5t59.5 99.5zM350 1452h185l-310 -1452h-184z" />
<glyph unicode="&#x12d;" horiz-adv-x="462" d="M524 1495h103q-20 -97 -95.5 -162t-166.5 -65q-79 0 -127 48.5t-48 125.5q0 22 7 53h104q-4 -24 -4 -35q0 -44 24 -74t62 -30q41 0 81.5 39.5t59.5 99.5zM238 1069h180l-228 -1069h-180z" />
<glyph unicode="&#x12e;" horiz-adv-x="528" d="M225 0q-87 -76 -124.5 -123.5t-37.5 -87.5q0 -29 23.5 -42.5t69.5 -18.5l-68 -115q-77 8 -110 46t-33 89q0 127 161 252h-65l309 1452h185z" />
<glyph unicode="&#x12f;" horiz-adv-x="462" d="M328 1495h180l-47 -225h-180zM10 0l228 1069h180l-228 -1069q-87 -75 -124 -123t-37 -88q0 -29 23 -42.5t69 -18.5l-68 -115q-77 8 -110 46t-33 89q0 126 162 252h-62z" />
<glyph unicode="&#x130;" horiz-adv-x="528" d="M406 1663l47 217h161l-45 -217h-163zM350 1452h185l-310 -1452h-184z" />
<glyph unicode="&#x131;" horiz-adv-x="462" d="M238 1069h180l-228 -1069h-180z" />
<glyph unicode="&#x134;" horiz-adv-x="966" d="M688 1692l238 184h131l157 -184l-108 -50l-137 130l-193 -130zM-80 68l78 149q34 -31 97 -52.5t141 -21.5q64 0 114.5 15.5t89.5 51t68 79.5t54.5 114t44 140t40.5 172l158 737h184l-158 -737q-22 -104 -42.5 -181t-49.5 -158t-62.5 -138t-80 -109t-102.5 -83.5t-130 -50 t-163 -18.5q-173 0 -281 91z" />
<glyph unicode="&#x135;" horiz-adv-x="462" d="M133 1311l238 184h131l157 -184l-108 -49l-137 129l-193 -129zM-428 -295l109 121q39 -47 122 -47q63 0 122.5 50.5t74.5 123.5l238 1116h180l-236 -1104q-32 -149 -147 -247.5t-246 -98.5q-143 0 -217 86z" />
<glyph unicode="&#x136;" horiz-adv-x="1280" d="M350 1452h185l-173 -803l871 805h201l-689 -641l410 -813h-203l-344 707l-289 -263l-94 -444h-184zM410 -436l75 166h-51l37 172h158l-37 -172l-94 -166h-88z" />
<glyph unicode="&#x137;" horiz-adv-x="1110" d="M1051 872q0 -132 -88.5 -242.5t-255.5 -180.5l235 -449h-194l-254 522q186 41 289.5 132.5t103.5 193.5q0 92 -96 92q-135 0 -281.5 -134.5t-216.5 -324.5l-103 -481h-180l318 1495h180l-150 -707q232 299 480 299q107 0 160 -57.5t53 -157.5zM311 -270l37 172h158 l-37 -172l-94 -166h-88l75 166h-51z" />
<glyph unicode="&#x138;" horiz-adv-x="1060" d="M238 1069h180l-119 -557l629 555h196l-495 -442l291 -625h-195l-233 522l-232 -192l-70 -330h-180z" />
<glyph unicode="&#x139;" horiz-adv-x="1144" d="M508 1632l-111 41l156 207h178zM350 1454h185l-275 -1290h764l-35 -164h-948z" />
<glyph unicode="&#x13a;" horiz-adv-x="573" d="M500 1673l-111 41l156 207h178zM51 145q0 20 8 66l273 1284h178l-258 -1219q-4 -28 -4 -38q0 -42 24 -65t68 -23q50 0 113 24l-7 -145q-45 -18 -108 -30.5t-109 -12.5q-85 0 -131.5 42t-46.5 117z" />
<glyph unicode="&#x13b;" horiz-adv-x="1144" d="M350 1454h185l-275 -1290h764l-35 -164h-948zM356 -436l76 166h-51l37 172h157l-36 -172l-95 -166h-88z" />
<glyph unicode="&#x13c;" horiz-adv-x="573" d="M51 145q0 20 8 66l273 1284h178l-258 -1219q-4 -28 -4 -38q0 -42 24 -65t68 -23q50 0 113 24l-7 -145q-45 -18 -108 -30.5t-109 -12.5q-85 0 -131.5 42t-46.5 117zM94 -436l76 166h-51l37 172h157l-37 -172l-94 -166h-88z" />
<glyph unicode="&#x13d;" horiz-adv-x="1144" d="M930 1288l155 207h179l-224 -248zM350 1454h185l-275 -1290h764l-35 -164h-948z" />
<glyph unicode="&#x13e;" horiz-adv-x="573" d="M51 145q0 20 8 66l273 1284h178l-258 -1219q-4 -28 -4 -38q0 -42 24 -65t68 -23q50 0 113 24l-7 -145q-45 -18 -108 -30.5t-109 -12.5q-85 0 -131.5 42t-46.5 117zM512 1288l156 207h178l-223 -248z" />
<glyph unicode="&#x13f;" horiz-adv-x="1144" d="M350 1454h185l-275 -1290h764l-35 -164h-948zM670 702l53 254h151l-53 -254h-151z" />
<glyph unicode="&#x140;" horiz-adv-x="665" d="M51 145q0 20 8 66l273 1284h178l-258 -1219q-4 -28 -4 -38q0 -42 24 -65t68 -23q50 0 113 24l-7 -145q-45 -18 -108 -30.5t-109 -12.5q-85 0 -131.5 42t-46.5 117zM473 551l53 254h152l-53 -254h-152z" />
<glyph unicode="&#x141;" horiz-adv-x="1157" d="M260 164h764l-35 -164h-948l117 553l-109 -76l-31 103l170 116l162 758h185l-129 -610l331 227l29 -100l-391 -271z" />
<glyph unicode="&#x142;" horiz-adv-x="616" d="M289 238q0 -42 23 -65t67 -23q52 0 115 24l-7 -145q-47 -19 -110 -31t-109 -12q-85 0 -131.5 42t-46.5 117q0 20 8 66l97 455l-134 -86l-30 100l194 125l146 690h180l-117 -555l197 129l33 -100l-261 -168l-102 -484q-12 -53 -12 -79z" />
<glyph unicode="&#x143;" horiz-adv-x="1513" d="M1049 1628l-111 41l156 207h178zM350 1454h144l602 -1132l239 1130h185l-310 -1452h-153l-596 1110l-236 -1110h-184z" />
<glyph unicode="&#x144;" horiz-adv-x="1161" d="M907 1247l-110 41l155 207h178zM238 1069h163l-49 -229q83 113 211.5 180t261.5 67q234 0 234 -251q0 -68 -25 -197l-135 -639h-180l127 598q18 88 18 154q0 174 -145 174q-104 0 -218 -80.5t-173 -200.5l-138 -645h-180z" />
<glyph unicode="&#x145;" horiz-adv-x="1513" d="M350 1454h144l602 -1132l239 1130h185l-310 -1452h-153l-596 1110l-236 -1110h-184zM487 -436l76 166h-51l37 172h158l-37 -172l-95 -166h-88z" />
<glyph unicode="&#x146;" horiz-adv-x="1161" d="M238 1069h163l-49 -229q83 113 211.5 180t261.5 67q234 0 234 -251q0 -68 -25 -197l-135 -639h-180l127 598q18 88 18 154q0 174 -145 174q-104 0 -218 -80.5t-173 -200.5l-138 -645h-180zM315 -436l76 166h-51l37 172h158l-37 -172l-95 -166h-88z" />
<glyph unicode="&#x147;" horiz-adv-x="1513" d="M770 1827l109 49l137 -129l192 129l88 -49l-237 -185h-131zM350 1454h144l602 -1132l239 1130h185l-310 -1452h-153l-596 1110l-236 -1110h-184z" />
<glyph unicode="&#x148;" horiz-adv-x="1161" d="M629 1446l108 49l137 -129l193 129l88 -49l-237 -184h-132zM238 1069h163l-49 -229q83 113 211.5 180t261.5 67q234 0 234 -251q0 -68 -25 -197l-135 -639h-180l127 598q18 88 18 154q0 174 -145 174q-104 0 -218 -80.5t-173 -200.5l-138 -645h-180z" />
<glyph unicode="&#x14a;" horiz-adv-x="1499" d="M578 -295l108 121q36 -47 119 -47q65 0 124.5 50.5t74.5 123.5l16 78l-559 1075l-236 -1106h-184l309 1454h142l587 -1124l240 1122h184l-317 -1493q-21 -97 -83.5 -176t-144.5 -121.5t-165 -42.5q-144 0 -215 86z" />
<glyph unicode="&#x14b;" horiz-adv-x="1161" d="M281 -295l108 121q39 -47 123 -47q62 0 121 50.5t76 123.5l137 645q18 88 18 154q0 174 -145 174q-104 0 -218 -80.5t-173 -200.5l-138 -645h-180l228 1069h163l-49 -229q83 113 211.5 180t261.5 67q234 0 234 -251q0 -68 -25 -197l-143 -674q-21 -99 -83 -179 t-144 -123.5t-166 -43.5q-143 0 -217 86z" />
<glyph unicode="&#x14c;" horiz-adv-x="1476" d="M694 1716l25 119h571l-26 -119h-570zM90 590q0 130 45 260.5t125 239.5t183.5 194t228 132.5t250.5 47.5q96 0 179.5 -33t143 -90.5t102.5 -134.5t64 -165t21 -181q0 -162 -70 -321t-183 -279.5t-265.5 -195t-309.5 -74.5q-120 0 -219 49.5t-162.5 133.5t-98 191.5 t-34.5 225.5zM1243 846q0 123 -41 224t-124 163.5t-195 62.5q-122 0 -235.5 -62t-193 -160t-127.5 -222t-48 -246q0 -124 40.5 -224.5t124 -163t197.5 -62.5q98 0 191.5 40.5t166.5 109.5t128.5 157t85.5 187.5t30 195.5z" />
<glyph unicode="&#x14d;" horiz-adv-x="1183" d="M461 1335l24 119h572l-27 -119h-569zM45 430q0 176 85 327.5t230.5 240.5t315.5 89q105 0 187.5 -35t134.5 -97t79 -143.5t27 -176.5q0 -175 -85 -326t-231.5 -240t-318.5 -89q-139 0 -236.5 61.5t-142.5 161.5t-45 227zM915 608q0 144 -70.5 234t-197.5 90 q-78 0 -153.5 -37t-133.5 -99.5t-93.5 -152t-35.5 -188.5q0 -143 71 -231.5t198 -88.5q106 0 201 60.5t154.5 170.5t59.5 242z" />
<glyph unicode="&#x14e;" horiz-adv-x="1476" d="M1124 1876h103q-20 -97 -95.5 -162t-166.5 -65q-79 0 -126.5 48.5t-47.5 125.5q0 26 6 53h104q-4 -24 -4 -35q0 -44 24 -74t62 -30q41 0 81.5 39.5t59.5 99.5zM90 590q0 130 45 260.5t125 239.5t183.5 194t228 132.5t250.5 47.5q96 0 179.5 -33t143 -90.5t102.5 -134.5 t64 -165t21 -181q0 -162 -70 -321t-183 -279.5t-265.5 -195t-309.5 -74.5q-120 0 -219 49.5t-162.5 133.5t-98 191.5t-34.5 225.5zM1243 846q0 123 -41 224t-124 163.5t-195 62.5q-122 0 -235.5 -62t-193 -160t-127.5 -222t-48 -246q0 -124 40.5 -224.5t124 -163 t197.5 -62.5q98 0 191.5 40.5t166.5 109.5t128.5 157t85.5 187.5t30 195.5z" />
<glyph unicode="&#x14f;" horiz-adv-x="1183" d="M891 1495h102q-20 -97 -95.5 -162t-166.5 -65q-79 0 -126.5 48.5t-47.5 125.5q0 26 6 53h105q-4 -24 -4 -35q0 -44 24 -74t62 -30q41 0 81.5 39.5t59.5 99.5zM45 430q0 176 85 327.5t230.5 240.5t315.5 89q105 0 187.5 -35t134.5 -97t79 -143.5t27 -176.5 q0 -175 -85 -326t-231.5 -240t-318.5 -89q-139 0 -236.5 61.5t-142.5 161.5t-45 227zM915 608q0 144 -70.5 234t-197.5 90q-78 0 -153.5 -37t-133.5 -99.5t-93.5 -152t-35.5 -188.5q0 -143 71 -231.5t198 -88.5q106 0 201 60.5t154.5 170.5t59.5 242z" />
<glyph unicode="&#x150;" horiz-adv-x="1476" d="M850 1628l-84 41l147 207h154zM1120 1628l-84 41l148 207h153zM90 590q0 130 45 260.5t125 239.5t183.5 194t228 132.5t250.5 47.5q96 0 179.5 -33t143 -90.5t102.5 -134.5t64 -165t21 -181q0 -162 -70 -321t-183 -279.5t-265.5 -195t-309.5 -74.5q-120 0 -219 49.5 t-162.5 133.5t-98 191.5t-34.5 225.5zM1243 846q0 123 -41 224t-124 163.5t-195 62.5q-122 0 -235.5 -62t-193 -160t-127.5 -222t-48 -246q0 -124 40.5 -224.5t124 -163t197.5 -62.5q98 0 191.5 40.5t166.5 109.5t128.5 157t85.5 187.5t30 195.5z" />
<glyph unicode="&#x151;" horiz-adv-x="1183" d="M616 1247l-84 41l148 207h154zM887 1247l-84 41l147 207h154zM45 430q0 176 85 327.5t230.5 240.5t315.5 89q105 0 187.5 -35t134.5 -97t79 -143.5t27 -176.5q0 -175 -85 -326t-231.5 -240t-318.5 -89q-139 0 -236.5 61.5t-142.5 161.5t-45 227zM915 608q0 144 -70.5 234 t-197.5 90q-78 0 -153.5 -37t-133.5 -99.5t-93.5 -152t-35.5 -188.5q0 -143 71 -231.5t198 -88.5q106 0 201 60.5t154.5 170.5t59.5 242z" />
<glyph unicode="&#x152;" horiz-adv-x="2205" d="M90 590q0 131 44.5 261t124.5 239t183 194t227.5 132.5t250.5 47.5q153 0 256.5 -92.5t140.5 -238.5l67 321h908l-35 -164h-723l-98 -467h616l-35 -164h-616l-107 -495h740l-35 -164h-924l70 322q-101 -147 -246 -239.5t-295 -92.5q-120 0 -219 49.5t-162.5 133.5 t-98 191.5t-34.5 225.5zM1241 848q0 122 -41 223t-123.5 164t-193.5 63q-122 0 -235.5 -62t-193 -160.5t-127.5 -223t-48 -246.5q0 -123 40.5 -224t123.5 -163.5t196 -62.5q122 0 235 62.5t192.5 161t127 223t47.5 245.5z" />
<glyph unicode="&#x153;" horiz-adv-x="2004" d="M45 424q0 132 54 255.5t143 212.5t207.5 142t242.5 53q141 0 235 -83t120 -228q94 150 221 230.5t272 80.5q189 0 297.5 -122.5t108.5 -327.5q0 -110 -27 -164h-836q-4 -20 -4 -61q0 -130 76.5 -214.5t198.5 -84.5q97 0 189 50.5t136 129.5l144 -43q-79 -121 -218 -195.5 t-286 -74.5q-135 0 -233.5 81.5t-141.5 223.5q-104 -146 -229.5 -225.5t-259.5 -79.5q-185 0 -297.5 125t-112.5 319zM1772 590q4 46 4 65q0 133 -74.5 215t-194.5 82q-134 0 -248 -102t-155 -260h668zM915 616q0 136 -70.5 226t-185.5 90q-106 0 -205 -66.5t-161 -180.5 t-62 -241q0 -134 71.5 -221.5t186.5 -87.5q80 0 158 39t136.5 103.5t95 154t36.5 184.5z" />
<glyph unicode="&#x154;" horiz-adv-x="1296" d="M887 1632l-111 41l156 207h178zM41 0l309 1454h594q101 0 178 -55.5t115.5 -142.5t38.5 -187q0 -171 -113.5 -321t-275.5 -191l215 -557h-209l-201 522h-356l-111 -522h-184zM782 686q120 0 211.5 113t91.5 250q0 101 -52.5 171t-133.5 70h-399l-129 -604h411z" />
<glyph unicode="&#x155;" horiz-adv-x="724" d="M563 1247l-110 41l155 207h178zM238 1069h168l-54 -248q78 113 178.5 181.5t196.5 68.5q29 0 53 -4l-32 -156q-129 -3 -241 -69.5t-177 -182.5l-140 -659h-180z" />
<glyph unicode="&#x156;" horiz-adv-x="1296" d="M41 0l309 1454h594q101 0 178 -55.5t115.5 -142.5t38.5 -187q0 -171 -113.5 -321t-275.5 -191l215 -557h-209l-201 522h-356l-111 -522h-184zM782 686q120 0 211.5 113t91.5 250q0 101 -52.5 171t-133.5 70h-399l-129 -604h411zM356 -436l76 166h-51l37 172h157l-36 -172 l-95 -166h-88z" />
<glyph unicode="&#x157;" horiz-adv-x="724" d="M238 1069h168l-54 -248q78 113 178.5 181.5t196.5 68.5q29 0 53 -4l-32 -156q-129 -3 -241 -69.5t-177 -182.5l-140 -659h-180zM-57 -436l75 166h-51l37 172h158l-37 -172l-94 -166h-88z" />
<glyph unicode="&#x158;" horiz-adv-x="1296" d="M608 1831l109 49l137 -129l193 129l88 -49l-238 -184h-131zM41 0l309 1454h594q101 0 178 -55.5t115.5 -142.5t38.5 -187q0 -171 -113.5 -321t-275.5 -191l215 -557h-209l-201 522h-356l-111 -522h-184zM782 686q120 0 211.5 113t91.5 250q0 101 -52.5 171t-133.5 70 h-399l-129 -604h411z" />
<glyph unicode="&#x159;" horiz-adv-x="724" d="M285 1446l108 49l137 -129l193 129l88 -49l-238 -184h-131zM238 1069h168l-54 -248q78 113 178.5 181.5t196.5 68.5q29 0 53 -4l-32 -156q-129 -3 -241 -69.5t-177 -182.5l-140 -659h-180z" />
<glyph unicode="&#x15a;" horiz-adv-x="1204" d="M887 1655l-111 41l156 207h178zM-25 190l121 156q49 -76 170 -135t269 -59q166 0 261 68.5t95 191.5q0 39 -16 70.5t-42 54.5t-72.5 44t-93 36t-118.5 34q-181 49 -266.5 117.5t-85.5 192.5q0 153 81.5 269t217 175t301.5 59q264 0 420 -166l-117 -149q-36 61 -130.5 106 t-211.5 45q-179 0 -269 -76t-90 -204q0 -85 70 -128t240 -85q95 -24 161 -50t120 -65t80 -94t26 -129q0 -119 -47.5 -213t-130.5 -152t-190.5 -88t-231.5 -30q-159 0 -292.5 52t-228.5 152z" />
<glyph unicode="&#x15b;" horiz-adv-x="972" d="M682 1247l-111 41l156 207h178zM-49 135l102 121q143 -137 334 -137q124 0 200.5 52.5t76.5 139.5q0 64 -47 92.5t-175 65.5q-15 4 -22 6q-51 15 -81 24.5t-66 23t-55.5 25.5t-40.5 29t-31 37t-16.5 45.5t-6.5 57.5q0 107 61 192t166.5 131.5t235.5 46.5q230 0 358 -141 l-104 -108q-52 59 -115 85.5t-147 26.5q-123 0 -200 -50t-77 -142q0 -61 40 -86.5t163 -59.5q73 -20 121.5 -37t93.5 -40.5t71 -50.5t41 -64.5t15 -85.5q0 -152 -131 -253t-344 -101q-130 0 -241 40.5t-179 114.5z" />
<glyph unicode="&#x15c;" horiz-adv-x="1204" d="M594 1718l237 185h132l157 -185l-108 -49l-138 129l-192 -129zM-25 190l121 156q49 -76 170 -135t269 -59q166 0 261 68.5t95 191.5q0 39 -16 70.5t-42 54.5t-72.5 44t-93 36t-118.5 34q-181 49 -266.5 117.5t-85.5 192.5q0 153 81.5 269t217 175t301.5 59 q264 0 420 -166l-117 -149q-36 61 -130.5 106t-211.5 45q-179 0 -269 -76t-90 -204q0 -85 70 -128t240 -85q95 -24 161 -50t120 -65t80 -94t26 -129q0 -119 -47.5 -213t-130.5 -152t-190.5 -88t-231.5 -30q-159 0 -292.5 52t-228.5 152z" />
<glyph unicode="&#x15d;" horiz-adv-x="972" d="M389 1311l238 184h131l157 -184l-108 -49l-137 129l-193 -129zM-49 135l102 121q143 -137 334 -137q124 0 200.5 52.5t76.5 139.5q0 64 -47 92.5t-175 65.5q-15 4 -22 6q-51 15 -81 24.5t-66 23t-55.5 25.5t-40.5 29t-31 37t-16.5 45.5t-6.5 57.5q0 107 61 192 t166.5 131.5t235.5 46.5q230 0 358 -141l-104 -108q-52 59 -115 85.5t-147 26.5q-123 0 -200 -50t-77 -142q0 -61 40 -86.5t163 -59.5q73 -20 121.5 -37t93.5 -40.5t71 -50.5t41 -64.5t15 -85.5q0 -152 -131 -253t-344 -101q-130 0 -241 40.5t-179 114.5z" />
<glyph unicode="&#x15e;" horiz-adv-x="1204" d="M758 1300q-179 0 -269 -76t-90 -204q0 -85 70 -128t240 -85q95 -24 161 -50t120 -65t80 -94t26 -129q0 -110 -41 -199t-114 -147t-167.5 -92t-206.5 -43q54 -67 54 -144q0 -102 -66 -163.5t-176 -61.5q-109 0 -195 57l72 101q65 -45 121 -45q64 0 101.5 33t37.5 94 q0 67 -65 129q-142 6 -264.5 58t-211.5 144l121 156q49 -76 170 -135t269 -59q166 0 261 68.5t95 191.5q0 39 -16 70.5t-42 54.5t-72.5 44t-93 36t-118.5 34q-181 49 -266.5 117.5t-85.5 192.5q0 153 81.5 269t217 175t301.5 59q264 0 420 -166l-117 -149q-36 61 -130.5 106 t-211.5 45z" />
<glyph unicode="&#x15f;" horiz-adv-x="972" d="M504 612q73 -20 121.5 -37t93.5 -40.5t71 -50.5t41 -64.5t15 -85.5q0 -134 -104 -230.5t-279 -117.5q51 -67 51 -142q0 -102 -66 -163.5t-176 -61.5q-108 0 -194 57l72 101q65 -45 120 -45q64 0 102 33.5t38 93.5q0 63 -58 121q-124 3 -230 43.5t-171 111.5l102 121 q143 -137 334 -137q124 0 200.5 52.5t76.5 139.5q0 64 -47 92.5t-175 65.5q-15 4 -22 6q-51 15 -81 24.5t-66 23t-55.5 25.5t-40.5 29t-31 37t-16.5 45.5t-6.5 57.5q0 107 61 192t166.5 131.5t235.5 46.5q230 0 358 -141l-104 -108q-52 59 -115 85.5t-147 26.5 q-123 0 -200 -50t-77 -142q0 -61 40 -86.5t163 -59.5z" />
<glyph unicode="&#x160;" horiz-adv-x="1204" d="M608 1853l109 50l137 -129l193 129l88 -50l-238 -184h-131zM-25 190l121 156q49 -76 170 -135t269 -59q166 0 261 68.5t95 191.5q0 39 -16 70.5t-42 54.5t-72.5 44t-93 36t-118.5 34q-181 49 -266.5 117.5t-85.5 192.5q0 153 81.5 269t217 175t301.5 59q264 0 420 -166 l-117 -149q-36 61 -130.5 106t-211.5 45q-179 0 -269 -76t-90 -204q0 -85 70 -128t240 -85q95 -24 161 -50t120 -65t80 -94t26 -129q0 -119 -47.5 -213t-130.5 -152t-190.5 -88t-231.5 -30q-159 0 -292.5 52t-228.5 152z" />
<glyph unicode="&#x161;" horiz-adv-x="972" d="M403 1446l109 49l137 -129l193 129l88 -49l-238 -184h-131zM-49 135l102 121q143 -137 334 -137q124 0 200.5 52.5t76.5 139.5q0 64 -47 92.5t-175 65.5q-15 4 -22 6q-51 15 -81 24.5t-66 23t-55.5 25.5t-40.5 29t-31 37t-16.5 45.5t-6.5 57.5q0 107 61 192t166.5 131.5 t235.5 46.5q230 0 358 -141l-104 -108q-52 59 -115 85.5t-147 26.5q-123 0 -200 -50t-77 -142q0 -61 40 -86.5t163 -59.5q73 -20 121.5 -37t93.5 -40.5t71 -50.5t41 -64.5t15 -85.5q0 -152 -131 -253t-344 -101q-130 0 -241 40.5t-179 114.5z" />
<glyph unicode="&#x162;" horiz-adv-x="1200" d="M211 1454h1130l-34 -164h-473l-275 -1290h-22q63 -73 63 -156q0 -102 -66 -163.5t-176 -61.5q-108 0 -194 57l72 101q65 -45 120 -45q64 0 102 33.5t38 93.5q0 74 -80 141h-41l274 1290h-473z" />
<glyph unicode="&#x163;" horiz-adv-x="692" d="M438 928l-141 -664q-4 -20 -4 -31q0 -41 25.5 -61t66.5 -20q66 0 160 45l10 -144q-35 -26 -102.5 -45t-141.5 -22q54 -67 54 -142q0 -102 -66 -163.5t-176 -61.5q-109 0 -195 57l72 101q65 -45 121 -45q64 0 101.5 33t37.5 94q0 74 -80 141l8 4q-90 41 -90 146q0 29 6 59 l154 719h-139l31 141h137l75 356h181l-76 -356h227l-30 -141h-226z" />
<glyph unicode="&#x164;" horiz-adv-x="1200" d="M582 1827l108 49l137 -129l193 129l88 -49l-238 -185h-131zM649 1290h-473l35 164h1130l-34 -164h-473l-275 -1290h-184z" />
<glyph unicode="&#x165;" horiz-adv-x="692" d="M596 1288l156 207h178l-223 -248zM98 150q0 29 6 59l154 719h-139l31 141h137l75 356h181l-76 -356h227l-30 -141h-226l-141 -664q-4 -20 -4 -31q0 -41 25.5 -61t66.5 -20q66 0 160 45l10 -144q-39 -28 -112.5 -47.5t-151.5 -19.5q-87 0 -140 41.5t-53 122.5z" />
<glyph unicode="&#x166;" horiz-adv-x="1263" d="M1337 1290h-473l-102 -477h407l-20 -96h-408l-151 -717h-184l151 717h-405l20 96h406l102 477h-473l35 164h1130z" />
<glyph unicode="&#x167;" horiz-adv-x="692" d="M664 928h-226l-45 -213h221l-24 -115h-221l-72 -336q-4 -20 -4 -31q0 -41 25.5 -61t66.5 -20q66 0 160 45l10 -144q-39 -28 -112.5 -47.5t-151.5 -19.5q-87 0 -140 41.5t-53 122.5q0 29 6 59l84 391h-143l25 115h143l45 213h-139l31 141h137l75 356h181l-76 -356h227z " />
<glyph unicode="&#x168;" horiz-adv-x="1484" d="M844 1751q-39 0 -67.5 -24t-38 -45t-9.5 -29h-106q3 13 13 35.5t30.5 54t47 57.5t66.5 45t84 19q47 0 85 -22t73 -44t74 -22q34 0 61 14t41 34t20.5 32.5t8.5 19.5h104q-3 -16 -19.5 -47t-46 -69.5t-80 -66.5t-108.5 -28q-39 0 -73.5 13.5t-55.5 29.5t-48.5 29.5 t-55.5 13.5zM145 475q0 109 29 244l156 735h184l-156 -735q-24 -111 -24 -213q0 -77 16 -138.5t51 -110t96.5 -75t145.5 -26.5q91 0 169.5 32t135 85t101.5 127.5t73 152.5t47 166l156 735h184l-155 -735q-33 -152 -93.5 -280.5t-150 -230.5t-218 -160t-282.5 -58 q-100 0 -179.5 24.5t-132.5 68t-87.5 105.5t-50 133t-15.5 154z" />
<glyph unicode="&#x169;" horiz-adv-x="1181" d="M639 1370q-39 0 -67.5 -24t-38 -45t-9.5 -29h-106q3 13 13 35.5t30.5 54t47 57.5t66.5 45t84 19q47 0 85 -22t73 -44t74 -22q34 0 61 14t41 34t20.5 32.5t8.5 19.5h104q-3 -16 -19.5 -47t-46 -69.5t-80 -66.5t-108.5 -28q-39 0 -73.5 13.5t-55.5 29.5t-48.5 29.5 t-55.5 13.5zM68 250q0 71 22 178l137 641h179l-130 -606q-18 -83 -18 -141q0 -187 160 -187q104 0 209 71t176 193l141 670h180l-180 -848q-4 -20 -4 -26q0 -20 10.5 -28.5t34.5 -10.5l-33 -156q-62 -8 -71 -8q-55 0 -84 24t-29 66q0 35 23 147q-91 -119 -216.5 -184 t-257.5 -65q-249 0 -249 270z" />
<glyph unicode="&#x16a;" horiz-adv-x="1484" d="M680 1716l25 119h571l-27 -119h-569zM145 475q0 109 29 244l156 735h184l-156 -735q-24 -111 -24 -213q0 -77 16 -138.5t51 -110t96.5 -75t145.5 -26.5q91 0 169.5 32t135 85t101.5 127.5t73 152.5t47 166l156 735h184l-155 -735q-33 -152 -93.5 -280.5t-150 -230.5 t-218 -160t-282.5 -58q-100 0 -179.5 24.5t-132.5 68t-87.5 105.5t-50 133t-15.5 154z" />
<glyph unicode="&#x16b;" horiz-adv-x="1181" d="M475 1335l25 119h571l-27 -119h-569zM68 250q0 71 22 178l137 641h179l-130 -606q-18 -83 -18 -141q0 -187 160 -187q104 0 209 71t176 193l141 670h180l-180 -848q-4 -20 -4 -26q0 -20 10.5 -28.5t34.5 -10.5l-33 -156q-62 -8 -71 -8q-55 0 -84 24t-29 66q0 35 23 147 q-91 -119 -216.5 -184t-257.5 -65q-249 0 -249 270z" />
<glyph unicode="&#x16c;" horiz-adv-x="1484" d="M1110 1876h102q-20 -97 -95.5 -162t-166.5 -65q-79 0 -126.5 48.5t-47.5 125.5q0 26 6 53h105q-4 -24 -4 -35q0 -44 24 -74t62 -30q41 0 81.5 39.5t59.5 99.5zM145 475q0 109 29 244l156 735h184l-156 -735q-24 -111 -24 -213q0 -77 16 -138.5t51 -110t96.5 -75 t145.5 -26.5q91 0 169.5 32t135 85t101.5 127.5t73 152.5t47 166l156 735h184l-155 -735q-33 -152 -93.5 -280.5t-150 -230.5t-218 -160t-282.5 -58q-100 0 -179.5 24.5t-132.5 68t-87.5 105.5t-50 133t-15.5 154z" />
<glyph unicode="&#x16d;" horiz-adv-x="1181" d="M905 1495h103q-20 -96 -96 -161.5t-167 -65.5q-79 0 -126.5 48.5t-47.5 125.5q0 22 7 53h104q-4 -24 -4 -35q0 -44 24 -74t62 -30q41 0 81.5 39.5t59.5 99.5zM68 250q0 71 22 178l137 641h179l-130 -606q-18 -83 -18 -141q0 -187 160 -187q104 0 209 71t176 193l141 670 h180l-180 -848q-4 -20 -4 -26q0 -20 10.5 -28.5t34.5 -10.5l-33 -156q-62 -8 -71 -8q-55 0 -84 24t-29 66q0 35 23 147q-91 -119 -216.5 -184t-257.5 -65q-249 0 -249 270z" />
<glyph unicode="&#x16e;" horiz-adv-x="1484" d="M1001 1876q63 0 98.5 -31t35.5 -84q0 -73 -55.5 -120.5t-139.5 -47.5q-61 0 -97 31t-36 84q0 74 56.5 121t137.5 47zM891 1720q0 -27 17 -45t46 -18q36 0 67.5 27t31.5 65q0 29 -18 46t-48 17q-38 0 -67 -26.5t-29 -65.5zM145 475q0 109 29 244l156 735h184l-156 -735 q-24 -111 -24 -213q0 -77 16 -138.5t51 -110t96.5 -75t145.5 -26.5q91 0 169.5 32t135 85t101.5 127.5t73 152.5t47 166l156 735h184l-155 -735q-33 -152 -93.5 -280.5t-150 -230.5t-218 -160t-282.5 -58q-100 0 -179.5 24.5t-132.5 68t-87.5 105.5t-50 133t-15.5 154z" />
<glyph unicode="&#x16f;" horiz-adv-x="1181" d="M797 1495q62 0 97.5 -31t35.5 -84q0 -73 -55.5 -120.5t-139.5 -47.5q-61 0 -97 31t-36 84q0 74 57 121t138 47zM686 1339q0 -27 17.5 -45t46.5 -18q36 0 67 27t31 65q0 29 -18.5 46.5t-47.5 17.5q-38 0 -67 -27t-29 -66zM68 250q0 71 22 178l137 641h179l-130 -606 q-18 -83 -18 -141q0 -187 160 -187q104 0 209 71t176 193l141 670h180l-180 -848q-4 -20 -4 -26q0 -20 10.5 -28.5t34.5 -10.5l-33 -156q-62 -8 -71 -8q-55 0 -84 24t-29 66q0 35 23 147q-91 -119 -216.5 -184t-257.5 -65q-249 0 -249 270z" />
<glyph unicode="&#x170;" horiz-adv-x="1484" d="M836 1628l-84 41l147 207h154zM1106 1628l-84 41l147 207h154zM145 475q0 109 29 244l156 735h184l-156 -735q-24 -111 -24 -213q0 -77 16 -138.5t51 -110t96.5 -75t145.5 -26.5q91 0 169.5 32t135 85t101.5 127.5t73 152.5t47 166l156 735h184l-155 -735 q-33 -152 -93.5 -280.5t-150 -230.5t-218 -160t-282.5 -58q-100 0 -179.5 24.5t-132.5 68t-87.5 105.5t-50 133t-15.5 154z" />
<glyph unicode="&#x171;" horiz-adv-x="1181" d="M631 1247l-84 41l147 207h154zM901 1247l-84 41l148 207h153zM68 250q0 71 22 178l137 641h179l-130 -606q-18 -83 -18 -141q0 -187 160 -187q104 0 209 71t176 193l141 670h180l-180 -848q-4 -20 -4 -26q0 -20 10.5 -28.5t34.5 -10.5l-33 -156q-62 -8 -71 -8 q-55 0 -84 24t-29 66q0 35 23 147q-91 -119 -216.5 -184t-257.5 -65q-249 0 -249 270z" />
<glyph unicode="&#x172;" horiz-adv-x="1484" d="M1325 1454h184l-155 -735q-30 -140 -84 -260t-132.5 -219t-188.5 -163t-242 -81q-86 -74 -122 -120.5t-36 -86.5q0 -29 23 -42.5t69 -18.5l-68 -115q-77 8 -110 46t-33 89q0 121 150 242q-93 4 -167.5 30.5t-124 70t-82 104.5t-47 130t-14.5 150q0 109 29 244l156 735 h184l-156 -735q-24 -111 -24 -213q0 -77 16 -138.5t51 -110t96.5 -75t145.5 -26.5q91 0 169.5 32t135 85t101.5 127.5t73 152.5t47 166z" />
<glyph unicode="&#x173;" horiz-adv-x="1181" d="M940 195q0 -20 10.5 -28.5t34.5 -10.5l-33 -156q-87 -75 -124 -123t-37 -88q0 -29 23 -42.5t69 -18.5l-68 -115q-77 8 -110 46t-33 89q0 125 159 250q-63 18 -63 84q0 35 23 147q-91 -119 -216.5 -184t-257.5 -65q-249 0 -249 270q0 71 22 178l137 641h179l-130 -606 q-18 -83 -18 -141q0 -187 160 -187q104 0 209 71t176 193l141 670h180l-180 -848q-4 -20 -4 -26z" />
<glyph unicode="&#x174;" horiz-adv-x="2052" d="M981 1692l238 184h131l157 -184l-108 -50l-137 130l-193 -130zM190 1454h199l197 -1241l358 600l-104 633h174l71 -506l289 506h174l-372 -633l102 -600l723 1241h203l-887 -1454h-158l-125 686l-420 -686h-157z" />
<glyph unicode="&#x175;" horiz-adv-x="1572" d="M655 1311l238 184h131l158 -184l-109 -49l-137 129l-193 -129zM100 1069h187l170 -911q138 181 235 338l-143 573h186l82 -346q87 176 133 346h172q-78 -278 -252 -567l84 -344q358 495 465 911h172q-138 -500 -579 -1069h-195l-76 301q-116 -165 -227 -301h-195z" />
<glyph unicode="&#x176;" horiz-adv-x="1253" d="M551 1692l237 184h132l157 -184l-108 -50l-138 130l-192 -130zM508 535l-326 919h203l250 -758l575 758h201l-721 -924l-112 -530h-185z" />
<glyph unicode="&#x177;" horiz-adv-x="1026" d="M371 1311l237 184h131l158 -184l-109 -49l-137 129l-192 -129zM-72 -313q130 19 192 57t132 143l59 90l-207 1092h187l147 -907l70 114q172 283 248 445.5t123 347.5h178q-55 -198 -137 -364.5t-285 -493.5l-164 -264q-140 -225 -253 -314t-265 -92z" />
<glyph unicode="&#x178;" horiz-adv-x="1253" d="M571 1659l45 209h152l-45 -209h-152zM893 1659l45 209h149l-43 -209h-151zM508 535l-326 919h203l250 -758l575 758h201l-721 -924l-112 -530h-185z" />
<glyph unicode="&#x179;" horiz-adv-x="1228" d="M891 1632l-111 41l156 207h178zM-39 143l1124 1147h-862l35 164h1077l-30 -143l-1108 -1147h864l-35 -164h-1096z" />
<glyph unicode="&#x17a;" horiz-adv-x="962" d="M676 1247l-111 41l156 207h178zM-47 117l807 821h-615l29 131h815l-24 -117l-803 -821h631l-29 -131h-836z" />
<glyph unicode="&#x17b;" horiz-adv-x="1228" d="M772 1663l47 217h162l-45 -217h-164zM-39 143l1124 1147h-862l35 164h1077l-30 -143l-1108 -1147h864l-35 -164h-1096z" />
<glyph unicode="&#x17c;" horiz-adv-x="962" d="M557 1278l47 217h162l-45 -217h-164zM-47 117l807 821h-615l29 131h815l-24 -117l-803 -821h631l-29 -131h-836z" />
<glyph unicode="&#x17d;" horiz-adv-x="1228" d="M612 1831l109 49l137 -129l193 129l88 -49l-238 -184h-131zM-39 143l1124 1147h-862l35 164h1077l-30 -143l-1108 -1147h864l-35 -164h-1096z" />
<glyph unicode="&#x17e;" horiz-adv-x="962" d="M397 1446l109 49l137 -129l193 129l88 -49l-238 -184h-131zM-47 117l807 821h-615l29 131h815l-24 -117l-803 -821h631l-29 -131h-836z" />
<glyph unicode="&#x18f;" horiz-adv-x="1445" d="M55 578q0 136 43 225h1098q4 50 4 74q0 184 -98 300.5t-256 116.5q-132 0 -257.5 -77t-185.5 -195l-159 80q110 161 291 261.5t362 100.5q149 0 265 -78.5t177.5 -212.5t61.5 -301q0 -140 -44.5 -275t-124 -243t-182 -191t-225 -128t-247.5 -45q-153 0 -273.5 78.5 t-185 212t-64.5 297.5zM1165 643h-919q-10 -44 -10 -104q0 -166 101.5 -274.5t278.5 -108.5q180 0 335 138t214 349z" />
<glyph unicode="&#x192;" horiz-adv-x="1048" d="M-131 -295l108 121q39 -47 123 -47q63 0 122.5 50.5t74.5 123.5l180 850h-137l29 141h139l31 148q41 196 149.5 310t253.5 114q124 0 213 -66l-72 -133q-52 45 -137 45q-83 0 -140 -68t-85 -196l-33 -154h268l-30 -141h-269l-180 -846q-32 -146 -147 -242t-244 -96 q-143 0 -217 86z" />
<glyph unicode="&#x1a0;" horiz-adv-x="1476" d="M1217 1364q103 -81 159 -216t56 -288q0 -162 -70 -321t-183 -279.5t-265.5 -195t-309.5 -74.5q-120 0 -219 49.5t-162.5 133.5t-98 191.5t-34.5 225.5q0 130 45 260.5t125 239.5t183.5 194t228 132.5t250.5 47.5q60 0 112 -12q121 3 162 47q38 40 57 125h148 q-36 -136 -111 -209q-30 -30 -73 -51zM641 156q98 0 191.5 40.5t166.5 109.5t128.5 157t85.5 187.5t30 195.5q0 123 -41 224t-124 163.5t-195 62.5q-122 0 -235.5 -62t-193 -160t-127.5 -222t-48 -246q0 -124 40.5 -224.5t124 -163t197.5 -62.5z" />
<glyph unicode="&#x1a1;" horiz-adv-x="1183" d="M1087 1034q-41 -39 -104 -63q121 -124 121 -336q0 -175 -85 -326t-231.5 -240t-318.5 -89q-139 0 -236.5 61.5t-142.5 161.5t-45 227q0 176 85 327.5t230.5 240.5t315.5 89q78 0 143 -18v2q130 0 174 47q39 41 58 125h147q-36 -136 -111 -209zM500 135q106 0 201 60.5 t154.5 170.5t59.5 242q0 144 -70.5 234t-197.5 90q-78 0 -153.5 -37t-133.5 -99.5t-93.5 -152t-35.5 -188.5q0 -143 71 -231.5t198 -88.5z" />
<glyph unicode="&#x1af;" horiz-adv-x="1484" d="M1649 1624h147q-36 -138 -110 -209q-68 -68 -203 -88l-129 -608q-33 -152 -93.5 -280.5t-150 -230.5t-218 -160t-282.5 -58q-100 0 -179.5 24.5t-132.5 68t-87.5 105.5t-50 133t-15.5 154q0 109 29 244l156 735h184l-156 -735q-24 -111 -24 -213q0 -77 16 -138.5t51 -110 t96.5 -75t145.5 -26.5q91 0 169.5 32t135 85t101.5 127.5t73 152.5t47 166l156 735h148q81 5 118 45q39 41 58 125z" />
<glyph unicode="&#x1b0;" horiz-adv-x="1181" d="M1262 1233h147q-36 -136 -111 -209q-68 -68 -202 -88l-152 -715q-4 -20 -4 -26q0 -20 10.5 -28.5t34.5 -10.5l-33 -156q-62 -8 -71 -8q-55 0 -84 24t-29 66q0 35 23 147q-91 -119 -216.5 -184t-257.5 -65q-249 0 -249 270q0 71 22 178l137 641h179l-130 -606 q-18 -83 -18 -141q0 -187 160 -187q104 0 209 71t176 193l141 670h180v-2q54 12 80 41q39 41 58 125z" />
<glyph unicode="&#x1e6;" horiz-adv-x="1404" d="M1008 1642h-131l-158 185l108 49l138 -129l192 129l88 -49zM844 586l30 139h451l-154 -725h-155l41 197q-223 -207 -459 -207q-151 0 -268.5 86.5t-177.5 224t-60 297.5q0 162 69 321t181 278.5t263 193t306 73.5q192 0 307.5 -84.5t155.5 -232.5l-162 -98 q-33 123 -122 186t-218 63q-157 0 -295.5 -102t-218 -261t-79.5 -327q0 -192 101.5 -322t266.5 -130q226 0 451 231l43 199h-297z" />
<glyph unicode="&#x1e7;" horiz-adv-x="1226" d="M485 1446l109 49l137 -129l193 129l88 -49l-238 -184h-131zM-78 -221l123 92q39 -92 123.5 -140t196.5 -48q147 0 262 85t149 244l39 189q-74 -97 -184.5 -155t-218.5 -58q-167 0 -267 127t-100 309q0 169 82.5 322t223 247t298.5 94q229 0 328 -231l45 213h160 l-226 -1057q-31 -147 -123.5 -255t-220.5 -161t-276 -53q-164 0 -263 60.5t-151 175.5zM854 375l66 307q-17 109 -93 179.5t-174 70.5q-112 0 -211 -74t-155 -184t-56 -221q0 -134 75 -226t194 -92q103 0 208 73.5t146 166.5z" />
<glyph unicode="&#x1ea;" horiz-adv-x="1476" d="M682 -6q-83 -72 -119.5 -119t-36.5 -86q0 -29 23 -42.5t69 -18.5l-67 -115q-77 8 -110 46t-33 89q0 120 151 244q-145 12 -253.5 99t-162 217t-53.5 282q0 130 45 260.5t125 239.5t183.5 194t228 132.5t250.5 47.5q96 0 179.5 -33t143 -90.5t102.5 -134.5t64 -165 t21 -181q0 -152 -62 -302.5t-164 -268t-240 -197.5t-284 -98zM279 606q0 -124 40.5 -224.5t124 -163t197.5 -62.5q98 0 191.5 40.5t166.5 109.5t128.5 157t85.5 187.5t30 195.5q0 123 -41 224t-124 163.5t-195 62.5q-122 0 -235.5 -62t-193 -160t-127.5 -222t-48 -246z" />
<glyph unicode="&#x1eb;" horiz-adv-x="1183" d="M551 -14q-78 -70 -111.5 -114.5t-33.5 -82.5q0 -29 23 -42.5t69 -18.5l-68 -115q-77 8 -110 46t-33 89q0 116 139 234q-186 13 -283.5 137.5t-97.5 310.5q0 176 85 327.5t230.5 240.5t315.5 89q105 0 187.5 -35t134.5 -97t79 -143.5t27 -176.5q0 -245 -159.5 -431.5 t-393.5 -217.5zM231 455q0 -143 71 -231.5t198 -88.5q106 0 201 60.5t154.5 170.5t59.5 242q0 144 -70.5 234t-197.5 90q-78 0 -153.5 -37t-133.5 -99.5t-93.5 -152t-35.5 -188.5z" />
<glyph unicode="&#x1fa;" horiz-adv-x="1335" d="M918 1454h14l252 -1454h-197l-69 426h-570l-248 -426h-196l870 1454h12q-34 12 -52.5 40t-18.5 65q0 63 41 107t106 56l154 193h178l-199 -211q47 -27 47 -92q0 -56 -34 -98t-90 -60zM895 1663q-38 0 -67 -26.5t-29 -65.5q0 -27 17.5 -45.5t45.5 -18.5q36 0 67.5 27 t31.5 65q0 29 -18.5 46.5t-47.5 17.5zM414 569h495l-100 672z" />
<glyph unicode="&#x1fb;" horiz-adv-x="1241" d="M907 1673l-110 41l155 207h178zM825 1495q62 0 97.5 -31t35.5 -84q0 -73 -55 -120.5t-139 -47.5q-61 0 -97 31t-36 84q0 74 56.5 121t137.5 47zM715 1339q0 -27 17 -45t46 -18q36 0 67.5 27t31.5 65q0 29 -18.5 46.5t-47.5 17.5q-38 0 -67 -27t-29 -66zM45 424 q0 126 49 247.5t129.5 212.5t190 147t223.5 56q118 0 200.5 -64.5t118.5 -166.5l48 213h180l-180 -848q-5 -25 -5 -26q0 -20 10.5 -28.5t34.5 -10.5l-32 -156q-62 -8 -72 -8q-55 0 -86 25.5t-31 66.5q0 30 19 117q-79 -102 -192.5 -161.5t-223.5 -59.5q-174 0 -277.5 128 t-103.5 316zM856 375l64 307q-13 104 -91 177t-172 73q-110 0 -208.5 -71.5t-155.5 -182t-57 -225.5q0 -135 74 -226.5t194 -91.5q93 0 202.5 72t149.5 168z" />
<glyph unicode="&#x1fc;" horiz-adv-x="1892" d="M1325 1628l-111 41l156 207h178zM1024 1454h954l-34 -164h-723l-99 -467h617l-35 -164h-617l-106 -495h739l-34 -164h-922l92 426h-481l-338 -426h-201zM877 590l139 649l-524 -649h385z" />
<glyph unicode="&#x1fd;" horiz-adv-x="1818" d="M1016 1247l-111 41l156 207h178zM-12 254q0 168 145.5 278.5t358.5 110.5q133 0 241 -41q5 16 30 77.5t25 100.5q0 76 -57 126t-158 50q-148 0 -348 -125l-32 117q230 139 428 139q122 0 200.5 -50.5t108.5 -143.5q86 91 195 142.5t229 51.5q190 0 299.5 -127.5 t109.5 -322.5q0 -21 -1.5 -40t-3.5 -34.5t-4.5 -27.5t-6 -23t-6 -17t-5.5 -13.5t-3 -8.5h-856q-5 -50 -5 -61q0 -132 79 -214.5t202 -82.5q95 0 186 49.5t138 128.5l147 -43q-76 -120 -213.5 -195t-290.5 -75q-135 0 -233.5 62t-143.5 169q-86 -115 -221 -173t-250 -58 q-131 0 -207.5 77t-76.5 197zM1587 590q4 23 4 67q0 133 -73.5 214t-198.5 81q-141 0 -259 -102t-161 -260h688zM707 317q-7 32 -7 68q0 54 11 111q-98 39 -213 39q-144 0 -239 -69t-95 -177q0 -75 48 -124.5t134 -49.5q103 0 217.5 62t143.5 140z" />
<glyph unicode="&#x1fe;" horiz-adv-x="1476" d="M1229 1876l-223 -248l-111 41l156 207h178zM1505 1454l-180 -211q107 -167 107 -383q0 -162 -70 -321t-183 -279.5t-265.5 -195t-309.5 -74.5q-155 0 -278 86l-66 -76h-201l156 182q-125 169 -125 408q0 130 45 260.5t125 239.5t183.5 194t228 132.5t250.5 47.5 q176 0 301 -106l82 96h200zM279 606q0 -156 65 -274l756 885q-89 79 -217 79q-122 0 -235.5 -62t-193 -160t-127.5 -222t-48 -246zM1243 846q0 139 -51 244l-746 -873q80 -61 195 -61q98 0 191.5 40.5t166.5 109.5t128.5 157t85.5 187.5t30 195.5z" />
<glyph unicode="&#x1ff;" horiz-adv-x="1183" d="M1141 1495l-223 -248l-111 41l156 207h178zM1006 1073h112l-119 -121q105 -127 105 -313q0 -168 -87 -320t-237.5 -245.5t-322.5 -93.5q-146 0 -254 81l-66 -65h-110l120 121q-102 123 -102 309q0 169 88 321.5t238 246t321 93.5q142 0 248 -79zM657 932 q-77 0 -154.5 -39.5t-137 -104.5t-97 -155t-37.5 -184q0 -113 52 -197l534 620q-70 60 -160 60zM489 135q78 0 155.5 39t137 103.5t96.5 154t37 184.5q0 115 -51 197l-536 -616q68 -62 161 -62z" />
<glyph unicode="&#x200;" horiz-adv-x="1335" d="M596 1882h154l59 -207l-102 -41zM866 1882h152l61 -207l-102 -41zM774 1454h158l252 -1454h-197l-69 426h-570l-248 -426h-196zM909 569l-100 672l-395 -672h495z" />
<glyph unicode="&#x201;" horiz-adv-x="1241" d="M471 1497h154l59 -207l-102 -41zM741 1497h152l61 -207l-102 -41zM45 424q0 126 49 247.5t129.5 212.5t190 147t223.5 56q118 0 200.5 -64.5t118.5 -166.5l48 213h180l-180 -848q-5 -25 -5 -26q0 -20 10.5 -28.5t34.5 -10.5l-32 -156q-62 -8 -72 -8q-55 0 -86 25.5 t-31 66.5q0 30 19 117q-79 -102 -192.5 -161.5t-223.5 -59.5q-174 0 -277.5 128t-103.5 316zM856 375l64 307q-13 104 -91 177t-172 73q-110 0 -208.5 -71.5t-155.5 -182t-57 -225.5q0 -135 74 -226.5t194 -91.5q93 0 202.5 72t149.5 168z" />
<glyph unicode="&#x202;" horiz-adv-x="1335" d="M940 1880q77 0 125.5 -51.5t48.5 -126.5q0 -25 -6 -49h-100q4 36 4 51q0 88 -84 88q-114 0 -146 -139h-102q20 96 95 161.5t165 65.5zM774 1454h158l252 -1454h-197l-69 426h-570l-248 -426h-196zM909 569l-100 672l-395 -672h495z" />
<glyph unicode="&#x203;" horiz-adv-x="1241" d="M815 1495q77 0 125.5 -51.5t48.5 -126.5q0 -25 -6 -49h-100q4 36 4 51q0 88 -84 88q-114 0 -146 -139h-102q20 96 95 161.5t165 65.5zM45 424q0 126 49 247.5t129.5 212.5t190 147t223.5 56q118 0 200.5 -64.5t118.5 -166.5l48 213h180l-180 -848q-5 -25 -5 -26 q0 -20 10.5 -28.5t34.5 -10.5l-32 -156q-62 -8 -72 -8q-55 0 -86 25.5t-31 66.5q0 30 19 117q-79 -102 -192.5 -161.5t-223.5 -59.5q-174 0 -277.5 128t-103.5 316zM856 375l64 307q-13 104 -91 177t-172 73q-110 0 -208.5 -71.5t-155.5 -182t-57 -225.5q0 -135 74 -226.5 t194 -91.5q93 0 202.5 72t149.5 168z" />
<glyph unicode="&#x204;" horiz-adv-x="1187" d="M526 1882h154l59 -207l-102 -41zM797 1882h151l62 -207l-103 -41zM350 1454h922l-35 -164h-737l-101 -471h641l-32 -153h-641l-107 -502h756l-35 -164h-940z" />
<glyph unicode="&#x205;" horiz-adv-x="1103" d="M649 1290l-102 -41l-111 248h154zM920 1290l-103 -41l-110 248h151zM467 469q-123 0 -236 10q-2 -16 -2 -47q0 -136 68.5 -226.5t198.5 -90.5q95 0 185 48.5t140 129.5l146 -43q-76 -120 -213.5 -195t-286.5 -75q-195 0 -307.5 127.5t-112.5 324.5q0 127 49.5 246.5 t134.5 209.5t206 144.5t257 54.5q162 0 259.5 -74.5t97.5 -213.5q0 -330 -584 -330zM682 952q-85 0 -158 -29t-124.5 -79t-87 -110t-56.5 -130q137 -10 217 -10q416 0 416 207q0 76 -55 113.5t-152 37.5z" />
<glyph unicode="&#x206;" horiz-adv-x="1187" d="M870 1880q77 0 125.5 -51.5t48.5 -126.5q0 -25 -6 -49h-100q4 36 4 51q0 88 -84 88q-113 0 -145 -139h-103q20 96 95 161.5t165 65.5zM350 1454h922l-35 -164h-737l-101 -471h641l-32 -153h-641l-107 -502h756l-35 -164h-940z" />
<glyph unicode="&#x207;" horiz-adv-x="1103" d="M768 1407q-113 0 -145 -139h-103q20 96 95 161.5t165 65.5q77 0 125.5 -51.5t48.5 -126.5q0 -25 -6 -49h-100q4 36 4 51q0 88 -84 88zM467 469q-123 0 -236 10q-2 -16 -2 -47q0 -136 68.5 -226.5t198.5 -90.5q95 0 185 48.5t140 129.5l146 -43q-76 -120 -213.5 -195 t-286.5 -75q-195 0 -307.5 127.5t-112.5 324.5q0 127 49.5 246.5t134.5 209.5t206 144.5t257 54.5q162 0 259.5 -74.5t97.5 -213.5q0 -330 -584 -330zM682 952q-85 0 -158 -29t-124.5 -79t-87 -110t-56.5 -130q137 -10 217 -10q416 0 416 207q0 76 -55 113.5t-152 37.5z" />
<glyph unicode="&#x208;" horiz-adv-x="528" d="M180 1882h154l59 -207l-102 -41zM451 1882h151l62 -207l-103 -41zM350 1452h185l-310 -1452h-184z" />
<glyph unicode="&#x209;" horiz-adv-x="462" d="M61 1497h154l59 -207l-102 -41zM332 1497h151l62 -207l-103 -41zM238 1069h180l-228 -1069h-180z" />
<glyph unicode="&#x20a;" horiz-adv-x="528" d="M524 1880q77 0 125.5 -51.5t48.5 -126.5q0 -25 -6 -49h-100q4 36 4 51q0 88 -84 88q-113 0 -145 -139h-103q20 96 95 161.5t165 65.5zM350 1452h185l-310 -1452h-184z" />
<glyph unicode="&#x20b;" horiz-adv-x="462" d="M406 1495q77 0 125.5 -51.5t48.5 -126.5q0 -21 -7 -49h-100q4 36 4 51q0 88 -84 88q-113 0 -145 -139h-103q20 96 95.5 161.5t165.5 65.5zM238 1069h180l-228 -1069h-180z" />
<glyph unicode="&#x20c;" horiz-adv-x="1476" d="M662 1878h153l59 -207l-102 -41zM932 1878h151l62 -207l-103 -41zM90 590q0 130 45 260.5t125 239.5t183.5 194t228 132.5t250.5 47.5q96 0 179.5 -33t143 -90.5t102.5 -134.5t64 -165t21 -181q0 -162 -70 -321t-183 -279.5t-265.5 -195t-309.5 -74.5q-120 0 -219 49.5 t-162.5 133.5t-98 191.5t-34.5 225.5zM1243 846q0 123 -41 224t-124 163.5t-195 62.5q-122 0 -235.5 -62t-193 -160t-127.5 -222t-48 -246q0 -124 40.5 -224.5t124 -163t197.5 -62.5q98 0 191.5 40.5t166.5 109.5t128.5 157t85.5 187.5t30 195.5z" />
<glyph unicode="&#x20d;" horiz-adv-x="1183" d="M428 1497h154l59 -207l-102 -41zM698 1497h152l61 -207l-102 -41zM45 430q0 176 85 327.5t230.5 240.5t315.5 89q105 0 187.5 -35t134.5 -97t79 -143.5t27 -176.5q0 -175 -85 -326t-231.5 -240t-318.5 -89q-139 0 -236.5 61.5t-142.5 161.5t-45 227zM915 608 q0 144 -70.5 234t-197.5 90q-78 0 -153.5 -37t-133.5 -99.5t-93.5 -152t-35.5 -188.5q0 -143 71 -231.5t198 -88.5q106 0 201 60.5t154.5 170.5t59.5 242z" />
<glyph unicode="&#x20e;" horiz-adv-x="1476" d="M1006 1876q77 0 125.5 -51.5t48.5 -126.5q0 -25 -6 -49h-101q4 36 4 51q0 88 -84 88q-113 0 -145 -139h-103q20 96 95.5 161.5t165.5 65.5zM90 590q0 130 45 260.5t125 239.5t183.5 194t228 132.5t250.5 47.5q96 0 179.5 -33t143 -90.5t102.5 -134.5t64 -165t21 -181 q0 -162 -70 -321t-183 -279.5t-265.5 -195t-309.5 -74.5q-120 0 -219 49.5t-162.5 133.5t-98 191.5t-34.5 225.5zM1243 846q0 123 -41 224t-124 163.5t-195 62.5q-122 0 -235.5 -62t-193 -160t-127.5 -222t-48 -246q0 -124 40.5 -224.5t124 -163t197.5 -62.5 q98 0 191.5 40.5t166.5 109.5t128.5 157t85.5 187.5t30 195.5z" />
<glyph unicode="&#x20f;" horiz-adv-x="1183" d="M772 1495q77 0 125.5 -51.5t48.5 -126.5q0 -25 -6 -49h-100q4 36 4 51q0 88 -84 88q-114 0 -146 -139h-102q20 96 95 161.5t165 65.5zM45 430q0 176 85 327.5t230.5 240.5t315.5 89q105 0 187.5 -35t134.5 -97t79 -143.5t27 -176.5q0 -175 -85 -326t-231.5 -240 t-318.5 -89q-139 0 -236.5 61.5t-142.5 161.5t-45 227zM915 608q0 144 -70.5 234t-197.5 90q-78 0 -153.5 -37t-133.5 -99.5t-93.5 -152t-35.5 -188.5q0 -143 71 -231.5t198 -88.5q106 0 201 60.5t154.5 170.5t59.5 242z" />
<glyph unicode="&#x210;" horiz-adv-x="1296" d="M543 1882h153l60 -207l-103 -41zM813 1882h152l61 -207l-102 -41zM41 0l309 1454h594q101 0 178 -55.5t115.5 -142.5t38.5 -187q0 -171 -113.5 -321t-275.5 -191l215 -557h-209l-201 522h-356l-111 -522h-184zM782 686q120 0 211.5 113t91.5 250q0 101 -52.5 171 t-133.5 70h-399l-129 -604h411z" />
<glyph unicode="&#x211;" horiz-adv-x="724" d="M219 1497h154l59 -207l-102 -41zM489 1497h152l61 -207l-102 -41zM238 1069h168l-54 -248q78 113 178.5 181.5t196.5 68.5q29 0 53 -4l-32 -156q-129 -3 -241 -69.5t-177 -182.5l-140 -659h-180z" />
<glyph unicode="&#x212;" horiz-adv-x="1296" d="M887 1880q77 0 125.5 -51.5t48.5 -126.5q0 -25 -6 -49h-101q4 36 4 51q0 88 -84 88q-113 0 -145 -139h-102q20 96 95 161.5t165 65.5zM41 0l309 1454h594q101 0 178 -55.5t115.5 -142.5t38.5 -187q0 -171 -113.5 -321t-275.5 -191l215 -557h-209l-201 522h-356l-111 -522 h-184zM782 686q120 0 211.5 113t91.5 250q0 101 -52.5 171t-133.5 70h-399l-129 -604h411z" />
<glyph unicode="&#x213;" horiz-adv-x="724" d="M563 1495q77 0 125.5 -51.5t48.5 -126.5q0 -25 -6 -49h-100q4 36 4 51q0 88 -84 88q-113 0 -145 -139h-103q20 96 95 161.5t165 65.5zM238 1069h168l-54 -248q78 113 178.5 181.5t196.5 68.5q29 0 53 -4l-32 -156q-129 -3 -241 -69.5t-177 -182.5l-140 -659h-180z" />
<glyph unicode="&#x214;" horiz-adv-x="1484" d="M647 1878h154l59 -207l-102 -41zM918 1878h151l61 -207l-102 -41zM145 475q0 109 29 244l156 735h184l-156 -735q-24 -111 -24 -213q0 -77 16 -138.5t51 -110t96.5 -75t145.5 -26.5q91 0 169.5 32t135 85t101.5 127.5t73 152.5t47 166l156 735h184l-155 -735 q-33 -152 -93.5 -280.5t-150 -230.5t-218 -160t-282.5 -58q-100 0 -179.5 24.5t-132.5 68t-87.5 105.5t-50 133t-15.5 154z" />
<glyph unicode="&#x215;" horiz-adv-x="1181" d="M442 1497h154l59 -207l-102 -41zM713 1497h151l62 -207l-103 -41zM68 250q0 71 22 178l137 641h179l-130 -606q-18 -83 -18 -141q0 -187 160 -187q104 0 209 71t176 193l141 670h180l-180 -848q-4 -20 -4 -26q0 -20 10.5 -28.5t34.5 -10.5l-33 -156q-62 -8 -71 -8 q-55 0 -84 24t-29 66q0 35 23 147q-91 -119 -216.5 -184t-257.5 -65q-249 0 -249 270z" />
<glyph unicode="&#x216;" horiz-adv-x="1484" d="M991 1876q77 0 125.5 -51.5t48.5 -126.5q0 -25 -6 -49h-100q4 36 4 51q0 88 -84 88q-113 0 -145 -139h-103q20 96 95 161.5t165 65.5zM145 475q0 109 29 244l156 735h184l-156 -735q-24 -111 -24 -213q0 -77 16 -138.5t51 -110t96.5 -75t145.5 -26.5q91 0 169.5 32 t135 85t101.5 127.5t73 152.5t47 166l156 735h184l-155 -735q-33 -152 -93.5 -280.5t-150 -230.5t-218 -160t-282.5 -58q-100 0 -179.5 24.5t-132.5 68t-87.5 105.5t-50 133t-15.5 154z" />
<glyph unicode="&#x217;" horiz-adv-x="1181" d="M786 1495q77 0 126 -51.5t49 -126.5q0 -21 -7 -49h-100q4 36 4 51q0 88 -84 88q-113 0 -145 -139h-103q20 96 95 161.5t165 65.5zM68 250q0 71 22 178l137 641h179l-130 -606q-18 -83 -18 -141q0 -187 160 -187q104 0 209 71t176 193l141 670h180l-180 -848 q-4 -20 -4 -26q0 -20 10.5 -28.5t34.5 -10.5l-33 -156q-62 -8 -71 -8q-55 0 -84 24t-29 66q0 35 23 147q-91 -119 -216.5 -184t-257.5 -65q-249 0 -249 270z" />
<glyph unicode="&#x218;" horiz-adv-x="1204" d="M-25 190l121 156q49 -76 170 -135t269 -59q166 0 261 68.5t95 191.5q0 39 -16 70.5t-42 54.5t-72.5 44t-93 36t-118.5 34q-181 49 -266.5 117.5t-85.5 192.5q0 153 81.5 269t217 175t301.5 59q264 0 420 -166l-117 -149q-36 61 -130.5 106t-211.5 45q-179 0 -269 -76 t-90 -204q0 -85 70 -128t240 -85q95 -24 161 -50t120 -65t80 -94t26 -129q0 -119 -47.5 -213t-130.5 -152t-190.5 -88t-231.5 -30q-159 0 -292.5 52t-228.5 152zM330 -436l76 166h-52l37 172h158l-37 -172l-94 -166h-88z" />
<glyph unicode="&#x219;" horiz-adv-x="972" d="M-49 135l102 121q143 -137 334 -137q124 0 200.5 52.5t76.5 139.5q0 64 -47 92.5t-175 65.5q-15 4 -22 6q-51 15 -81 24.5t-66 23t-55.5 25.5t-40.5 29t-31 37t-16.5 45.5t-6.5 57.5q0 107 61 192t166.5 131.5t235.5 46.5q230 0 358 -141l-104 -108q-52 59 -115 85.5 t-147 26.5q-123 0 -200 -50t-77 -142q0 -61 40 -86.5t163 -59.5q73 -20 121.5 -37t93.5 -40.5t71 -50.5t41 -64.5t15 -85.5q0 -152 -131 -253t-344 -101q-130 0 -241 40.5t-179 114.5zM223 -436l76 166h-51l37 172h157l-36 -172l-95 -166h-88z" />
<glyph unicode="&#x21a;" horiz-adv-x="1200" d="M649 1290h-473l35 164h1130l-34 -164h-473l-275 -1290h-184zM309 -436l76 166h-51l37 172h157l-36 -172l-95 -166h-88z" />
<glyph unicode="&#x21b;" horiz-adv-x="692" d="M98 150q0 29 6 59l154 719h-139l31 141h137l75 356h181l-76 -356h227l-30 -141h-226l-141 -664q-4 -20 -4 -31q0 -41 25.5 -61t66.5 -20q66 0 160 45l10 -144q-39 -28 -112.5 -47.5t-151.5 -19.5q-87 0 -140 41.5t-53 122.5zM74 -436l76 166h-52l37 172h158l-37 -172 l-94 -166h-88z" />
<glyph unicode="&#x22a;" horiz-adv-x="1476" d="M784 2134l25 119h571l-26 -119h-570zM733 1659l45 209h152l-45 -209h-152zM1055 1659l45 209h149l-43 -209h-151zM90 590q0 130 45 260.5t125 239.5t183.5 194t228 132.5t250.5 47.5q96 0 179.5 -33t143 -90.5t102.5 -134.5t64 -165t21 -181q0 -162 -70 -321t-183 -279.5 t-265.5 -195t-309.5 -74.5q-120 0 -219 49.5t-162.5 133.5t-98 191.5t-34.5 225.5zM1243 846q0 123 -41 224t-124 163.5t-195 62.5q-122 0 -235.5 -62t-193 -160t-127.5 -222t-48 -246q0 -124 40.5 -224.5t124 -163t197.5 -62.5q98 0 191.5 40.5t166.5 109.5t128.5 157 t85.5 187.5t30 195.5z" />
<glyph unicode="&#x22b;" horiz-adv-x="1183" d="M551 1753l24 119h572l-27 -119h-569zM500 1278l45 209h151l-45 -209h-151zM821 1278l45 209h150l-43 -209h-152zM45 430q0 176 85 327.5t230.5 240.5t315.5 89q105 0 187.5 -35t134.5 -97t79 -143.5t27 -176.5q0 -175 -85 -326t-231.5 -240t-318.5 -89 q-139 0 -236.5 61.5t-142.5 161.5t-45 227zM915 608q0 144 -70.5 234t-197.5 90q-78 0 -153.5 -37t-133.5 -99.5t-93.5 -152t-35.5 -188.5q0 -143 71 -231.5t198 -88.5q106 0 201 60.5t154.5 170.5t59.5 242z" />
<glyph unicode="&#x22c;" horiz-adv-x="1476" d="M786 2142l25 119h571l-26 -119h-570zM858 1751q-30 0 -54 -14t-36 -32.5t-18.5 -32.5t-6.5 -19h-106q4 18 20 48.5t44.5 69t76 66t101.5 27.5q37 0 69.5 -14t52.5 -30t49 -30t60 -14q34 0 61 14t41 34t20.5 32.5t8.5 19.5h105q-3 -16 -19.5 -47t-46 -69.5t-80 -66.5 t-108.5 -28q-50 0 -90.5 21.5t-75 43t-68.5 21.5zM90 590q0 130 45 260.5t125 239.5t183.5 194t228 132.5t250.5 47.5q96 0 179.5 -33t143 -90.5t102.5 -134.5t64 -165t21 -181q0 -162 -70 -321t-183 -279.5t-265.5 -195t-309.5 -74.5q-120 0 -219 49.5t-162.5 133.5 t-98 191.5t-34.5 225.5zM1243 846q0 123 -41 224t-124 163.5t-195 62.5q-122 0 -235.5 -62t-193 -160t-127.5 -222t-48 -246q0 -124 40.5 -224.5t124 -163t197.5 -62.5q98 0 191.5 40.5t166.5 109.5t128.5 157t85.5 187.5t30 195.5z" />
<glyph unicode="&#x22d;" horiz-adv-x="1183" d="M553 1761l25 119h571l-27 -119h-569zM625 1370q-39 0 -67.5 -24t-38 -45t-9.5 -29h-107q4 18 20 48.5t44.5 69t76 66t101.5 27.5q47 0 85 -22t73 -44t74 -22q34 0 61 14t41 34t20.5 32.5t8.5 19.5h104q-3 -16 -19.5 -47t-46 -69.5t-80 -66.5t-108.5 -28q-39 0 -73.5 13.5 t-55.5 29.5t-48.5 29.5t-55.5 13.5zM45 430q0 176 85 327.5t230.5 240.5t315.5 89q105 0 187.5 -35t134.5 -97t79 -143.5t27 -176.5q0 -175 -85 -326t-231.5 -240t-318.5 -89q-139 0 -236.5 61.5t-142.5 161.5t-45 227zM915 608q0 144 -70.5 234t-197.5 90q-78 0 -153.5 -37 t-133.5 -99.5t-93.5 -152t-35.5 -188.5q0 -143 71 -231.5t198 -88.5q106 0 201 60.5t154.5 170.5t59.5 242z" />
<glyph unicode="&#x230;" horiz-adv-x="1476" d="M784 2142l25 119h571l-26 -119h-570zM887 1659l47 217h162l-45 -217h-164zM90 590q0 130 45 260.5t125 239.5t183.5 194t228 132.5t250.5 47.5q96 0 179.5 -33t143 -90.5t102.5 -134.5t64 -165t21 -181q0 -162 -70 -321t-183 -279.5t-265.5 -195t-309.5 -74.5 q-120 0 -219 49.5t-162.5 133.5t-98 191.5t-34.5 225.5zM1243 846q0 123 -41 224t-124 163.5t-195 62.5q-122 0 -235.5 -62t-193 -160t-127.5 -222t-48 -246q0 -124 40.5 -224.5t124 -163t197.5 -62.5q98 0 191.5 40.5t166.5 109.5t128.5 157t85.5 187.5t30 195.5z" />
<glyph unicode="&#x231;" horiz-adv-x="1183" d="M551 1761l24 119h572l-27 -119h-569zM653 1278l47 217h162l-45 -217h-164zM45 430q0 176 85 327.5t230.5 240.5t315.5 89q105 0 187.5 -35t134.5 -97t79 -143.5t27 -176.5q0 -175 -85 -326t-231.5 -240t-318.5 -89q-139 0 -236.5 61.5t-142.5 161.5t-45 227zM915 608 q0 144 -70.5 234t-197.5 90q-78 0 -153.5 -37t-133.5 -99.5t-93.5 -152t-35.5 -188.5q0 -143 71 -231.5t198 -88.5q106 0 201 60.5t154.5 170.5t59.5 242z" />
<glyph unicode="&#x232;" horiz-adv-x="1253" d="M532 1716l25 119h571l-26 -119h-570zM508 535l-326 919h203l250 -758l575 758h201l-721 -924l-112 -530h-185z" />
<glyph unicode="&#x233;" horiz-adv-x="1026" d="M352 1335l25 119h571l-26 -119h-570zM-72 -313q130 19 192 57t132 143l59 90l-207 1092h187l147 -907l70 114q172 283 248 445.5t123 347.5h178q-55 -198 -137 -364.5t-285 -493.5l-164 -264q-140 -225 -253 -314t-265 -92z" />
<glyph unicode="&#x237;" horiz-adv-x="462" d="M-428 -295l109 121q39 -47 122 -47q63 0 122.5 50.5t74.5 123.5l238 1116h180l-236 -1104q-32 -149 -147 -247.5t-246 -98.5q-143 0 -217 86z" />
<glyph unicode="&#x259;" horiz-adv-x="1161" d="M436 -20q-193 0 -304.5 119t-111.5 304q0 116 33 191h836q4 46 4 65q0 130 -73 210.5t-189 80.5q-93 0 -184 -49t-140 -127l-145 43q77 119 214.5 194.5t291.5 75.5q126 0 221.5 -60.5t143.5 -162t48 -227.5q0 -127 -51.5 -247.5t-137.5 -210.5t-206 -144.5t-250 -54.5z M467 115q132 0 245 101.5t156 258.5h-669q-4 -23 -4 -65q0 -132 76 -213.5t196 -81.5z" />
<glyph unicode="&#x2b9;" horiz-adv-x="440" d="M242 1026l118 444h142l-164 -444h-96z" />
<glyph unicode="&#x2ba;" horiz-adv-x="870" d="M242 1026l118 444h142l-164 -444h-96zM672 1026l119 444h141l-164 -444h-96z" />
<glyph unicode="&#x2bb;" horiz-adv-x="354" d="M449 1495l-70 -135h49l-45 -154h-137l45 154l86 135h72z" />
<glyph unicode="&#x2bc;" horiz-adv-x="421" d="M354 1247l-96 41l133 207h158z" />
<glyph unicode="&#x2be;" horiz-adv-x="274" d="M203 1186l22 80q32 0 60 38t28 93q0 63 -37 63l23 82q44 0 68 -35t24 -94q0 -98 -55.5 -162.5t-132.5 -64.5z" />
<glyph unicode="&#x2bf;" horiz-adv-x="272" d="M328 1186q-42 0 -67 35t-25 92q0 98 55.5 163.5t132.5 65.5l-25 -82q-33 0 -58.5 -36.5t-25.5 -92.5q0 -65 35 -65z" />
<glyph unicode="&#x2c6;" horiz-adv-x="731" d="M268 1311l238 184h131l158 -184l-109 -49l-137 129l-193 -129z" />
<glyph unicode="&#x2c7;" horiz-adv-x="731" d="M297 1446l109 49l137 -129l192 129l88 -49l-237 -184h-131z" />
<glyph unicode="&#x2c8;" horiz-adv-x="387" d="M391 1587v-825h-155v825h155z" />
<glyph unicode="&#x2c9;" horiz-adv-x="776" d="M287 1339l28 119h543l-29 -119h-542z" />
<glyph unicode="&#x2cb;" horiz-adv-x="415" d="M260 1026l76 444h141l-121 -444h-96z" />
<glyph unicode="&#x2cc;" horiz-adv-x="389" d="M174 559v-825h-156v825h156z" />
<glyph unicode="&#x2d8;" horiz-adv-x="634" d="M635 1495h102q-20 -97 -95.5 -162t-166.5 -65q-79 0 -126.5 48.5t-47.5 125.5q0 26 6 53h105q-4 -24 -4 -35q0 -44 24 -74t62 -30q41 0 81.5 39.5t59.5 99.5z" />
<glyph unicode="&#x2d9;" horiz-adv-x="368" d="M260 1278l47 217h162l-45 -217h-164z" />
<glyph unicode="&#x2da;" horiz-adv-x="528" d="M469 1495q62 0 97.5 -31t35.5 -84q0 -73 -55 -120.5t-139 -47.5q-61 0 -97.5 31t-36.5 84q0 74 57 121t138 47zM358 1339q0 -27 17.5 -45t46.5 -18q36 0 67 27t31 65q0 29 -18 46.5t-47 17.5q-38 0 -67.5 -27t-29.5 -66z" />
<glyph unicode="&#x2db;" horiz-adv-x="436" d="M-59 -252q0 142 213 289h51l16 -37q-87 -76 -124.5 -123.5t-37.5 -87.5q0 -29 23.5 -42.5t69.5 -18.5l-68 -115q-77 8 -110 46t-33 89z" />
<glyph unicode="&#x2dc;" horiz-adv-x="866" d="M481 1370q-30 0 -54 -14t-36 -32.5t-18 -32.5t-6 -19h-107q4 18 20 48.5t44.5 69t76 66t101.5 27.5q37 0 69.5 -13.5t52.5 -30.5t49 -30.5t60 -13.5q34 0 61 14t41 34t20.5 32.5t8.5 19.5h105q-3 -16 -19.5 -47t-46 -69.5t-80 -66.5t-108.5 -28q-50 0 -90.5 21.5t-75 43 t-68.5 21.5z" />
<glyph unicode="&#x2dd;" horiz-adv-x="731" d="M346 1247l-84 41l148 207h153zM616 1247l-84 41l148 207h154z" />
<glyph unicode="&#x300;" d="M-188 1495h176l69 -207l-125 -41z" />
<glyph unicode="&#x301;" d="M-121 1247l-110 41l155 207h178z" />
<glyph unicode="&#x302;" d="M-463 1311l238 184h131l157 -184l-108 -49l-137 129l-193 -129z" />
<glyph unicode="&#x303;" d="M-385 1370q-39 0 -67.5 -24t-38 -45t-9.5 -29h-106q3 13 13 35.5t30.5 54t47 57.5t66.5 45t84 19q47 0 85 -22t73 -44t74 -22q34 0 61 14t41 34t20.5 32.5t8.5 19.5h104q-3 -16 -19.5 -47t-46 -69.5t-80 -66.5t-108.5 -28q-39 0 -73.5 13.5t-55.5 29.5t-48.5 29.5 t-55.5 13.5z" />
<glyph unicode="&#x304;" d="M-504 1335l25 119h571l-26 -119h-570z" />
<glyph unicode="&#x306;" d="M0 1495h102q-20 -97 -95.5 -162t-166.5 -65q-79 0 -126.5 48.5t-47.5 125.5q0 26 6 53h105q-4 -24 -4 -35q0 -44 24 -74t62 -30q41 0 81.5 39.5t59.5 99.5z" />
<glyph unicode="&#x307;" d="M-109 1278l48 217h161l-45 -217h-164z" />
<glyph unicode="&#x308;" d="M-418 1278l45 209h152l-45 -209h-152zM-96 1278l45 209h149l-43 -209h-151z" />
<glyph unicode="&#x309;" d="M-172 1425l-41 68q112 74 207 74q47 0 73 -20t28 -50t-9 -65q-31 -86 -184 -181l-29 60q47 31 68.5 54.5t31.5 49.5q10 23 1 39t-33 16q-45 0 -113 -45z" />
<glyph unicode="&#x30a;" d="M-59 1495q62 0 97.5 -31t35.5 -84q0 -73 -55.5 -120.5t-139.5 -47.5q-61 0 -97 31t-36 84q0 74 57 121t138 47zM-170 1339q0 -27 17.5 -45t46.5 -18q36 0 67 27t31 65q0 29 -18.5 46.5t-47.5 17.5q-38 0 -67 -27t-29 -66z" />
<glyph unicode="&#x30b;" d="M-385 1247l-84 41l147 207h154zM-115 1247l-84 41l148 207h153z" />
<glyph unicode="&#x30c;" d="M-434 1446l108 49l138 -129l192 129l88 -49l-237 -184h-131z" />
<glyph unicode="&#x30f;" d="M-426 1495h154l59 -207l-102 -41zM-156 1495h152l61 -207l-102 -41z" />
<glyph unicode="&#x311;" d="M-115 1495q77 0 125.5 -51.5t48.5 -126.5q0 -25 -6 -49h-100q4 36 4 51q0 88 -84 88q-113 0 -145 -139h-103q20 96 95 161.5t165 65.5z" />
<glyph unicode="&#x312;" d="M94 1495l-69 -135h49l-45 -154h-138l46 154l86 135h71z" />
<glyph unicode="&#x31b;" d="M-344 1010l29 131q130 0 174 47q38 40 57 125h147q-36 -138 -110 -209q-98 -94 -297 -94z" />
<glyph unicode="&#x323;" d="M-459 -373l47 217h162l-45 -217h-164z" />
<glyph unicode="&#x324;" d="M-766 -383l53 209h144l-54 -209h-143zM-483 -383l53 209h143l-53 -209h-143z" />
<glyph unicode="&#x326;" d="M-457 -436l76 166h-51l37 172h157l-36 -172l-95 -166h-88z" />
<glyph unicode="&#x327;" d="M-498 -381q-108 0 -194 57l71 101q65 -45 121 -45q64 0 102 33.5t38 93.5q0 74 -80 141l71 47q113 -94 113 -203q0 -102 -66 -163.5t-176 -61.5z" />
<glyph unicode="&#x328;" d="M-496 -252q0 142 213 289h52l16 -37q-87 -76 -124.5 -123.5t-37.5 -87.5q0 -29 23 -42.5t69 -18.5l-67 -115q-77 8 -110.5 46t-33.5 89z" />
<glyph unicode="&#x32e;" d="M-471 -340q-83 0 -123.5 65t-15.5 162h98q-13 -55 6 -97t57 -42q37 0 75.5 39.5t58.5 99.5h96q-25 -97 -97 -162t-155 -65z" />
<glyph unicode="&#x331;" d="M-825 -293l28 119h543l-29 -119h-542z" />
<glyph unicode="&#x335;" d="M-565 557l28 115h463l-28 -115h-463z" />
<glyph unicode="&#x3c0;" horiz-adv-x="1417" d="M825 211v694h-370v-905h-174v905h-164v164h1108v-164h-226v-629q0 -60 32 -93t89 -33q51 0 111 24l29 -145q-44 -19 -106 -31t-110 -12q-101 0 -160 60t-59 165z" />
<glyph unicode="&#x400;" horiz-adv-x="1187" d="M602 1880h176l70 -207l-125 -41zM350 1454h922l-35 -164h-737l-101 -471h641l-32 -153h-641l-107 -502h756l-35 -164h-940z" />
<glyph unicode="&#x401;" horiz-adv-x="1187" d="M598 1663l45 209h152l-45 -209h-152zM920 1663l45 209h149l-43 -209h-151zM350 1454h922l-35 -164h-737l-101 -471h641l-32 -153h-641l-107 -502h756l-35 -164h-940z" />
<glyph unicode="&#x402;" horiz-adv-x="1587" d="M1026 915q218 0 331.5 -127t78.5 -346q-36 -224 -178.5 -341t-362.5 -117q-98 0 -186 26l39 148q97 -19 155 -19q139 0 228.5 75.5t115.5 227.5q25 149 -50.5 231.5t-215.5 82.5q-177 0 -363 -107l-137 -649h-184l272 1290h-393l35 164h1075l-37 -164h-495l-101 -471 q190 96 373 96z" />
<glyph unicode="&#x403;" horiz-adv-x="1036" d="M874 1632l-110 41l156 207h178zM33 0l307 1454h846l-35 -164h-659l-275 -1290h-184z" />
<glyph unicode="&#x404;" horiz-adv-x="1478" d="M731 154q131 0 260 64.5t209 191.5l141 -84q-61 -105 -171 -183.5t-232 -116.5t-240 -38q-120 0 -223.5 42t-177 115.5t-122.5 168t-66.5 204t-2.5 219.5q15 106 60 210.5t119 197t168 163.5t215 112.5t252 41.5q193 0 325 -86t185 -231l-158 -94q-44 128 -149 186.5 t-236 58.5q-108 0 -204.5 -39t-168 -106t-122.5 -150t-79 -176h617l-31 -163h-612q-4 -137 49 -252.5t157 -185.5t238 -70z" />
<glyph unicode="&#x405;" horiz-adv-x="1204" d="M-25 190l121 156q49 -76 170 -135t269 -59q166 0 261 68.5t95 191.5q0 39 -16 70.5t-42 54.5t-72.5 44t-93 36t-118.5 34q-181 49 -266.5 117.5t-85.5 192.5q0 153 81.5 269t217 175t301.5 59q264 0 420 -166l-117 -149q-36 61 -130.5 106t-211.5 45q-179 0 -269 -76 t-90 -204q0 -85 70 -128t240 -85q95 -24 161 -50t120 -65t80 -94t26 -129q0 -119 -47.5 -213t-130.5 -152t-190.5 -88t-231.5 -30q-159 0 -292.5 52t-228.5 152z" />
<glyph unicode="&#x406;" horiz-adv-x="528" d="M350 1452h185l-310 -1452h-184z" />
<glyph unicode="&#x407;" horiz-adv-x="528" d="M252 1663l45 209h152l-46 -209h-151zM573 1663l45 209h150l-43 -209h-152zM350 1452h185l-310 -1452h-184z" />
<glyph unicode="&#x408;" horiz-adv-x="966" d="M-80 68l78 149q34 -31 97 -52.5t141 -21.5q64 0 114.5 15.5t89.5 51t68 79.5t54.5 114t44 140t40.5 172l158 737h184l-158 -737q-22 -104 -42.5 -181t-49.5 -158t-62.5 -138t-80 -109t-102.5 -83.5t-130 -50t-163 -18.5q-173 0 -281 91z" />
<glyph unicode="&#x409;" horiz-adv-x="2123" d="M-20 -4l32 162q106 0 185 73.5t157.5 266.5t161.5 538l100 418h875l-115 -551h228q232 0 337 -122t72 -328q-30 -199 -175 -326t-370 -127h-469l275 1290h-520l-72 -301q-70 -296 -139 -485.5t-154 -304t-180.5 -159t-228.5 -44.5zM1219 162h249q149 0 242 83.5 t115 207.5q6 46 5.5 88t-17.5 78.5t-46.5 63.5t-80.5 42.5t-119 15.5h-226z" />
<glyph unicode="&#x40a;" horiz-adv-x="2048" d="M41 0l309 1454h185l-132 -610h695l129 610h184l-121 -584h234q232 0 337 -117.5t72 -316.5q-30 -191 -174.5 -313.5t-369.5 -122.5h-469l143 680h-692l-146 -680h-184zM1139 162h250q149 0 241.5 78.5t114.5 195.5q6 43 5.5 82.5t-17.5 74.5t-46.5 60.5t-80.5 40.5 t-119 15h-234z" />
<glyph unicode="&#x40b;" horiz-adv-x="1533" d="M987 905q476 0 393 -469l-90 -436h-186l94 446q64 318 -256 318q-91 0 -188.5 -25t-171.5 -63l-144 -676h-184l274 1290h-352l35 164h1063l-33 -164h-528l-99 -463q184 78 373 78z" />
<glyph unicode="&#x40c;" horiz-adv-x="1304" d="M889 1632l-111 41l156 207h178zM41 0l307 1454h184l-133 -633h185l608 633h217l-682 -694l418 -760h-195l-356 662h-229l-140 -662h-184z" />
<glyph unicode="&#x40d;" horiz-adv-x="1490" d="M725 1880h176l70 -207l-125 -41zM41 0l307 1454h184l-251 -1194l1044 1194h172l-307 -1454h-184l254 1180l-1037 -1180h-182z" />
<glyph unicode="&#x40e;" horiz-adv-x="1288" d="M813 1640q-156 0 -235 65.5t-64 170.5h145q-9 -52 34.5 -86.5t125.5 -34.5q98 0 157 32.5t68 88.5h142q-15 -105 -115 -170.5t-258 -65.5zM207 0l33 156h77q171 0 256 163l13 21l-412 1114h176l328 -936l493 936h181l-637 -1163q-87 -159 -184 -225t-255 -66h-69z" />
<glyph unicode="&#x40f;" horiz-adv-x="1435" d="M449 -279l59 279h-467l309 1454h185l-275 -1290h723l274 1290h185l-309 -1454h-465l-60 -279h-159z" />
<glyph unicode="&#x410;" horiz-adv-x="1335" d="M774 1454h158l252 -1454h-197l-69 426h-570l-248 -426h-196zM909 569l-100 672l-395 -672h495z" />
<glyph unicode="&#x411;" horiz-adv-x="1363" d="M41 0l309 1454h996l-33 -162h-813l-97 -458h451q233 0 336.5 -110.5t71.5 -297.5q-31 -190 -169 -308t-362 -118h-690zM260 160h471q150 0 236.5 78.5t105.5 193.5q6 40 5.5 77t-17 69t-45.5 56t-80.5 38t-120.5 14h-444z" />
<glyph unicode="&#x412;" horiz-adv-x="1325" d="M350 1454h692q115 0 180.5 -87.5t65.5 -209.5q0 -130 -77.5 -244t-202.5 -168q90 -30 139 -108t49 -184q0 -130 -72 -235.5t-185 -161.5t-241 -56h-657zM829 809q104 0 185.5 89t81.5 206q0 83 -41.5 136.5t-110.5 53.5h-444l-103 -485h432zM731 160q108 0 195.5 91.5 t87.5 207.5q0 84 -44.5 142t-117.5 58h-487l-105 -499h471z" />
<glyph unicode="&#x413;" horiz-adv-x="1036" d="M33 0l307 1454h846l-35 -164h-659l-275 -1290h-184z" />
<glyph unicode="&#x414;" horiz-adv-x="1579" d="M-78 -279l92 443h74q121 3 220 216t202 705l78 369h917l-272 -1290h180l-92 -443h-164l57 279h-1071l-57 -279h-164zM336 164h713l239 1126h-561l-59 -284q-80 -378 -159 -574t-173 -268z" />
<glyph unicode="&#x415;" horiz-adv-x="1187" d="M350 1454h922l-35 -164h-737l-101 -471h641l-32 -153h-641l-107 -502h756l-35 -164h-940z" />
<glyph unicode="&#x416;" horiz-adv-x="2035" d="M-86 0l686 752l-397 702h184l356 -633h203l133 633h185l-134 -633h185l608 633h217l-682 -694l418 -760h-186l-357 662h-237l-140 -662h-184l139 662h-180l-608 -662h-209z" />
<glyph unicode="&#x417;" horiz-adv-x="1167" d="M473 -16q-158 0 -274 66t-170 186l155 86q36 -93 119 -140t199 -47q149 0 238 68t108 194t-47.5 202.5t-204.5 76.5h-121l29 145h114q108 0 185 68t92 172q18 118 -35.5 185t-175.5 67q-106 0 -197.5 -46t-144.5 -132l-123 92q187 243 477 243q199 0 304 -107t79 -288 q-18 -105 -85 -191t-171 -128q119 -36 174 -137.5t35 -237.5q-29 -186 -180 -291.5t-379 -105.5z" />
<glyph unicode="&#x418;" horiz-adv-x="1490" d="M41 0l307 1454h184l-251 -1194l1044 1194h172l-307 -1454h-184l254 1180l-1037 -1180h-182z" />
<glyph unicode="&#x419;" horiz-adv-x="1490" d="M932 1640q-156 0 -235 65.5t-64 170.5h145q-9 -52 34.5 -86.5t125.5 -34.5q98 0 157 32.5t68 88.5h142q-15 -105 -115 -170.5t-258 -65.5zM41 0l307 1454h184l-251 -1194l1044 1194h172l-307 -1454h-184l254 1180l-1037 -1180h-182z" />
<glyph unicode="&#x41a;" horiz-adv-x="1304" d="M41 0l307 1454h184l-133 -633h185l608 633h217l-682 -694l418 -760h-195l-356 662h-229l-140 -662h-184z" />
<glyph unicode="&#x41b;" horiz-adv-x="1521" d="M-20 -4l32 162q79 0 141 39.5t123 138.5t118.5 269t121.5 431l100 418h912l-307 -1454h-185l275 1290h-557l-72 -301q-48 -198 -94 -345.5t-96.5 -259.5t-103 -185t-117 -119t-134 -65t-157.5 -19z" />
<glyph unicode="&#x41c;" horiz-adv-x="1716" d="M350 1454h195l291 -944l694 944h192l-309 -1454h-184l239 1124l-632 -862h-105l-266 862l-240 -1124h-184z" />
<glyph unicode="&#x41d;" horiz-adv-x="1460" d="M350 1454h185l-134 -629h748l133 629h184l-309 -1454h-184l141 662h-747l-142 -662h-184z" />
<glyph unicode="&#x41e;" horiz-adv-x="1566" d="M700 -10q-122 0 -226.5 40.5t-178 111.5t-123 164t-66.5 201.5t-2 219.5q20 144 93.5 278.5t180 235.5t247.5 162t288 61q152 0 275.5 -62.5t198 -165.5t107 -236.5t13.5 -274.5q-20 -148 -92.5 -283t-179.5 -234.5t-247 -158.5t-288 -59zM727 156q93 0 180 32.5t156 88 t123.5 128t88.5 155.5t46 167q21 154 -24 283.5t-152.5 207.5t-257.5 78q-116 0 -221.5 -49t-181.5 -129.5t-127 -182t-66 -208.5q-15 -111 8 -214.5t77.5 -182.5t146 -126.5t204.5 -47.5z" />
<glyph unicode="&#x41f;" horiz-adv-x="1462" d="M41 0l307 1454h1120l-307 -1454h-184l274 1290h-753l-273 -1290h-184z" />
<glyph unicode="&#x420;" horiz-adv-x="1230" d="M350 1454h578q101 0 178 -55.5t115.5 -142.5t38.5 -187q0 -78 -26.5 -158t-75.5 -149t-113 -123t-143.5 -85.5t-162.5 -31.5h-403l-111 -522h-184zM764 686q81 0 152.5 52.5t113 137.5t41.5 177q0 103 -53.5 170t-136.5 67h-381l-129 -604h393z" />
<glyph unicode="&#x421;" horiz-adv-x="1456" d="M698 -12q-120 0 -223.5 42t-177 115.5t-122.5 168t-66.5 204t-2.5 219.5q15 106 60 210.5t119 197t168 163.5t215 112.5t252 41.5q193 0 325 -86t185 -231l-158 -94q-44 128 -149 186.5t-236 58.5q-121 0 -228 -49.5t-181 -131.5t-122 -181.5t-63 -204.5 q-21 -151 26.5 -282.5t157 -212t254.5 -80.5q131 0 260 64.5t209 191.5l141 -84q-61 -105 -171 -183.5t-232 -116.5t-240 -38z" />
<glyph unicode="&#x422;" horiz-adv-x="1200" d="M649 1290h-473l35 164h1130l-34 -164h-473l-275 -1290h-184z" />
<glyph unicode="&#x423;" horiz-adv-x="1288" d="M207 0l33 156h77q171 0 256 163l13 21l-412 1114h176l328 -936l493 936h181l-637 -1163q-87 -159 -184 -225t-255 -66h-69z" />
<glyph unicode="&#x424;" horiz-adv-x="1705" d="M1100 1374q133 -8 244 -52.5t189 -119.5t112 -186.5t12 -243.5q-30 -177 -150 -315.5t-293 -212.5t-370 -78l-35 -166h-174l35 168q-134 8 -246.5 53.5t-189.5 122t-110 187.5t-11 241q26 139 101.5 253.5t184.5 189.5t243.5 117t281.5 44l30 146h176zM709 319l188 904 q-231 -8 -395.5 -129t-200.5 -322q-19 -103 6 -187.5t83.5 -139.5t140 -87.5t178.5 -38.5zM1468 772q17 102 -7 186t-81 139.5t-138 88t-179 37.5l-191 -904q147 6 273.5 61.5t213 157.5t109.5 234z" />
<glyph unicode="&#x425;" horiz-adv-x="1249" d="M547 717l-361 737h205l285 -606l541 606h202l-674 -737l349 -717h-203l-273 586l-520 -586h-204z" />
<glyph unicode="&#x426;" horiz-adv-x="1505" d="M1083 -276l58 276h-1100l309 1454h185l-275 -1290h715l274 1290h185l-275 -1290h180l-92 -440h-164z" />
<glyph unicode="&#x427;" horiz-adv-x="1380" d="M1202 1454h184l-307 -1454h-184l127 602q-190 -70 -387 -70q-262 0 -366.5 124t-53.5 364l98 434h185l-105 -465q-32 -159 36 -229t257 -70q99 0 202 23.5t171 60.5z" />
<glyph unicode="&#x428;" horiz-adv-x="1943" d="M41 0l307 1454h184l-272 -1290h524l273 1290h184l-272 -1290h522l274 1290h185l-308 -1454h-1601z" />
<glyph unicode="&#x429;" horiz-adv-x="2019" d="M1597 -279l58 279h-1614l307 1454h184l-272 -1290h524l273 1290h184l-272 -1290h524l272 1290h185l-275 -1290h180l-94 -443h-164z" />
<glyph unicode="&#x42a;" horiz-adv-x="1435" d="M279 0l274 1298h-375l33 156h559l-117 -551h273q232 0 337 -122t72 -328q-32 -199 -176 -326t-366 -127h-514zM498 162h295q152 0 242 82.5t112 208.5q6 46 5.5 88t-17.5 78.5t-46.5 63.5t-80.5 42.5t-119 15.5h-271z" />
<glyph unicode="&#x42b;" horiz-adv-x="1699" d="M41 0l307 1454h184l-116 -551h252q232 0 337 -122t72 -328q-32 -199 -176 -326t-366 -127h-494zM1522 1452h184l-309 -1452h-185zM260 162h275q152 0 242 82.5t112 208.5q6 46 5.5 88t-17.5 78.5t-46.5 63.5t-80.5 42.5t-119 15.5h-250z" />
<glyph unicode="&#x42c;" horiz-adv-x="1249" d="M41 0l307 1454h184l-116 -551h313q232 0 337 -121.5t73 -328.5q-32 -199 -176.5 -326t-366.5 -127h-555zM260 162h336q152 0 242 82.5t112 208.5q6 46 5.5 88t-17.5 78.5t-46.5 63.5t-80.5 42.5t-119 15.5h-311z" />
<glyph unicode="&#x42d;" horiz-adv-x="1454" d="M834 1462q95 0 177 -21.5t143 -59.5t110.5 -91.5t78.5 -117.5t47.5 -136.5t18 -149t-11.5 -155.5q-22 -144 -90.5 -277.5t-170.5 -237.5t-242.5 -166t-295.5 -62q-197 0 -338 89.5t-197 248.5l166 84q43 -124 147 -190t240 -66q143 0 265 70.5t201.5 185.5t115.5 258 h-653l30 151h644q9 221 -97.5 349t-312.5 128q-135 0 -253 -61.5t-200 -185.5l-135 96q227 317 613 317z" />
<glyph unicode="&#x42e;" horiz-adv-x="2095" d="M1442 1464q152 0 275.5 -62.5t198 -165.5t107 -236.5t13.5 -274.5q-20 -148 -92.5 -283t-179.5 -234.5t-247 -158.5t-288 -59q-141 0 -258.5 54.5t-193 146t-115.5 210.5t-35 248h-265l-137 -649h-184l307 1454h184l-137 -641h254q34 131 110.5 250t180 207.5t234.5 141 t268 52.5zM1849 727q21 154 -24 283.5t-152.5 207.5t-257.5 78q-116 0 -221.5 -49t-181.5 -129.5t-127 -182t-66 -208.5q-15 -111 8 -214.5t77.5 -182.5t146 -126.5t204.5 -47.5q93 0 180 32.5t156 88t123.5 128t88.5 155.5t46 167z" />
<glyph unicode="&#x42f;" horiz-adv-x="1339" d="M0 0l502 631q-141 41 -205 156t-37 272q34 179 179 287t356 108h551l-308 -1454h-184l123 584h-252h-47l-459 -584h-219zM698 745h314l114 547h-325q-141 0 -239.5 -69t-121.5 -197q-21 -124 45 -202.5t213 -78.5z" />
<glyph unicode="&#x430;" horiz-adv-x="1241" d="M45 424q0 126 49 247.5t129.5 212.5t190 147t223.5 56q118 0 200.5 -64.5t118.5 -166.5l48 213h180l-180 -848q-5 -25 -5 -26q0 -20 10.5 -28.5t34.5 -10.5l-32 -156q-62 -8 -72 -8q-55 0 -86 25.5t-31 66.5q0 30 19 117q-79 -102 -192.5 -161.5t-223.5 -59.5 q-174 0 -277.5 128t-103.5 316zM856 375l64 307q-13 104 -91 177t-172 73q-110 0 -208.5 -71.5t-155.5 -182t-57 -225.5q0 -135 74 -226.5t194 -91.5q93 0 202.5 72t149.5 168z" />
<glyph unicode="&#x431;" horiz-adv-x="1247" d="M565 -20q-252 0 -360.5 162t-57.5 448q36 209 91.5 359.5t136.5 250.5t181.5 156.5t234.5 81.5q35 8 89.5 16t89 14.5t72.5 17.5t63.5 30t39.5 47l123 -52q-27 -105 -108 -152q-64 -37 -235 -68q-19 -4 -106 -19q-202 -36 -307.5 -151.5t-171.5 -356.5q69 109 180.5 169 t247.5 60q211 0 313.5 -136t69.5 -357q-36 -238 -190 -379t-396 -141zM582 127q153 0 254.5 97.5t128.5 262.5q25 162 -44.5 260.5t-220.5 98.5q-141 0 -248.5 -99t-134.5 -260q-27 -153 44.5 -256.5t220.5 -103.5z" />
<glyph unicode="&#x432;" horiz-adv-x="1189" d="M864 541q160 -66 160 -222q0 -158 -129.5 -248.5t-335.5 -88.5q-257 1 -370.5 139t-79.5 389q43 281 209 430.5t430 149.5q158 0 242.5 -67.5t84.5 -188.5q0 -97 -53.5 -172.5t-157.5 -120.5zM721 950q-150 0 -256.5 -89.5t-149.5 -252.5q117 -10 193 -10 q196 3 294.5 60.5t98.5 154.5q0 65 -45 101t-135 36zM567 117q125 -2 201 52.5t76 152.5q0 133 -131 174q-105 -19 -219 -19q-84 0 -201 10q-22 -190 40.5 -279.5t233.5 -90.5z" />
<glyph unicode="&#x433;" horiz-adv-x="1005" d="M449 -20q-194 0 -288 79.5t-85 219.5q9 118 99.5 188.5t303.5 138.5q137 44 189.5 86t60.5 111q6 73 -40.5 112t-135.5 39q-84 0 -157 -34t-117 -95l-129 80q67 89 178 137t254 48q169 0 254 -76t79 -211q-9 -118 -93.5 -189.5t-270.5 -130.5q-163 -53 -222.5 -95 t-66.5 -112q-8 -75 49 -115t172 -40q87 0 164.5 34.5t132.5 98.5l115 -98q-161 -176 -446 -176z" />
<glyph unicode="&#x434;" horiz-adv-x="1241" d="M522 -20q-153 0 -263 75.5t-156.5 198.5t-24.5 268q33 224 190.5 374.5t374.5 150.5q145 0 248 -77t133 -198q29 200 -9.5 322.5t-146.5 179.5q-153 82 -477 47v152q354 39 559 -74q244 -133 244 -455q0 -292 -109 -551q-36 -87 -86.5 -158.5t-119 -130t-160 -91.5 t-197.5 -33zM547 125q143 0 259.5 112t139.5 277t-60.5 277t-230.5 112q-149 0 -261.5 -109.5t-137.5 -281.5q-23 -164 61.5 -275.5t229.5 -111.5z" />
<glyph unicode="&#x435;" horiz-adv-x="1140" d="M549 127q56 0 107 15t83.5 36t57 42.5t35.5 36.5l10 15l155 -51q-3 -5 -8.5 -13.5t-26 -33.5t-45 -48t-65.5 -51t-87 -48t-110 -33.5t-133 -13.5q-157 0 -265.5 77t-152 202.5t-22.5 277.5q20 150 104 275t219 200t293 75q100 0 182 -31t134.5 -97.5t52.5 -159.5 q0 -336 -571 -336q-126 0 -246 8q-5 -157 73.5 -250.5t225.5 -93.5zM672 940q-135 0 -248 -94t-154 -242q120 -6 222 -6q215 0 303.5 51t83.5 146q-3 69 -60.5 107t-146.5 38z" />
<glyph unicode="&#x436;" horiz-adv-x="1585" d="M-70 0q234 397 486 549l-269 520h183l229 -463h141l99 463h178l-98 -463h145q104 64 192 172.5t201 290.5h189q-219 -362 -441 -522l283 -547h-195l-239 485h-160l-102 -485h-181l103 485h-92q-127 -58 -237 -179t-222 -306h-193z" />
<glyph unicode="&#x437;" horiz-adv-x="1030" d="M393 -14q-153 0 -252.5 57.5t-138.5 163.5l154 65q27 -67 91 -103t161 -36q117 0 192.5 51t89.5 138q14 78 -32.5 126.5t-143.5 49.5h-137l24 118h138q63 0 114.5 42.5t61.5 105.5q14 80 -32.5 127t-145.5 47q-165 0 -252 -131l-129 74q68 98 173 151t236 53 q165 0 255 -83.5t69 -229.5q-9 -71 -55 -126t-117 -83q88 -29 126 -98.5t23 -167.5q-24 -145 -154.5 -228t-318.5 -83z" />
<glyph unicode="&#x438;" horiz-adv-x="1181" d="M68 250q0 71 22 178l137 641h179l-130 -606q-18 -83 -18 -141q0 -187 160 -187q104 0 209 71t176 193l141 670h180l-180 -848q-4 -20 -4 -26q0 -20 10.5 -28.5t34.5 -10.5l-33 -156q-62 -8 -71 -8q-55 0 -84 24t-29 66q0 35 23 147q-91 -119 -216.5 -184t-257.5 -65 q-249 0 -249 270z" />
<glyph unicode="&#x439;" horiz-adv-x="1181" d="M707 1229q-132 0 -202 58t-65 149h101q-3 -52 38 -86.5t132 -34.5q86 0 128.5 31.5t57.5 89.5h100q-5 -91 -81.5 -149t-208.5 -58zM68 250q0 71 22 178l137 641h179l-130 -606q-18 -83 -18 -141q0 -187 160 -187q104 0 209 71t176 193l141 670h180l-180 -848 q-4 -20 -4 -26q0 -20 10.5 -28.5t34.5 -10.5l-33 -156q-62 -8 -71 -8q-55 0 -84 24t-29 66q0 35 23 147q-91 -119 -216.5 -184t-257.5 -65q-249 0 -249 270z" />
<glyph unicode="&#x43a;" horiz-adv-x="1040" d="M27 0l225 1069h180l-96 -453h143q190 116 393 453h189q-215 -360 -443 -522l285 -547h-196l-244 475h-158l-100 -475h-178z" />
<glyph unicode="&#x43b;" horiz-adv-x="1110" d="M-37 0q194 581 651 1069h185l153 -1069h-188l-105 903q-326 -381 -520 -903h-176z" />
<glyph unicode="&#x43c;" horiz-adv-x="1427" d="M27 0l225 1069h201l223 -676l514 676h211l-225 -1069h-172l172 817l-474 -627h-114l-215 631l-174 -821h-172z" />
<glyph unicode="&#x43d;" horiz-adv-x="1196" d="M27 0l225 1069h180l-96 -451h559l94 451h180l-225 -1069h-180l100 477h-557l-100 -477h-180z" />
<glyph unicode="&#x43e;" horiz-adv-x="1251" d="M543 -20q-118 0 -213 44.5t-154 120t-84 176t-10 211.5t69.5 212.5t135 177t188 120.5t223.5 45q155 0 269.5 -76.5t164 -203t29.5 -275.5q-21 -149 -103.5 -274t-218.5 -201.5t-296 -76.5zM563 127q146 0 267.5 121t144.5 287q23 169 -62.5 287t-234.5 118 q-147 0 -267 -119.5t-143 -290.5q-23 -169 63.5 -286t231.5 -117z" />
<glyph unicode="&#x43f;" horiz-adv-x="1165" d="M27 0l225 1069h887l-228 -1069h-180l197 928h-525l-196 -928h-180z" />
<glyph unicode="&#x440;" horiz-adv-x="1228" d="M238 1069h159l-43 -201q84 101 193.5 160t222.5 59q171 0 274 -129.5t103 -316.5q0 -168 -80.5 -320.5t-217 -246.5t-290.5 -94q-120 0 -203 63t-120 168l-138 -647h-180zM958 612q0 136 -74 228t-194 92q-60 0 -131.5 -32t-132.5 -88.5t-88 -119.5l-66 -305 q21 -109 93.5 -180.5t171.5 -71.5q110 0 208.5 71.5t155.5 181.5t57 224z" />
<glyph unicode="&#x441;" horiz-adv-x="1087" d="M45 432q0 170 83.5 320t233.5 242.5t328 92.5q153 0 250 -69t129 -191l-186 -55q-25 78 -82.5 119t-141.5 41q-108 0 -207 -64t-160 -175t-61 -238q0 -139 71.5 -229.5t186.5 -90.5q87 0 174.5 49t124.5 117l166 -53q-71 -119 -205.5 -193.5t-283.5 -74.5 q-131 0 -227.5 61.5t-144.5 162.5t-48 228z" />
<glyph unicode="&#x442;" horiz-adv-x="1808" d="M238 1069h163l-49 -229q82 114 197 180.5t233 66.5t181.5 -67.5t66.5 -192.5q191 260 438 260q238 0 238 -260q0 -76 -23 -188l-137 -639h-180l127 598q18 86 18 150q0 178 -147 178q-100 0 -199 -78.5t-161 -204.5l-136 -643h-180l127 598q19 93 19 152q0 176 -146 176 q-101 0 -199.5 -77.5t-160.5 -203.5l-138 -645h-180z" />
<glyph unicode="&#x443;" horiz-adv-x="1026" d="M-72 -313q130 19 192 57t132 143l59 90l-207 1092h187l147 -907l70 114q172 283 248 445.5t123 347.5h178q-55 -198 -137 -364.5t-285 -493.5l-164 -264q-140 -225 -253 -314t-265 -92z" />
<glyph unicode="&#x444;" horiz-adv-x="1456" d="M420 -436l92 436h-45q-111 0 -199 44t-139.5 117.5t-71.5 169.5t-2 201q24 146 105.5 266.5t214 194.5t289.5 74h75l90 428h172l-90 -428l39 -2q224 -12 338 -164t78 -369q-18 -108 -70.5 -204.5t-130.5 -169t-184.5 -115.5t-224.5 -43h-72l-92 -436h-172zM512 131h39 l172 809h-80q-148 0 -263 -118t-140 -292q-28 -171 48 -285t224 -114zM702 131h74q151 0 265 114t141 285q28 175 -49 292.5t-224 117.5h-35z" />
<glyph unicode="&#x445;" horiz-adv-x="1007" d="M387 532l-264 537h188l189 -393l8 -33l24 33l355 393h190l-491 -537l266 -532h-190l-189 391l-12 31l-23 -31l-354 -391h-190z" />
<glyph unicode="&#x446;" horiz-adv-x="1234" d="M838 -252l55 252q-74 0 -101 61t3 168q-89 -116 -206.5 -182.5t-244.5 -66.5q-138 0 -205 76.5t-67 211.5q0 74 18 160l137 641h179l-140 -645q-16 -72 -16 -123q0 -83 40 -124.5t128 -41.5q104 0 210 71t177 193l141 670h180l-165 -780q-21 -92 -7.5 -121t80.5 -29h49 l-82 -391h-163z" />
<glyph unicode="&#x447;" horiz-adv-x="1077" d="M639 0l94 428q-135 -59 -293 -59q-177 0 -255.5 92t-39.5 272l74 336h182l-69 -311q-53 -250 184 -250q66 0 134 15t112 40l108 506h181l-228 -1069h-184z" />
<glyph unicode="&#x448;" horiz-adv-x="1808" d="M1571 0h-164l49 229q-82 -114 -197 -180.5t-233 -66.5t-181.5 67.5t-66.5 192.5q-191 -260 -438 -260q-238 0 -238 260q0 76 23 188l137 639h180l-127 -598q-18 -86 -18 -149q0 -179 147 -179q100 0 199.5 78.5t161.5 204.5l135 643h180l-127 -598q-18 -89 -18 -152 q0 -176 145 -176q101 0 200 77.5t161 203.5l137 645h180z" />
<glyph unicode="&#x449;" horiz-adv-x="1871" d="M1475 -252l53 252q-85 6 -107.5 58t2.5 173q-77 -115 -186 -182t-221 -67q-121 0 -192 65t-79 182q-181 -247 -415 -247q-263 0 -260 284q0 66 20 164l137 639h181l-127 -598q-19 -87 -19 -154q0 -174 148 -174q100 0 199 78.5t161 204.5l135 643h180l-127 -598 q-18 -80 -18 -147q0 -181 145 -181q101 0 200 77.5t161 203.5l137 645h180l-166 -778q-21 -94 -7.5 -123t77.5 -29h53l-82 -391h-163z" />
<glyph unicode="&#x44a;" horiz-adv-x="1234" d="M639 -16q-199 0 -295 88t-96 243q0 128 61.5 287t171.5 326h-356l31 141h585q-94 -154 -180 -334q57 2 174 2q196 0 296.5 -110.5t72.5 -286.5q-28 -177 -153.5 -266.5t-311.5 -89.5zM659 135q104 0 174 62t85 165q29 234 -228 234q-99 0 -194 -6q-39 -79 -58 -180 q-25 -136 37.5 -205.5t183.5 -69.5z" />
<glyph unicode="&#x44b;" horiz-adv-x="1419" d="M524 737q195 0 294 -109.5t75 -287.5q-27 -177 -146.5 -266.5t-297.5 -89.5q-95 0 -169 26t-125 80t-68.5 136t1.5 194q15 75 35.5 165.5t36 155.5t40.5 169.5t38 158.5h180q-44 -179 -78 -332h184zM1212 1069h181l-228 -1069h-180zM707 362q29 234 -228 234h-172 q-17 -74 -39 -186q-24 -136 34 -207.5t167 -71.5q95 0 159.5 63t78.5 168z" />
<glyph unicode="&#x44c;" horiz-adv-x="1083" d="M565 737q206 0 310 -109.5t79 -287.5q-30 -177 -160.5 -266.5t-324.5 -89.5q-100 0 -178.5 26t-132.5 80t-72 136t2 194q15 75 35.5 165.5t36 155.5t40.5 169.5t38 158.5h180q-44 -179 -78 -332h225zM768 362q16 112 -44 173t-204 61h-213q-17 -74 -39 -186 q-27 -136 36.5 -207.5t184.5 -71.5q112 0 188 63t91 168z" />
<glyph unicode="&#x44d;" horiz-adv-x="1181" d="M637 1087q127 0 224.5 -47t152 -124.5t75.5 -175t5 -201.5q-18 -107 -70 -206.5t-130 -178t-188.5 -125.5t-234.5 -47q-156 0 -273 68.5t-159 189.5l156 67q34 -90 110.5 -135t179.5 -45q141 0 261 100.5t163 249.5h-477l31 139h467q-1 148 -87.5 236t-228.5 88 q-205 0 -329 -170l-127 72q79 114 202.5 179.5t276.5 65.5z" />
<glyph unicode="&#x44e;" horiz-adv-x="1695" d="M1143 1087q155 0 269.5 -76.5t164 -203t29.5 -275.5q-21 -149 -104 -274t-219 -201.5t-296 -76.5q-110 0 -201 39.5t-150 107t-89 158t-25 192.5h-215l-100 -477h-180l225 1069h180l-94 -451h207q57 200 222.5 334.5t375.5 134.5zM1419 535q23 169 -62.5 287t-234.5 118 q-147 0 -266.5 -119.5t-142.5 -290.5q-23 -169 63.5 -286t231.5 -117q146 0 267 121t144 287z" />
<glyph unicode="&#x44f;" horiz-adv-x="1126" d="M0 0l373 436q-87 28 -139 95t-52 169q0 121 65 207.5t173 127t248 40.5q92 0 182.5 -17.5t136.5 -34t82 -34.5l-211 -989h-182l86 401h-207l-338 -401h-217zM555 535h236l77 366q-90 35 -219 35q-130 0 -211.5 -62t-81.5 -169q-2 -76 48 -123t151 -47z" />
<glyph unicode="&#x450;" horiz-adv-x="1140" d="M750 1288l-125 -41l-121 248h176zM549 127q56 0 107 15t83.5 36t57 42.5t35.5 36.5l10 15l155 -51q-3 -5 -8.5 -13.5t-26 -33.5t-45 -48t-65.5 -51t-87 -48t-110 -33.5t-133 -13.5q-157 0 -265.5 77t-152 202.5t-22.5 277.5q20 150 104 275t219 200t293 75q100 0 182 -31 t134.5 -97.5t52.5 -159.5q0 -336 -571 -336q-126 0 -246 8q-5 -157 73.5 -250.5t225.5 -93.5zM672 940q-135 0 -248 -94t-154 -242q120 -6 222 -6q215 0 303.5 51t83.5 146q-3 69 -60.5 107t-146.5 38z" />
<glyph unicode="&#x451;" horiz-adv-x="1140" d="M696 1487l-45 -209h-151l45 209h151zM1016 1487l-43 -209h-152l45 209h150zM549 127q56 0 107 15t83.5 36t57 42.5t35.5 36.5l10 15l155 -51q-3 -5 -8.5 -13.5t-26 -33.5t-45 -48t-65.5 -51t-87 -48t-110 -33.5t-133 -13.5q-157 0 -265.5 77t-152 202.5t-22.5 277.5 q20 150 104 275t219 200t293 75q100 0 182 -31t134.5 -97.5t52.5 -159.5q0 -336 -571 -336q-126 0 -246 8q-5 -157 73.5 -250.5t225.5 -93.5zM672 940q-135 0 -248 -94t-154 -242q120 -6 222 -6q215 0 303.5 51t83.5 146q-3 69 -60.5 107t-146.5 38z" />
<glyph unicode="&#x452;" horiz-adv-x="1208" d="M756 952q212 0 285 -163t8 -472q-72 -340 -203 -503.5t-350 -163.5q-52 0 -99 11.5t-76.5 28t-52 33t-32.5 27.5l-9 12l140 93q4 -6 13.5 -16t45.5 -26t80 -16q123 0 215.5 128.5t144.5 377.5q54 263 12 375.5t-196 112.5q-106 0 -200 -64.5t-165 -179.5l-127 -547h-180 l266 1141h-165l24 114h166l55 240h181l-56 -240h459l-25 -114h-458l-90 -387q79 91 179.5 144.5t209.5 53.5z" />
<glyph unicode="&#x453;" horiz-adv-x="1005" d="M666 1247l-111 41l156 207h178zM449 -20q-194 0 -288 79.5t-85 219.5q9 118 99.5 188.5t303.5 138.5q137 44 189.5 86t60.5 111q6 73 -40.5 112t-135.5 39q-84 0 -157 -34t-117 -95l-129 80q67 89 178 137t254 48q169 0 254 -76t79 -211q-9 -118 -93.5 -189.5 t-270.5 -130.5q-163 -53 -222.5 -95t-66.5 -112q-8 -75 49 -115t172 -40q87 0 164.5 34.5t132.5 98.5l115 -98q-161 -176 -446 -176z" />
<glyph unicode="&#x454;" horiz-adv-x="1163" d="M537 135q84 0 167.5 43t139.5 125l166 -55q-77 -123 -212 -194.5t-286 -71.5q-118 0 -211 47t-147 125.5t-75.5 178.5t-4.5 206q16 104 67 201.5t129.5 175t189 124.5t234.5 47q155 0 254.5 -70t141.5 -190l-183 -55q-65 160 -239 160q-132 0 -241 -86.5t-159 -229.5h467 l-33 -139h-460q-5 -147 77.5 -244.5t217.5 -97.5z" />
<glyph unicode="&#x455;" horiz-adv-x="972" d="M-49 135l102 121q143 -137 334 -137q124 0 200.5 52.5t76.5 139.5q0 64 -47 92.5t-175 65.5q-15 4 -22 6q-51 15 -81 24.5t-66 23t-55.5 25.5t-40.5 29t-31 37t-16.5 45.5t-6.5 57.5q0 107 61 192t166.5 131.5t235.5 46.5q230 0 358 -141l-104 -108q-52 59 -115 85.5 t-147 26.5q-123 0 -200 -50t-77 -142q0 -61 40 -86.5t163 -59.5q73 -20 121.5 -37t93.5 -40.5t71 -50.5t41 -64.5t15 -85.5q0 -152 -131 -253t-344 -101q-130 0 -241 40.5t-179 114.5z" />
<glyph unicode="&#x456;" horiz-adv-x="462" d="M328 1495h180l-47 -225h-180zM238 1069h180l-228 -1069h-180z" />
<glyph unicode="&#x457;" horiz-adv-x="462" d="M133 1278l45 209h152l-45 -209h-152zM455 1278l45 209h149l-43 -209h-151zM238 1069h180l-228 -1069h-180z" />
<glyph unicode="&#x458;" horiz-adv-x="475" d="M340 1495h180l-49 -225h-180zM-416 -295l109 121q39 -47 123 -47q63 0 122 50.5t74 123.5l238 1116h180l-235 -1104q-32 -149 -147.5 -247.5t-246.5 -98.5q-143 0 -217 86z" />
<glyph unicode="&#x459;" horiz-adv-x="1591" d="M1079 668q183 0 279.5 -77.5t97.5 -228.5q0 -176 -112.5 -277t-286.5 -101q-98 0 -161.5 17t-111.5 64t-75.5 127.5t-42.5 208.5l-62 508q-288 -384 -461 -909h-180q168 564 592 1069h195l55 -414q146 13 274 13zM1059 135q96 0 153.5 60t57.5 159q-2 87 -52.5 129.5 t-158.5 42.5q-106 0 -236 -10l13 -94q16 -121 43.5 -183t67.5 -83t112 -21z" />
<glyph unicode="&#x45a;" horiz-adv-x="1728" d="M1255 637q178 0 269 -80t69 -244q-24 -159 -153.5 -244t-317.5 -85q-198 0 -300.5 114t-59.5 318l16 80h-467l-104 -496h-180l225 1069h180l-90 -432h465l92 432h180l-92 -432h268zM1405 317q12 86 -31.5 132.5t-140.5 46.5h-275l-20 -95q-28 -131 30.5 -198.5 t176.5 -67.5q103 0 174 48t86 134z" />
<glyph unicode="&#x45b;" horiz-adv-x="1228" d="M778 952q172 0 256 -111t45 -300l-112 -541h-181l109 520q49 271 -178 271q-124 0 -224.5 -64.5t-170.5 -183.5l-115 -543h-180l241 1141h-155l22 114h158l51 240h180l-51 -240h469l-24 -114h-469l-82 -387q165 198 411 198z" />
<glyph unicode="&#x45c;" horiz-adv-x="1040" d="M698 1247l-110 41l155 207h179zM27 0l225 1069h180l-96 -453h143q190 116 393 453h189q-215 -360 -443 -522l285 -547h-196l-244 475h-158l-100 -475h-178z" />
<glyph unicode="&#x45d;" horiz-adv-x="1181" d="M512 1495h176l70 -207l-125 -41zM68 250q0 71 22 178l137 641h179l-130 -606q-18 -83 -18 -141q0 -187 160 -187q104 0 209 71t176 193l141 670h180l-180 -848q-4 -20 -4 -26q0 -20 10.5 -28.5t34.5 -10.5l-33 -156q-62 -8 -71 -8q-55 0 -84 24t-29 66q0 35 23 147 q-91 -119 -216.5 -184t-257.5 -65q-249 0 -249 270z" />
<glyph unicode="&#x45e;" horiz-adv-x="1026" d="M631 1229q-132 0 -201.5 58t-64.5 149h100q-3 -52 38 -86.5t132 -34.5q86 0 128.5 31.5t57.5 89.5h101q-5 -91 -82 -149t-209 -58zM-72 -313q130 19 192 57t132 143l59 90l-207 1092h187l147 -907l70 114q172 283 248 445.5t123 347.5h178q-55 -198 -137 -364.5 t-285 -493.5l-164 -264q-140 -225 -253 -314t-265 -92z" />
<glyph unicode="&#x45f;" horiz-adv-x="1181" d="M68 250q0 71 22 178l137 641h179l-130 -606q-18 -83 -18 -141q0 -187 160 -187q104 0 209 71t176 193l141 670h180l-180 -848q-4 -20 -4 -26q0 -20 10.5 -28.5t34.5 -10.5l-33 -156q-62 -8 -71 -8q-55 0 -84 24t-29 66q0 35 23 147q-91 -119 -216.5 -184t-257.5 -65 q-249 0 -249 270zM319 -373l48 217h161l-45 -217h-164z" />
<glyph unicode="&#x462;" horiz-adv-x="1380" d="M860 903q232 0 337 -121.5t73 -328.5q-32 -199 -176.5 -326t-366.5 -127h-555l238 1124h-273l27 123h270l53 248h185l-54 -248h377l-26 -123h-375l-47 -221h313zM1081 453q6 46 5.5 88t-17.5 78.5t-46.5 63.5t-80.5 42.5t-119 15.5h-311l-121 -579h336q152 0 242 82.5 t112 208.5z" />
<glyph unicode="&#x463;" horiz-adv-x="1585" d="M1006 -16q-192 0 -286 111.5t-44 324.5l45 190q43 173 20.5 247.5t-114.5 74.5q-152 0 -281 -195l-156 -737h-180l228 1069h168l-33 -158q139 172 325 172q152 0 203.5 -113.5t3.5 -310.5q89 15 187 15q360 0 360 -305q0 -174 -121 -279.5t-325 -105.5zM1024 135 q115 0 181.5 61.5t66.5 163.5q2 79 -46 123t-147 47q-96 3 -205 -10l-26 -119q-34 -129 18 -197.5t158 -68.5z" />
<glyph unicode="&#x46a;" horiz-adv-x="2050" d="M2091 1454l-643 -711l442 -743h-198l-385 653h-189l-137 -653h-184l137 653h-189l-606 -653h-209l686 743l-413 711h1888zM758 817h551l448 500h-1284z" />
<glyph unicode="&#x46b;" horiz-adv-x="1601" d="M-72 0l535 551l-295 518h1448l-486 -518l334 -551h-194l-277 467h-112l-99 -467h-180l98 467h-114l-447 -467h-211zM596 608h403l328 361h-926z" />
<glyph unicode="&#x472;" horiz-adv-x="1519" d="M913 1464q152 0 275.5 -62.5t198 -165.5t107 -236.5t13.5 -274.5q-20 -148 -92.5 -283t-179.5 -234.5t-247 -158.5t-288 -59q-122 0 -226.5 40.5t-178 111.5t-123 164t-66.5 201.5t-2 219.5q20 144 93.5 278.5t180 235.5t247.5 162t288 61zM887 1296q-106 0 -203.5 -40.5 t-171 -109t-126.5 -156.5t-79 -185h1020q3 138 -48 248.5t-153 176.5t-239 66zM727 156q110 0 211 44.5t175.5 119t126.5 168t73 194.5h-1026q-8 -105 19 -200t82.5 -167.5t143 -115.5t195.5 -43z" />
<glyph unicode="&#x473;" horiz-adv-x="1226" d="M674 1087q155 0 269.5 -76.5t164 -203t29.5 -275.5q-21 -149 -104 -274t-219 -201.5t-296 -76.5q-118 0 -213 44.5t-154 120t-84 176t-10 211.5q20 149 106 275.5t221.5 203t289.5 76.5zM653 940q-127 0 -237.5 -93t-153.5 -235h692q-3 142 -86.5 235t-214.5 93zM539 127 q133 0 248 101.5t153 250.5h-700q-4 -152 80.5 -252t218.5 -100z" />
<glyph unicode="&#x474;" horiz-adv-x="1361" d="M449 0l-254 1454h194l184 -1198l510 940q82 145 162 201.5t207 56.5h90l-49 -156h-51q-68 0 -113 -36.5t-102 -137.5l-619 -1124h-159z" />
<glyph unicode="&#x475;" horiz-adv-x="1007" d="M260 0l-145 1069h186l94 -905q216 264 344 590q72 192 152.5 259.5t236.5 67.5l-26 -143q-68 0 -113 -44t-88 -151q-80 -187 -201 -383.5t-270 -359.5h-170z" />
<glyph unicode="&#x490;" horiz-adv-x="1044" d="M41 0l309 1454h682l62 301h163l-98 -465h-661l-273 -1290h-184z" />
<glyph unicode="&#x491;" horiz-adv-x="882" d="M-82 -354q-121 0 -211 67l72 131q53 -43 137 -43q80 0 120.5 47.5t63.5 149.5l228 1071h471l55 252h162l-84 -393h-453l-198 -928q-80 -354 -363 -354z" />
<glyph unicode="&#x492;" horiz-adv-x="1081" d="M1196 1290h-659l-117 -547h438l-20 -122h-445l-131 -621h-184l131 621h-215l20 122h222l149 711h846z" />
<glyph unicode="&#x493;" horiz-adv-x="913" d="M967 928h-480l-77 -367h327l-24 -119h-330l-94 -442h-180l94 442h-199l25 119h198l107 508h659z" />
<glyph unicode="&#x494;" horiz-adv-x="1345" d="M764 866q220 0 336 -134.5t78 -364.5q-38 -220 -181 -334.5t-364 -114.5q-95 0 -187 27l64 151q79 -22 131 -22q142 0 234 76.5t118 230.5q25 164 -52 255t-222 91q-180 0 -363 -111l-131 -616h-184l307 1454h846l-35 -164h-659l-111 -520q169 96 375 96z" />
<glyph unicode="&#x495;" horiz-adv-x="1067" d="M604 680q401 0 318 -510q-21 -135 -57.5 -233.5t-96 -172t-147.5 -110.5t-207 -37q-140 0 -244 96l137 92q55 -38 117 -38q135 0 212 98.5t109 292.5q31 192 -23 282t-200 90q-122 0 -217 -67l-98 -463h-180l227 1069h659l-30 -141h-477l-70 -328q119 80 268 80z" />
<glyph unicode="&#x496;" horiz-adv-x="2113" d="M1458 760l328 -596h207l-95 -440h-159l57 276h-117l2 14l-348 648h-237l-140 -662h-184l139 662h-180l-608 -662h-209l686 752l-397 702h184l356 -633h203l133 633h185l-134 -633h185l608 633h217z" />
<glyph unicode="&#x497;" horiz-adv-x="1642" d="M1165 547l201 -389h174l-86 -410h-164l53 252h-90l-239 485h-160l-102 -485h-181l103 485h-92q-127 -58 -237 -179t-222 -306h-193q234 397 486 549l-269 520h183l229 -463h141l99 463h178l-98 -463h145q104 64 192 172.5t201 290.5h189q-219 -362 -441 -522z" />
<glyph unicode="&#x498;" horiz-adv-x="1167" d="M1079 1075q-18 -105 -85 -191t-171 -128q119 -36 174 -137.5t35 -237.5q-24 -159 -141 -260.5t-299 -128.5l-55 -268h-160l53 262q-142 9 -246 74t-155 176l155 86q36 -93 119 -140t199 -47q149 0 238 68t108 194t-47.5 202.5t-204.5 76.5h-121l29 145h114q108 0 185 68 t92 172q18 118 -35.5 185t-175.5 67q-106 0 -197.5 -46t-144.5 -132l-123 92q187 243 477 243q199 0 304 -107t79 -288z" />
<glyph unicode="&#x499;" horiz-adv-x="937" d="M889 772q-9 -71 -55 -126t-117 -83q88 -29 126 -98.5t23 -167.5q-23 -133 -135.5 -215t-279.5 -94l-50 -240h-163l51 246q-220 34 -287 213l154 65q27 -67 91 -103t161 -36q117 0 192.5 51t89.5 138q14 78 -32.5 126.5t-143.5 49.5h-137l24 118h138q63 0 114.5 42.5 t61.5 105.5q14 80 -32.5 127t-145.5 47q-165 0 -252 -131l-129 74q68 98 173 151t236 53q165 0 255 -83.5t69 -229.5z" />
<glyph unicode="&#x49a;" horiz-adv-x="1396" d="M727 760l328 -596h221l-94 -440h-160l59 276h-131l-356 662h-229l-140 -662h-184l307 1454h184l-133 -633h185l608 633h217z" />
<glyph unicode="&#x49b;" horiz-adv-x="1099" d="M618 547l203 -389h178l-88 -410h-163l55 252h-96l-244 475h-158l-100 -475h-178l225 1069h180l-96 -453h143q190 116 393 453h189q-215 -360 -443 -522z" />
<glyph unicode="&#x49c;" horiz-adv-x="1323" d="M1427 1454l-682 -694l418 -760h-215l-354 657h-37l-51 -227h-123l51 227h-72l-139 -657h-184l307 1454h184l-133 -629h76l55 248h123l-55 -248h2l596 629h233z" />
<glyph unicode="&#x49d;" horiz-adv-x="1114" d="M1135 1069q-215 -360 -443 -522l285 -547h-197l-250 485l-47 -215h-112l47 215h-109l-104 -485h-178l225 1069h180l-98 -463h108l47 213h113l-43 -198q106 66 198.5 177t188.5 271h189z" />
<glyph unicode="&#x4a0;" horiz-adv-x="1490" d="M1595 1454l-682 -694l418 -760h-194l-357 662h-229l-139 -662h-185l273 1290h-324l35 164h508l-133 -633h184l608 633h217z" />
<glyph unicode="&#x4a1;" horiz-adv-x="1216" d="M1237 1069q-216 -361 -442 -522l284 -547h-196l-244 475h-158l-100 -475h-178l194 928h-272l29 141h454l-96 -453h143q191 117 394 453h188z" />
<glyph unicode="&#x4a2;" horiz-adv-x="1554" d="M1466 1454l-274 -1290h199l-95 -440h-159l59 276h-223l141 662h-747l-142 -662h-184l309 1454h185l-134 -629h748l133 629h184z" />
<glyph unicode="&#x4a3;" horiz-adv-x="1298" d="M1169 1069l-192 -911h176l-88 -410h-164l53 252h-190l33 158l67 319h-557l-100 -477h-180l225 1069h180l-96 -451h559l94 451h180z" />
<glyph unicode="&#x4a4;" horiz-adv-x="1974" d="M2124 1454l-35 -164h-657l-275 -1290h-184l141 662h-747l-142 -662h-184l309 1454h185l-134 -629h748l133 629h842z" />
<glyph unicode="&#x4a5;" horiz-adv-x="1566" d="M1649 1069l-35 -160h-477l-193 -909h-180l100 477h-557l-100 -477h-180l225 1069h180l-96 -451h559l94 451h660z" />
<glyph unicode="&#x4aa;" horiz-adv-x="1456" d="M731 154q131 0 260 64.5t209 191.5l141 -84q-78 -135 -228 -222t-316 -110l-56 -270h-159l55 266q-135 13 -245.5 83t-178 173t-96.5 231.5t-11 259.5q15 106 60 210.5t119 197t168 163.5t215 112.5t252 41.5q193 0 325 -86t185 -231l-158 -94q-44 128 -149 186.5 t-236 58.5q-121 0 -228 -49.5t-181 -131.5t-122 -181.5t-63 -204.5q-21 -151 26.5 -282.5t157 -212t254.5 -80.5z" />
<glyph unicode="&#x4ab;" horiz-adv-x="1089" d="M492 135q87 0 174.5 49t124.5 117l165 -53q-60 -99 -165.5 -168.5t-227.5 -91.5l-51 -240h-164l51 236q-166 23 -259 147.5t-93 300.5q0 170 83.5 320t233.5 242.5t328 92.5q153 0 250 -69t129 -191l-186 -55q-25 78 -82.5 119t-140.5 41q-108 0 -207 -64t-160.5 -175 t-61.5 -238q0 -139 72 -229.5t187 -90.5z" />
<glyph unicode="&#x4ae;" horiz-adv-x="1253" d="M508 535l-326 919h203l250 -758l575 758h201l-721 -924l-112 -530h-185z" />
<glyph unicode="&#x4af;" horiz-adv-x="1007" d="M170 -436l94 436l-149 1069h180l106 -889q284 373 459 889h166q-169 -569 -588 -1067l-88 -438h-180z" />
<glyph unicode="&#x4b0;" horiz-adv-x="1253" d="M690 530l-2 -14h225l-26 -123h-225l-84 -393h-185l84 393h-223l27 123h223l4 19l-326 919h203l250 -758l575 758h201z" />
<glyph unicode="&#x4b1;" horiz-adv-x="1007" d="M438 2v-2h234l-25 -115h-231l-66 -321h-180l70 321h-234l23 115h235l-149 1069h180l106 -889q284 373 459 889h166q-169 -569 -588 -1067z" />
<glyph unicode="&#x4b6;" horiz-adv-x="1431" d="M1386 1454l-272 -1290h154l-94 -440h-160l59 276h-178l127 602q-190 -70 -387 -70q-262 0 -366.5 124t-53.5 364l98 434h185l-105 -465q-32 -159 36 -229t257 -70q99 0 202 23.5t171 60.5l143 680h184z" />
<glyph unicode="&#x4b7;" horiz-adv-x="1179" d="M1051 1069l-195 -911h178l-88 -410h-164l54 252h-197l94 428q-135 -59 -293 -59q-177 0 -255.5 92t-39.5 272l74 336h182l-69 -311q-53 -250 184 -250q66 0 134 15t112 40l108 506h181z" />
<glyph unicode="&#x4b8;" horiz-adv-x="1380" d="M1202 1454h184l-307 -1454h-184l127 602q-149 -55 -309 -67l-54 -238h-122l53 235q-237 10 -331 134.5t-44 353.5l98 434h185l-105 -465q-29 -145 26 -216t208 -81l55 248h123l-55 -248q180 13 309 82z" />
<glyph unicode="&#x4b9;" horiz-adv-x="1099" d="M891 1069h182l-227 -1069h-182l90 428q-87 -35 -189 -51l-41 -193h-112l39 185h-17q-175 0 -251 92t-38 272l76 336h182l-71 -311q-24 -122 13 -182t136 -68l49 225h113l-47 -219q112 13 186 49z" />
<glyph unicode="&#x4ba;" horiz-adv-x="1380" d="M260 0h-184l307 1454h184l-127 -602q190 70 387 70q262 0 366.5 -124t53.5 -364l-98 -434h-184l104 465q32 159 -36 229t-257 70q-99 0 -202 -23.5t-171 -60.5z" />
<glyph unicode="&#x4bb;" horiz-adv-x="1161" d="M328 1495h180l-139 -655q85 116 202 181.5t238 65.5q246 0 246 -266q0 -83 -21 -182l-135 -639h-180l127 598q16 85 16 139q0 93 -40 141t-117 48q-99 0 -209 -81t-168 -200l-138 -645h-180z" />
<glyph unicode="&#x4c0;" horiz-adv-x="528" d="M350 1452h185l-310 -1452h-184z" />
<glyph unicode="&#x4c1;" horiz-adv-x="2035" d="M1194 1640q-156 0 -235 65.5t-64 170.5h145q-9 -52 34.5 -86.5t125.5 -34.5q98 0 157 32.5t68 88.5h142q-15 -105 -115 -170.5t-258 -65.5zM-86 0l686 752l-397 702h184l356 -633h203l133 633h185l-134 -633h185l608 633h217l-682 -694l418 -760h-186l-357 662h-237 l-140 -662h-184l139 662h-180l-608 -662h-209z" />
<glyph unicode="&#x4c2;" horiz-adv-x="1585" d="M893 1229q-132 0 -201.5 58t-64.5 149h100q-3 -52 38 -86.5t132 -34.5q86 0 128.5 31.5t57.5 89.5h101q-5 -91 -82 -149t-209 -58zM-70 0q234 397 486 549l-269 520h183l229 -463h141l99 463h178l-98 -463h145q104 64 192 172.5t201 290.5h189q-219 -362 -441 -522 l283 -547h-195l-239 485h-160l-102 -485h-181l103 485h-92q-127 -58 -237 -179t-222 -306h-193z" />
<glyph unicode="&#x4cb;" horiz-adv-x="1380" d="M1202 1454h184l-307 -1454h-231l-57 -276h-160l90 440h209l92 438q-190 -70 -387 -70q-262 0 -366.5 124t-53.5 364l98 434h185l-105 -465q-32 -159 36 -229t257 -70q99 0 202 23.5t171 60.5z" />
<glyph unicode="&#x4cc;" horiz-adv-x="1138" d="M1061 1069l-205 -963h4l-22 -106h-162l-58 -274h-163l77 380h140l71 322q-135 -59 -292 -59q-177 0 -255.5 92t-39.5 272l73 336h183l-70 -311q-53 -250 184 -250q66 0 134 15t112 40l109 506h180z" />
<glyph unicode="&#x4cf;" horiz-adv-x="462" d="M238 1069h180l-228 -1069h-180z" />
<glyph unicode="&#x4d0;" horiz-adv-x="1335" d="M879 1640q-156 0 -235 65.5t-64 170.5h145q-9 -52 34.5 -86.5t125.5 -34.5q98 0 157 32.5t68 88.5h141q-15 -105 -114.5 -170.5t-257.5 -65.5zM774 1454h158l252 -1454h-197l-69 426h-570l-248 -426h-196zM909 569l-100 672l-395 -672h495z" />
<glyph unicode="&#x4d1;" horiz-adv-x="1241" d="M784 1229q-132 0 -201.5 58t-64.5 149h100q-3 -52 38 -86.5t132 -34.5q86 0 129 31.5t58 89.5h100q-5 -91 -82 -149t-209 -58zM45 424q0 126 49 247.5t129.5 212.5t190 147t223.5 56q118 0 200.5 -64.5t118.5 -166.5l48 213h180l-180 -848q-5 -25 -5 -26 q0 -20 10.5 -28.5t34.5 -10.5l-32 -156q-62 -8 -72 -8q-55 0 -86 25.5t-31 66.5q0 30 19 117q-79 -102 -192.5 -161.5t-223.5 -59.5q-174 0 -277.5 128t-103.5 316zM856 375l64 307q-13 104 -91 177t-172 73q-110 0 -208.5 -71.5t-155.5 -182t-57 -225.5q0 -135 74 -226.5 t194 -91.5q93 0 202.5 72t149.5 168z" />
<glyph unicode="&#x4d2;" horiz-adv-x="1335" d="M668 1663l45 209h151l-45 -209h-151zM989 1663l45 209h150l-43 -209h-152zM774 1454h158l252 -1454h-197l-69 426h-570l-248 -426h-196zM909 569l-100 672l-395 -672h495z" />
<glyph unicode="&#x4d3;" horiz-adv-x="1241" d="M586 1278l45 209h151l-45 -209h-151zM907 1278l45 209h150l-43 -209h-152zM45 424q0 126 49 247.5t129.5 212.5t190 147t223.5 56q118 0 200.5 -64.5t118.5 -166.5l48 213h180l-180 -848q-5 -25 -5 -26q0 -20 10.5 -28.5t34.5 -10.5l-32 -156q-62 -8 -72 -8 q-55 0 -86 25.5t-31 66.5q0 30 19 117q-79 -102 -192.5 -161.5t-223.5 -59.5q-174 0 -277.5 128t-103.5 316zM856 375l64 307q-13 104 -91 177t-172 73q-110 0 -208.5 -71.5t-155.5 -182t-57 -225.5q0 -135 74 -226.5t194 -91.5q93 0 202.5 72t149.5 168z" />
<glyph unicode="&#x4d4;" horiz-adv-x="1892" d="M1024 1454h954l-34 -164h-723l-99 -467h617l-35 -164h-617l-106 -495h739l-34 -164h-922l92 426h-481l-338 -426h-201zM877 590l139 649l-524 -649h385z" />
<glyph unicode="&#x4d5;" horiz-adv-x="1818" d="M-12 254q0 168 145.5 278.5t358.5 110.5q133 0 241 -41q5 16 30 77.5t25 100.5q0 76 -57 126t-158 50q-148 0 -348 -125l-32 117q230 139 428 139q122 0 200.5 -50.5t108.5 -143.5q86 91 195 142.5t229 51.5q190 0 299.5 -127.5t109.5 -322.5q0 -21 -1.5 -40t-3.5 -34.5 t-4.5 -27.5t-6 -23t-6 -17t-5.5 -13.5t-3 -8.5h-856q-5 -50 -5 -61q0 -132 79 -214.5t202 -82.5q95 0 186 49.5t138 128.5l147 -43q-76 -120 -213.5 -195t-290.5 -75q-135 0 -233.5 62t-143.5 169q-86 -115 -221 -173t-250 -58q-131 0 -207.5 77t-76.5 197zM1587 590 q4 23 4 67q0 133 -73.5 214t-198.5 81q-141 0 -259 -102t-161 -260h688zM707 317q-7 32 -7 68q0 54 11 111q-98 39 -213 39q-144 0 -239 -69t-95 -177q0 -75 48 -124.5t134 -49.5q103 0 217.5 62t143.5 140z" />
<glyph unicode="&#x4d6;" horiz-adv-x="1187" d="M809 1640q-156 0 -235 65.5t-64 170.5h145q-9 -52 34.5 -86.5t125.5 -34.5q98 0 157 32.5t68 88.5h142q-15 -105 -115 -170.5t-258 -65.5zM350 1454h922l-35 -164h-737l-101 -471h641l-32 -153h-641l-107 -502h756l-35 -164h-940z" />
<glyph unicode="&#x4d7;" horiz-adv-x="1140" d="M698 1229q-132 0 -201.5 58t-64.5 149h100q-3 -52 38 -86.5t132 -34.5q86 0 129 31.5t58 89.5h100q-5 -91 -82 -149t-209 -58zM549 127q56 0 107 15t83.5 36t57 42.5t35.5 36.5l10 15l155 -51q-3 -5 -8.5 -13.5t-26 -33.5t-45 -48t-65.5 -51t-87 -48t-110 -33.5 t-133 -13.5q-157 0 -265.5 77t-152 202.5t-22.5 277.5q20 150 104 275t219 200t293 75q100 0 182 -31t134.5 -97.5t52.5 -159.5q0 -336 -571 -336q-126 0 -246 8q-5 -157 73.5 -250.5t225.5 -93.5zM672 940q-135 0 -248 -94t-154 -242q120 -6 222 -6q215 0 303.5 51 t83.5 146q-3 69 -60.5 107t-146.5 38z" />
<glyph unicode="&#x4d8;" horiz-adv-x="1445" d="M55 578q0 136 43 225h1098q4 50 4 74q0 184 -98 300.5t-256 116.5q-132 0 -257.5 -77t-185.5 -195l-159 80q110 161 291 261.5t362 100.5q149 0 265 -78.5t177.5 -212.5t61.5 -301q0 -140 -44.5 -275t-124 -243t-182 -191t-225 -128t-247.5 -45q-153 0 -273.5 78.5 t-185 212t-64.5 297.5zM1165 643h-919q-10 -44 -10 -104q0 -166 101.5 -274.5t278.5 -108.5q180 0 335 138t214 349z" />
<glyph unicode="&#x4d9;" horiz-adv-x="1191" d="M471 -20q-193 0 -304.5 119t-111.5 304q0 116 33 191h836q4 46 4 65q0 130 -73 210.5t-189 80.5q-93 0 -184 -49t-140 -127l-145 43q77 120 214 195t291 75q190 0 302 -128.5t112 -321.5q0 -127 -51.5 -247.5t-137.5 -210.5t-206 -144.5t-250 -54.5zM502 115 q132 0 245 101.5t156 258.5h-670q-4 -23 -4 -65q0 -131 76 -213t197 -82z" />
<glyph unicode="&#x4dc;" horiz-adv-x="2035" d="M983 1663l45 209h152l-45 -209h-152zM1305 1663l45 209h149l-43 -209h-151zM-86 0l686 752l-397 702h184l356 -633h203l133 633h185l-134 -633h185l608 633h217l-682 -694l418 -760h-186l-357 662h-237l-140 -662h-184l139 662h-180l-608 -662h-209z" />
<glyph unicode="&#x4dd;" horiz-adv-x="1585" d="M694 1278l45 209h152l-45 -209h-152zM1016 1278l45 209h149l-43 -209h-151zM-70 0q234 397 486 549l-269 520h183l229 -463h141l99 463h178l-98 -463h145q104 64 192 172.5t201 290.5h189q-219 -362 -441 -522l283 -547h-195l-239 485h-160l-102 -485h-181l103 485h-92 q-127 -58 -237 -179t-222 -306h-193z" />
<glyph unicode="&#x4de;" horiz-adv-x="1167" d="M532 1663l46 209h151l-45 -209h-152zM854 1663l45 209h150l-43 -209h-152zM473 -16q-158 0 -274 66t-170 186l155 86q36 -93 119 -140t199 -47q149 0 238 68t108 194t-47.5 202.5t-204.5 76.5h-121l29 145h114q108 0 185 68t92 172q18 118 -35.5 185t-175.5 67 q-106 0 -197.5 -46t-144.5 -132l-123 92q187 243 477 243q199 0 304 -107t79 -288q-18 -105 -85 -191t-171 -128q119 -36 174 -137.5t35 -237.5q-29 -186 -180 -291.5t-379 -105.5z" />
<glyph unicode="&#x4df;" horiz-adv-x="1030" d="M381 1278l45 209h152l-46 -209h-151zM702 1278l46 209h149l-43 -209h-152zM393 -14q-153 0 -252.5 57.5t-138.5 163.5l154 65q27 -67 91 -103t161 -36q117 0 192.5 51t89.5 138q14 78 -32.5 126.5t-143.5 49.5h-137l24 118h138q63 0 114.5 42.5t61.5 105.5 q14 80 -32.5 127t-145.5 47q-165 0 -252 -131l-129 74q68 98 173 151t236 53q165 0 255 -83.5t69 -229.5q-9 -71 -55 -126t-117 -83q88 -29 126 -98.5t23 -167.5q-24 -145 -154.5 -228t-318.5 -83z" />
<glyph unicode="&#x4e2;" horiz-adv-x="1490" d="M682 1720l25 119h571l-27 -119h-569zM41 0l307 1454h184l-251 -1194l1044 1194h172l-307 -1454h-184l254 1180l-1037 -1180h-182z" />
<glyph unicode="&#x4e3;" horiz-adv-x="1181" d="M469 1335l25 119h571l-27 -119h-569zM68 250q0 71 22 178l137 641h179l-130 -606q-18 -83 -18 -141q0 -187 160 -187q104 0 209 71t176 193l141 670h180l-180 -848q-4 -20 -4 -26q0 -20 10.5 -28.5t34.5 -10.5l-33 -156q-62 -8 -71 -8q-55 0 -84 24t-29 66q0 35 23 147 q-91 -119 -216.5 -184t-257.5 -65q-249 0 -249 270z" />
<glyph unicode="&#x4e4;" horiz-adv-x="1490" d="M721 1663l45 209h152l-46 -209h-151zM1042 1663l45 209h150l-43 -209h-152zM41 0l307 1454h184l-251 -1194l1044 1194h172l-307 -1454h-184l254 1180l-1037 -1180h-182z" />
<glyph unicode="&#x4e5;" horiz-adv-x="1181" d="M508 1278l45 209h152l-46 -209h-151zM829 1278l45 209h150l-43 -209h-152zM68 250q0 71 22 178l137 641h179l-130 -606q-18 -83 -18 -141q0 -187 160 -187q104 0 209 71t176 193l141 670h180l-180 -848q-4 -20 -4 -26q0 -20 10.5 -28.5t34.5 -10.5l-33 -156 q-62 -8 -71 -8q-55 0 -84 24t-29 66q0 35 23 147q-91 -119 -216.5 -184t-257.5 -65q-249 0 -249 270z" />
<glyph unicode="&#x4e6;" horiz-adv-x="1566" d="M758 1663l45 209h151l-45 -209h-151zM1079 1663l45 209h150l-43 -209h-152zM700 -10q-122 0 -226.5 40.5t-178 111.5t-123 164t-66.5 201.5t-2 219.5q20 144 93.5 278.5t180 235.5t247.5 162t288 61q152 0 275.5 -62.5t198 -165.5t107 -236.5t13.5 -274.5 q-20 -148 -92.5 -283t-179.5 -234.5t-247 -158.5t-288 -59zM727 156q93 0 180 32.5t156 88t123.5 128t88.5 155.5t46 167q21 154 -24 283.5t-152.5 207.5t-257.5 78q-116 0 -221.5 -49t-181.5 -129.5t-127 -182t-66 -208.5q-15 -111 8 -214.5t77.5 -182.5t146 -126.5 t204.5 -47.5z" />
<glyph unicode="&#x4e7;" horiz-adv-x="1251" d="M547 1274l45 209h151l-45 -209h-151zM868 1274l45 209h150l-43 -209h-152zM543 -20q-118 0 -213 44.5t-154 120t-84 176t-10 211.5t69.5 212.5t135 177t188 120.5t223.5 45q155 0 269.5 -76.5t164 -203t29.5 -275.5q-21 -149 -103.5 -274t-218.5 -201.5t-296 -76.5z M563 127q146 0 267.5 121t144.5 287q23 169 -62.5 287t-234.5 118q-147 0 -267 -119.5t-143 -290.5q-23 -169 63.5 -286t231.5 -117z" />
<glyph unicode="&#x4e8;" horiz-adv-x="1519" d="M913 1464q152 0 275.5 -62.5t198 -165.5t107 -236.5t13.5 -274.5q-20 -148 -92.5 -283t-179.5 -234.5t-247 -158.5t-288 -59q-122 0 -226.5 40.5t-178 111.5t-123 164t-66.5 201.5t-2 219.5q20 144 93.5 278.5t180 235.5t247.5 162t288 61zM887 1296q-106 0 -203.5 -40.5 t-171 -109t-126.5 -156.5t-79 -185h1020q3 138 -48 248.5t-153 176.5t-239 66zM727 156q110 0 211 44.5t175.5 119t126.5 168t73 194.5h-1026q-8 -105 19 -200t82.5 -167.5t143 -115.5t195.5 -43z" />
<glyph unicode="&#x4e9;" horiz-adv-x="1226" d="M674 1087q155 0 269.5 -76.5t164 -203t29.5 -275.5q-21 -149 -104 -274t-219 -201.5t-296 -76.5q-118 0 -213 44.5t-154 120t-84 176t-10 211.5q20 149 106 275.5t221.5 203t289.5 76.5zM653 940q-127 0 -237.5 -93t-153.5 -235h692q-3 142 -86.5 235t-214.5 93zM539 127 q133 0 248 101.5t153 250.5h-700q-4 -152 80.5 -252t218.5 -100z" />
<glyph unicode="&#x4ee;" horiz-adv-x="1288" d="M563 1720l25 119h571l-26 -119h-570zM207 0l33 156h77q171 0 256 163l13 21l-412 1114h176l328 -936l493 936h181l-637 -1163q-87 -159 -184 -225t-255 -66h-69z" />
<glyph unicode="&#x4ef;" horiz-adv-x="1026" d="M393 1335l25 119h571l-26 -119h-570zM-72 -313q130 19 192 57t132 143l59 90l-207 1092h187l147 -907l70 114q172 283 248 445.5t123 347.5h178q-55 -198 -137 -364.5t-285 -493.5l-164 -264q-140 -225 -253 -314t-265 -92z" />
<glyph unicode="&#x4f0;" horiz-adv-x="1288" d="M602 1663l45 209h152l-45 -209h-152zM924 1663l45 209h149l-43 -209h-151zM207 0l33 156h77q171 0 256 163l13 21l-412 1114h176l328 -936l493 936h181l-637 -1163q-87 -159 -184 -225t-255 -66h-69z" />
<glyph unicode="&#x4f1;" horiz-adv-x="1026" d="M432 1278l45 209h152l-45 -209h-152zM754 1278l45 209h149l-43 -209h-151zM-72 -313q130 19 192 57t132 143l59 90l-207 1092h187l147 -907l70 114q172 283 248 445.5t123 347.5h178q-55 -198 -137 -364.5t-285 -493.5l-164 -264q-140 -225 -253 -314t-265 -92z" />
<glyph unicode="&#x4f2;" horiz-adv-x="1288" d="M719 1632l-84 41l147 207h154zM989 1632l-84 41l148 207h153zM207 0l33 156h77q171 0 256 163l13 21l-412 1114h176l328 -936l493 936h181l-637 -1163q-87 -159 -184 -225t-255 -66h-69z" />
<glyph unicode="&#x4f3;" horiz-adv-x="1026" d="M549 1247l-84 41l147 207h154zM819 1247l-84 41l148 207h153zM-72 -313q130 19 192 57t132 143l59 90l-207 1092h187l147 -907l70 114q172 283 248 445.5t123 347.5h178q-55 -198 -137 -364.5t-285 -493.5l-164 -264q-140 -225 -253 -314t-265 -92z" />
<glyph unicode="&#x4f4;" horiz-adv-x="1380" d="M676 1663l45 209h151l-45 -209h-151zM997 1663l45 209h150l-43 -209h-152zM1202 1454h184l-307 -1454h-184l127 602q-190 -70 -387 -70q-262 0 -366.5 124t-53.5 364l98 434h185l-105 -465q-32 -159 36 -229t257 -70q99 0 202 23.5t171 60.5z" />
<glyph unicode="&#x4f5;" horiz-adv-x="1077" d="M467 1278l45 209h152l-46 -209h-151zM788 1278l46 209h149l-43 -209h-152zM639 0l94 428q-135 -59 -293 -59q-177 0 -255.5 92t-39.5 272l74 336h182l-69 -311q-53 -250 184 -250q66 0 134 15t112 40l108 506h181l-228 -1069h-184z" />
<glyph unicode="&#x4f6;" horiz-adv-x="1036" d="M340 1454h846l-35 -164h-659l-240 -1126h133l-94 -440h-160l59 276h-159l32 150z" />
<glyph unicode="&#x4f7;" horiz-adv-x="1005" d="M551 483q-163 -53 -222.5 -95t-66.5 -112q-8 -75 49 -115t172 -40q87 0 164.5 34.5t132.5 98.5l115 -98l-74 -349h-164l50 220q-112 -47 -258 -47q-194 0 -288 79.5t-85 219.5q9 118 99.5 188.5t303.5 138.5q137 44 189.5 86t60.5 111q6 73 -40.5 112t-135.5 39 q-84 0 -157 -34t-117 -95l-129 80q67 89 178 137t254 48q169 0 254 -76t79 -211q-9 -118 -93.5 -189.5t-270.5 -130.5z" />
<glyph unicode="&#x4f8;" horiz-adv-x="1699" d="M817 1663l45 209h152l-45 -209h-152zM1139 1663l45 209h149l-43 -209h-151zM41 0l307 1454h184l-116 -551h252q232 0 337 -122t72 -328q-32 -199 -176 -326t-366 -127h-494zM1522 1452h184l-309 -1452h-185zM260 162h275q152 0 242 82.5t112 208.5q6 46 5.5 88 t-17.5 78.5t-46.5 63.5t-80.5 42.5t-119 15.5h-250z" />
<glyph unicode="&#x4f9;" horiz-adv-x="1419" d="M834 1487l-46 -209h-151l45 209h152zM1153 1487l-43 -209h-152l46 209h149zM524 737q195 0 294 -109.5t75 -287.5q-27 -177 -146.5 -266.5t-297.5 -89.5q-95 0 -169 26t-125 80t-68.5 136t1.5 194q15 75 35.5 165.5t36 155.5t40.5 169.5t38 158.5h180q-44 -179 -78 -332 h184zM1212 1069h181l-228 -1069h-180zM707 362q29 234 -228 234h-172q-17 -74 -39 -186q-24 -136 34 -207.5t167 -71.5q95 0 159.5 63t78.5 168z" />
<glyph unicode="&#x51a;" horiz-adv-x="1474" d="M1432 860q0 -180 -84 -353.5t-226 -301.5l127 -205h-180l-70 113q-188 -123 -395 -123q-120 0 -219 49.5t-162.5 133.5t-98 191.5t-34.5 225.5q0 130 45 260.5t125 239.5t183.5 194t228 132.5t250.5 47.5q96 0 179.5 -33t143 -90.5t102.5 -134.5t64 -165t21 -181z M641 156q145 0 279 88l-144 231h178l82 -131q96 102 151.5 236.5t55.5 265.5q0 123 -41 224.5t-124 164.5t-195 63q-122 0 -235.5 -62t-193 -160.5t-127.5 -223t-48 -246.5q0 -124 40.5 -224.5t124 -163t197.5 -62.5z" />
<glyph unicode="&#x51b;" horiz-adv-x="1226" d="M45 416q0 131 52.5 255.5t137.5 215t196.5 145.5t225.5 55q115 0 200.5 -60.5t121.5 -160.5l43 203h160l-271 -1276q-4 -20 -4 -26q0 -20 10.5 -28.5t34.5 -10.5l-32 -156q-40 -6 -86 -6q-56 0 -90.5 30.5t-34.5 81.5q0 11 4 31l106 502q-187 -231 -422 -231 q-163 0 -257.5 125t-94.5 311zM852 365l66 307q0 104 -75.5 182t-176.5 78q-109 0 -210.5 -71t-162 -184t-60.5 -231q0 -133 70.5 -222t188.5 -89q100 0 192.5 63.5t167.5 166.5z" />
<glyph unicode="&#x51c;" horiz-adv-x="2052" d="M190 1454h199l197 -1241l358 600l-104 633h174l71 -506l289 506h174l-372 -633l102 -600l723 1241h203l-887 -1454h-158l-125 686l-420 -686h-157z" />
<glyph unicode="&#x51d;" horiz-adv-x="1572" d="M100 1069h187l170 -911q138 181 235 338l-143 573h186l82 -346q87 176 133 346h172q-78 -278 -252 -567l84 -344q358 495 465 911h172q-138 -500 -579 -1069h-195l-76 301q-116 -165 -227 -301h-195z" />
<glyph unicode="&#x524;" horiz-adv-x="1558" d="M1468 1454l-272 -1290h199l-95 -440h-159l59 276h-223l274 1290h-753l-273 -1290h-184l307 1454h1120z" />
<glyph unicode="&#x525;" horiz-adv-x="1282" d="M1139 1069l-195 -911h193l-88 -410h-164l53 252h-207l197 928h-525l-196 -928h-180l225 1069h887z" />
<glyph unicode="&#x1e08;" horiz-adv-x="1337" d="M1169 1880l-223 -248l-110 41l155 207h178zM651 154q117 0 235.5 65t200.5 191l136 -84q-100 -160 -261.5 -246.5t-326.5 -91.5q53 -66 53 -144q0 -102 -66 -163.5t-176 -61.5q-108 0 -194 57l72 101q65 -45 120 -45q64 0 102 33.5t38 93.5q0 74 -80 141 q-132 27 -227.5 119t-140 213.5t-44.5 259.5q0 123 36.5 247.5t108 236t168 198t226.5 137.5t274 51q192 0 310 -87t157 -230l-153 -88q-20 70 -55 118.5t-81 74t-94.5 36t-107.5 10.5q-118 0 -218.5 -41.5t-170 -110t-118.5 -157.5t-72 -184t-23 -189q0 -128 42 -231 t128 -166t202 -63z" />
<glyph unicode="&#x1e09;" horiz-adv-x="1087" d="M999 1495l-223 -248l-110 41l155 207h178zM489 135q87 0 174.5 49t124.5 117l166 -53q-59 -96 -161.5 -165.5t-221.5 -92.5q56 -66 56 -146q0 -102 -66 -163.5t-176 -61.5q-109 0 -195 57l72 101q65 -45 121 -45q64 0 101.5 33t37.5 94q0 64 -57 121q-131 0 -227.5 61.5 t-144.5 162.5t-48 228q0 170 83.5 320t233.5 242.5t328 92.5q153 0 250 -69t129 -191l-186 -55q-25 78 -82.5 119t-141.5 41q-108 0 -207 -64t-160 -175t-61 -238q0 -139 71.5 -229.5t186.5 -90.5z" />
<glyph unicode="&#x1e0c;" horiz-adv-x="1417" d="M350 1454h481q134 0 238 -43t168.5 -119.5t97.5 -177t33 -219.5q0 -253 -109.5 -458t-303.5 -321t-433 -116h-481zM557 164q139 0 257 57.5t197 154.5t123 224t44 266q0 192 -98.5 308t-282.5 116h-297l-240 -1126h297zM334 -373l47 217h162l-45 -217h-164z" />
<glyph unicode="&#x1e0d;" horiz-adv-x="1241" d="M45 424q0 126 49 247.5t129.5 212.5t190 147t223.5 56q118 0 200.5 -64.5t118.5 -166.5l138 639h180l-270 -1274q-5 -25 -5 -26q0 -20 10.5 -28.5t34.5 -10.5l-32 -156q-62 -8 -72 -8q-55 0 -86 25.5t-31 66.5q0 37 19 117q-79 -102 -192.5 -161.5t-223.5 -59.5 q-174 0 -277.5 128t-103.5 316zM856 375l64 307q-13 104 -91 177t-172 73q-110 0 -208.5 -71.5t-155.5 -182t-57 -225.5q0 -135 74 -226.5t194 -91.5q93 0 202.5 72t149.5 168zM348 -373l47 217h162l-45 -217h-164z" />
<glyph unicode="&#x1e0e;" horiz-adv-x="1417" d="M350 1454h481q134 0 238 -43t168.5 -119.5t97.5 -177t33 -219.5q0 -253 -109.5 -458t-303.5 -321t-433 -116h-481zM557 164q139 0 257 57.5t197 154.5t123 224t44 266q0 192 -98.5 308t-282.5 116h-297l-240 -1126h297zM154 -293l28 119h543l-29 -119h-542z" />
<glyph unicode="&#x1e0f;" horiz-adv-x="1241" d="M45 424q0 126 49 247.5t129.5 212.5t190 147t223.5 56q118 0 200.5 -64.5t118.5 -166.5l138 639h180l-270 -1274q-5 -25 -5 -26q0 -20 10.5 -28.5t34.5 -10.5l-32 -156q-62 -8 -72 -8q-55 0 -86 25.5t-31 66.5q0 37 19 117q-79 -102 -192.5 -161.5t-223.5 -59.5 q-174 0 -277.5 128t-103.5 316zM856 375l64 307q-13 104 -91 177t-172 73q-110 0 -208.5 -71.5t-155.5 -182t-57 -225.5q0 -135 74 -226.5t194 -91.5q93 0 202.5 72t149.5 168zM168 -293l29 119h542l-28 -119h-543z" />
<glyph unicode="&#x1e14;" horiz-adv-x="1187" d="M684 2265h176l70 -207l-125 -41zM559 1720l25 119h571l-27 -119h-569zM350 1454h922l-35 -164h-737l-101 -471h641l-32 -153h-641l-107 -502h756l-35 -164h-940z" />
<glyph unicode="&#x1e15;" horiz-adv-x="1103" d="M840 1673l-125 -41l-121 248h176zM1065 1454l-27 -119h-569l25 119h571zM694 1087q162 0 259.5 -74.5t97.5 -213.5q0 -330 -584 -330q-123 0 -236 10q-2 -16 -2 -47q0 -136 68.5 -226.5t198.5 -90.5q95 0 185 48.5t140 129.5l146 -43q-76 -120 -213.5 -195t-286.5 -75 q-195 0 -307.5 127.5t-112.5 324.5q0 127 49.5 246.5t134.5 209.5t206 144.5t257 54.5zM473 594q416 0 416 207q0 76 -55 113.5t-152 37.5q-85 0 -158 -29t-124.5 -79t-87 -110t-56.5 -130q137 -10 217 -10z" />
<glyph unicode="&#x1e16;" horiz-adv-x="1187" d="M952 2017l-110 41l155 207h179zM559 1720l25 119h571l-27 -119h-569zM350 1454h922l-35 -164h-737l-101 -471h641l-32 -153h-641l-107 -502h756l-35 -164h-940z" />
<glyph unicode="&#x1e17;" horiz-adv-x="1103" d="M1085 1880l-223 -248l-110 41l155 207h178zM469 1335l25 119h571l-27 -119h-569zM694 1087q162 0 259.5 -74.5t97.5 -213.5q0 -330 -584 -330q-123 0 -236 10q-2 -16 -2 -47q0 -136 68.5 -226.5t198.5 -90.5q95 0 185 48.5t140 129.5l146 -43q-76 -120 -213.5 -195 t-286.5 -75q-195 0 -307.5 127.5t-112.5 324.5q0 127 49.5 246.5t134.5 209.5t206 144.5t257 54.5zM473 594q416 0 416 207q0 76 -55 113.5t-152 37.5q-85 0 -158 -29t-124.5 -79t-87 -110t-56.5 -130q137 -10 217 -10z" />
<glyph unicode="&#x1e1c;" horiz-adv-x="1187" d="M829 1653q-79 0 -126.5 48.5t-47.5 125.5q0 21 7 53h104q-4 -24 -4 -35q0 -44 24 -74t62 -30q41 0 81.5 39.5t59.5 99.5h103q-20 -96 -96 -161.5t-167 -65.5zM1237 1290h-737l-101 -471h641l-32 -153h-641l-107 -502h756l-35 -164h-432q63 -73 63 -156 q0 -102 -65.5 -163.5t-175.5 -61.5q-109 0 -195 57l72 101q65 -45 121 -45q64 0 101.5 33t37.5 94q0 74 -80 141h-387l309 1454h922z" />
<glyph unicode="&#x1e1d;" horiz-adv-x="1103" d="M739 1268q-79 0 -126.5 48.5t-47.5 125.5q0 26 6 53h105q-4 -24 -4 -35q0 -44 24 -74t62 -30q41 0 81.5 39.5t59.5 99.5h102q-20 -97 -95.5 -162t-166.5 -65zM467 469q-123 0 -236 10q-2 -16 -2 -47q0 -136 68.5 -226.5t198.5 -90.5q95 0 185 48.5t140 129.5l146 -43 q-65 -101 -177 -172.5t-239 -91.5q51 -67 51 -142q0 -102 -66 -163.5t-176 -61.5q-108 0 -194 57l72 101q65 -45 120 -45q64 0 102 33.5t38 93.5q0 63 -58 121q-184 10 -288.5 136t-104.5 316q0 127 49.5 246.5t134.5 209.5t206 144.5t257 54.5q162 0 259.5 -74.5 t97.5 -213.5q0 -330 -584 -330zM682 952q-85 0 -158 -29t-124.5 -79t-87 -110t-56.5 -130q137 -10 217 -10q416 0 416 207q0 76 -55 113.5t-152 37.5z" />
<glyph unicode="&#x1e20;" horiz-adv-x="1404" d="M1282 1835l-27 -119h-569l25 119h571zM844 586l30 139h451l-154 -725h-155l41 197q-223 -207 -459 -207q-151 0 -268.5 86.5t-177.5 224t-60 297.5q0 162 69 321t181 278.5t263 193t306 73.5q192 0 307.5 -84.5t155.5 -232.5l-162 -98q-33 123 -122 186t-218 63 q-157 0 -295.5 -102t-218 -261t-79.5 -327q0 -192 101.5 -322t266.5 -130q226 0 451 231l43 199h-297z" />
<glyph unicode="&#x1e21;" horiz-adv-x="1226" d="M453 1335l24 119h572l-27 -119h-569zM-78 -221l123 92q39 -92 123.5 -140t196.5 -48q147 0 262 85t149 244l39 189q-74 -97 -184.5 -155t-218.5 -58q-167 0 -267 127t-100 309q0 169 82.5 322t223 247t298.5 94q229 0 328 -231l45 213h160l-226 -1057 q-31 -147 -123.5 -255t-220.5 -161t-276 -53q-164 0 -263 60.5t-151 175.5zM854 375l66 307q-17 109 -93 179.5t-174 70.5q-112 0 -211 -74t-155 -184t-56 -221q0 -134 75 -226t194 -92q103 0 208 73.5t146 166.5z" />
<glyph unicode="&#x1e24;" horiz-adv-x="1460" d="M350 1454h185l-134 -629h748l133 629h184l-309 -1454h-184l141 662h-747l-142 -662h-184zM459 -373l47 217h162l-45 -217h-164z" />
<glyph unicode="&#x1e25;" horiz-adv-x="1161" d="M328 1495h180l-139 -655q85 116 202 181.5t238 65.5q246 0 246 -266q0 -83 -21 -182l-135 -639h-180l127 598q16 85 16 139q0 93 -40 141t-117 48q-99 0 -209 -81t-168 -200l-138 -645h-180zM309 -373l47 217h162l-45 -217h-164z" />
<glyph unicode="&#x1e2a;" horiz-adv-x="1460" d="M350 1454h185l-134 -629h748l133 629h184l-309 -1454h-184l141 662h-747l-142 -662h-184zM537 -340q-84 0 -124.5 65.5t-15.5 161.5h99q-13 -55 6 -97t57 -42q37 0 75 39.5t58 99.5h96q-25 -97 -96.5 -162t-154.5 -65z" />
<glyph unicode="&#x1e2b;" horiz-adv-x="1161" d="M328 1495h180l-139 -655q85 116 202 181.5t238 65.5q246 0 246 -266q0 -83 -21 -182l-135 -639h-180l127 598q16 85 16 139q0 93 -40 141t-117 48q-99 0 -209 -81t-168 -200l-138 -645h-180zM387 -340q-83 0 -123.5 65t-15.5 162h98q-13 -55 6.5 -97t57.5 -42 q37 0 75 39.5t58 99.5h96q-25 -97 -97 -162t-155 -65z" />
<glyph unicode="&#x1e2e;" horiz-adv-x="528" d="M614 2050l-110 41l155 207h179zM252 1663l45 209h152l-46 -209h-151zM573 1663l45 209h150l-43 -209h-152zM350 1452h185l-310 -1452h-184z" />
<glyph unicode="&#x1e2f;" horiz-adv-x="462" d="M496 1665l-111 41l156 207h178zM133 1278l45 209h152l-45 -209h-152zM455 1278l45 209h149l-43 -209h-151zM238 1069h180l-228 -1069h-180z" />
<glyph unicode="&#x1e36;" horiz-adv-x="1144" d="M350 1454h185l-275 -1290h764l-35 -164h-948zM356 -373l47 217h162l-45 -217h-164z" />
<glyph unicode="&#x1e37;" horiz-adv-x="573" d="M51 145q0 20 8 66l273 1284h178l-258 -1219q-4 -28 -4 -38q0 -42 24 -65t68 -23q50 0 113 24l-7 -145q-45 -18 -108 -30.5t-109 -12.5q-85 0 -131.5 42t-46.5 117zM94 -373l47 217h162l-45 -217h-164z" />
<glyph unicode="&#x1e3a;" horiz-adv-x="1144" d="M350 1454h185l-275 -1290h764l-35 -164h-948zM176 -293l29 119h543l-29 -119h-543z" />
<glyph unicode="&#x1e3b;" horiz-adv-x="573" d="M51 145q0 20 8 66l273 1284h178l-258 -1219q-4 -28 -4 -38q0 -42 24 -65t68 -23q50 0 113 24l-7 -145q-45 -18 -108 -30.5t-109 -12.5q-85 0 -131.5 42t-46.5 117zM-86 -293l29 119h542l-28 -119h-543z" />
<glyph unicode="&#x1e42;" horiz-adv-x="1716" d="M350 1454h195l291 -944l694 944h192l-309 -1454h-184l239 1124l-632 -862h-105l-266 862l-240 -1124h-184zM586 -373l47 217h162l-45 -217h-164z" />
<glyph unicode="&#x1e43;" horiz-adv-x="1808" d="M238 1069h163l-49 -229q82 114 197 180.5t233 66.5t181.5 -67.5t66.5 -192.5q191 260 438 260q238 0 238 -260q0 -76 -23 -188l-137 -639h-180l127 598q18 86 18 150q0 178 -147 178q-100 0 -199 -78.5t-161 -204.5l-136 -643h-180l127 598q19 93 19 152q0 176 -146 176 q-101 0 -199.5 -77.5t-160.5 -203.5l-138 -645h-180zM633 -373l47 217h162l-45 -217h-164z" />
<glyph unicode="&#x1e44;" horiz-adv-x="1513" d="M930 1659l47 217h162l-45 -217h-164zM350 1454h144l602 -1132l239 1130h185l-310 -1452h-153l-596 1110l-236 -1110h-184z" />
<glyph unicode="&#x1e45;" horiz-adv-x="1161" d="M788 1278l48 217h161l-45 -217h-164zM238 1069h163l-49 -229q83 113 211.5 180t261.5 67q234 0 234 -251q0 -68 -25 -197l-135 -639h-180l127 598q18 88 18 154q0 174 -145 174q-104 0 -218 -80.5t-173 -200.5l-138 -645h-180z" />
<glyph unicode="&#x1e46;" horiz-adv-x="1513" d="M350 1454h144l602 -1132l239 1130h185l-310 -1452h-153l-596 1110l-236 -1110h-184zM487 -373l48 217h161l-45 -217h-164z" />
<glyph unicode="&#x1e47;" horiz-adv-x="1161" d="M238 1069h163l-49 -229q83 113 211.5 180t261.5 67q234 0 234 -251q0 -68 -25 -197l-135 -639h-180l127 598q18 88 18 154q0 174 -145 174q-104 0 -218 -80.5t-173 -200.5l-138 -645h-180zM315 -373l47 217h162l-45 -217h-164z" />
<glyph unicode="&#x1e48;" horiz-adv-x="1513" d="M350 1454h144l602 -1132l239 1130h185l-310 -1452h-153l-596 1110l-236 -1110h-184zM307 -293l29 119h543l-29 -119h-543z" />
<glyph unicode="&#x1e49;" horiz-adv-x="1161" d="M238 1069h163l-49 -229q83 113 211.5 180t261.5 67q234 0 234 -251q0 -68 -25 -197l-135 -639h-180l127 598q18 88 18 154q0 174 -145 174q-104 0 -218 -80.5t-173 -200.5l-138 -645h-180zM135 -293l29 119h543l-29 -119h-543z" />
<glyph unicode="&#x1e4c;" horiz-adv-x="1476" d="M1098 2054l-111 41l156 207h178zM858 1751q-30 0 -54 -14t-36 -32.5t-18.5 -32.5t-6.5 -19h-106q4 18 20 48.5t44.5 69t76 66t101.5 27.5q37 0 69.5 -14t52.5 -30t49 -30t60 -14q34 0 61 14t41 34t20.5 32.5t8.5 19.5h105q-3 -16 -19.5 -47t-46 -69.5t-80 -66.5 t-108.5 -28q-50 0 -90.5 21.5t-75 43t-68.5 21.5zM90 590q0 130 45 260.5t125 239.5t183.5 194t228 132.5t250.5 47.5q96 0 179.5 -33t143 -90.5t102.5 -134.5t64 -165t21 -181q0 -162 -70 -321t-183 -279.5t-265.5 -195t-309.5 -74.5q-120 0 -219 49.5t-162.5 133.5 t-98 191.5t-34.5 225.5zM1243 846q0 123 -41 224t-124 163.5t-195 62.5q-122 0 -235.5 -62t-193 -160t-127.5 -222t-48 -246q0 -124 40.5 -224.5t124 -163t197.5 -62.5q98 0 191.5 40.5t166.5 109.5t128.5 157t85.5 187.5t30 195.5z" />
<glyph unicode="&#x1e4d;" horiz-adv-x="1183" d="M864 1673l-110 41l155 207h178zM625 1370q-39 0 -67.5 -24t-38 -45t-9.5 -29h-107q4 18 20 48.5t44.5 69t76 66t101.5 27.5q47 0 85 -22t73 -44t74 -22q34 0 61 14t41 34t20.5 32.5t8.5 19.5h104q-3 -16 -19.5 -47t-46 -69.5t-80 -66.5t-108.5 -28q-39 0 -73.5 13.5 t-55.5 29.5t-48.5 29.5t-55.5 13.5zM45 430q0 176 85 327.5t230.5 240.5t315.5 89q105 0 187.5 -35t134.5 -97t79 -143.5t27 -176.5q0 -175 -85 -326t-231.5 -240t-318.5 -89q-139 0 -236.5 61.5t-142.5 161.5t-45 227zM915 608q0 144 -70.5 234t-197.5 90q-78 0 -153.5 -37 t-133.5 -99.5t-93.5 -152t-35.5 -188.5q0 -143 71 -231.5t198 -88.5q106 0 201 60.5t154.5 170.5t59.5 242z" />
<glyph unicode="&#x1e4e;" horiz-adv-x="1476" d="M825 2085l45 209h152l-45 -209h-152zM1147 2085l45 209h149l-43 -209h-151zM858 1751q-30 0 -54 -14t-36 -32.5t-18.5 -32.5t-6.5 -19h-106q4 18 20 48.5t44.5 69t76 66t101.5 27.5q37 0 69.5 -14t52.5 -30t49 -30t60 -14q34 0 61 14t41 34t20.5 32.5t8.5 19.5h105 q-3 -16 -19.5 -47t-46 -69.5t-80 -66.5t-108.5 -28q-50 0 -90.5 21.5t-75 43t-68.5 21.5zM90 590q0 130 45 260.5t125 239.5t183.5 194t228 132.5t250.5 47.5q96 0 179.5 -33t143 -90.5t102.5 -134.5t64 -165t21 -181q0 -162 -70 -321t-183 -279.5t-265.5 -195t-309.5 -74.5 q-120 0 -219 49.5t-162.5 133.5t-98 191.5t-34.5 225.5zM1243 846q0 123 -41 224t-124 163.5t-195 62.5q-122 0 -235.5 -62t-193 -160t-127.5 -222t-48 -246q0 -124 40.5 -224.5t124 -163t197.5 -62.5q98 0 191.5 40.5t166.5 109.5t128.5 157t85.5 187.5t30 195.5z" />
<glyph unicode="&#x1e4f;" horiz-adv-x="1183" d="M592 1704l45 209h151l-45 -209h-151zM913 1704l45 209h150l-43 -209h-152zM625 1370q-39 0 -67.5 -24t-38 -45t-9.5 -29h-107q4 18 20 48.5t44.5 69t76 66t101.5 27.5q47 0 85 -22t73 -44t74 -22q34 0 61 14t41 34t20.5 32.5t8.5 19.5h104q-3 -16 -19.5 -47t-46 -69.5 t-80 -66.5t-108.5 -28q-39 0 -73.5 13.5t-55.5 29.5t-48.5 29.5t-55.5 13.5zM45 430q0 176 85 327.5t230.5 240.5t315.5 89q105 0 187.5 -35t134.5 -97t79 -143.5t27 -176.5q0 -175 -85 -326t-231.5 -240t-318.5 -89q-139 0 -236.5 61.5t-142.5 161.5t-45 227zM915 608 q0 144 -70.5 234t-197.5 90q-78 0 -153.5 -37t-133.5 -99.5t-93.5 -152t-35.5 -188.5q0 -143 71 -231.5t198 -88.5q106 0 201 60.5t154.5 170.5t59.5 242z" />
<glyph unicode="&#x1e50;" horiz-adv-x="1476" d="M819 2261h176l70 -207l-125 -41zM694 1716l25 119h571l-26 -119h-570zM90 590q0 130 45 260.5t125 239.5t183.5 194t228 132.5t250.5 47.5q96 0 179.5 -33t143 -90.5t102.5 -134.5t64 -165t21 -181q0 -162 -70 -321t-183 -279.5t-265.5 -195t-309.5 -74.5 q-120 0 -219 49.5t-162.5 133.5t-98 191.5t-34.5 225.5zM1243 846q0 123 -41 224t-124 163.5t-195 62.5q-122 0 -235.5 -62t-193 -160t-127.5 -222t-48 -246q0 -124 40.5 -224.5t124 -163t197.5 -62.5q98 0 191.5 40.5t166.5 109.5t128.5 157t85.5 187.5t30 195.5z" />
<glyph unicode="&#x1e51;" horiz-adv-x="1183" d="M586 1880h176l69 -207l-124 -41zM461 1335l24 119h572l-27 -119h-569zM45 430q0 176 85 327.5t230.5 240.5t315.5 89q105 0 187.5 -35t134.5 -97t79 -143.5t27 -176.5q0 -175 -85 -326t-231.5 -240t-318.5 -89q-139 0 -236.5 61.5t-142.5 161.5t-45 227zM915 608 q0 144 -70.5 234t-197.5 90q-78 0 -153.5 -37t-133.5 -99.5t-93.5 -152t-35.5 -188.5q0 -143 71 -231.5t198 -88.5q106 0 201 60.5t154.5 170.5t59.5 242z" />
<glyph unicode="&#x1e52;" horiz-adv-x="1476" d="M1087 2013l-110 41l156 207h178zM694 1716l25 119h571l-26 -119h-570zM90 590q0 130 45 260.5t125 239.5t183.5 194t228 132.5t250.5 47.5q96 0 179.5 -33t143 -90.5t102.5 -134.5t64 -165t21 -181q0 -162 -70 -321t-183 -279.5t-265.5 -195t-309.5 -74.5 q-120 0 -219 49.5t-162.5 133.5t-98 191.5t-34.5 225.5zM1243 846q0 123 -41 224t-124 163.5t-195 62.5q-122 0 -235.5 -62t-193 -160t-127.5 -222t-48 -246q0 -124 40.5 -224.5t124 -163t197.5 -62.5q98 0 191.5 40.5t166.5 109.5t128.5 157t85.5 187.5t30 195.5z" />
<glyph unicode="&#x1e53;" horiz-adv-x="1183" d="M854 1632l-111 41l156 207h178zM461 1335l24 119h572l-27 -119h-569zM45 430q0 176 85 327.5t230.5 240.5t315.5 89q105 0 187.5 -35t134.5 -97t79 -143.5t27 -176.5q0 -175 -85 -326t-231.5 -240t-318.5 -89q-139 0 -236.5 61.5t-142.5 161.5t-45 227zM915 608 q0 144 -70.5 234t-197.5 90q-78 0 -153.5 -37t-133.5 -99.5t-93.5 -152t-35.5 -188.5q0 -143 71 -231.5t198 -88.5q106 0 201 60.5t154.5 170.5t59.5 242z" />
<glyph unicode="&#x1e5a;" horiz-adv-x="1296" d="M41 0l309 1454h594q101 0 178 -55.5t115.5 -142.5t38.5 -187q0 -171 -113.5 -321t-275.5 -191l215 -557h-209l-201 522h-356l-111 -522h-184zM782 686q120 0 211.5 113t91.5 250q0 101 -52.5 171t-133.5 70h-399l-129 -604h411zM356 -373l47 217h162l-45 -217h-164z" />
<glyph unicode="&#x1e5b;" horiz-adv-x="724" d="M238 1069h168l-54 -248q78 113 178.5 181.5t196.5 68.5q29 0 53 -4l-32 -156q-129 -3 -241 -69.5t-177 -182.5l-140 -659h-180zM-57 -373l47 217h162l-46 -217h-163z" />
<glyph unicode="&#x1e5e;" horiz-adv-x="1296" d="M41 0l309 1454h594q101 0 178 -55.5t115.5 -142.5t38.5 -187q0 -171 -113.5 -321t-275.5 -191l215 -557h-209l-201 522h-356l-111 -522h-184zM782 686q120 0 211.5 113t91.5 250q0 101 -52.5 171t-133.5 70h-399l-129 -604h411zM176 -293l29 119h543l-29 -119h-543z" />
<glyph unicode="&#x1e5f;" horiz-adv-x="724" d="M238 1069h168l-54 -248q78 113 178.5 181.5t196.5 68.5q29 0 53 -4l-32 -156q-129 -3 -241 -69.5t-177 -182.5l-140 -659h-180zM-238 -293l29 119h543l-29 -119h-543z" />
<glyph unicode="&#x1e60;" horiz-adv-x="1204" d="M768 1686l47 217h162l-45 -217h-164zM-25 190l121 156q49 -76 170 -135t269 -59q166 0 261 68.5t95 191.5q0 39 -16 70.5t-42 54.5t-72.5 44t-93 36t-118.5 34q-181 49 -266.5 117.5t-85.5 192.5q0 153 81.5 269t217 175t301.5 59q264 0 420 -166l-117 -149 q-36 61 -130.5 106t-211.5 45q-179 0 -269 -76t-90 -204q0 -85 70 -128t240 -85q95 -24 161 -50t120 -65t80 -94t26 -129q0 -119 -47.5 -213t-130.5 -152t-190.5 -88t-231.5 -30q-159 0 -292.5 52t-228.5 152z" />
<glyph unicode="&#x1e61;" horiz-adv-x="972" d="M563 1278l47 217h162l-45 -217h-164zM-49 135l102 121q143 -137 334 -137q124 0 200.5 52.5t76.5 139.5q0 64 -47 92.5t-175 65.5q-15 4 -22 6q-51 15 -81 24.5t-66 23t-55.5 25.5t-40.5 29t-31 37t-16.5 45.5t-6.5 57.5q0 107 61 192t166.5 131.5t235.5 46.5 q230 0 358 -141l-104 -108q-52 59 -115 85.5t-147 26.5q-123 0 -200 -50t-77 -142q0 -61 40 -86.5t163 -59.5q73 -20 121.5 -37t93.5 -40.5t71 -50.5t41 -64.5t15 -85.5q0 -152 -131 -253t-344 -101q-130 0 -241 40.5t-179 114.5z" />
<glyph unicode="&#x1e62;" horiz-adv-x="1204" d="M-25 190l121 156q49 -76 170 -135t269 -59q166 0 261 68.5t95 191.5q0 39 -16 70.5t-42 54.5t-72.5 44t-93 36t-118.5 34q-181 49 -266.5 117.5t-85.5 192.5q0 153 81.5 269t217 175t301.5 59q264 0 420 -166l-117 -149q-36 61 -130.5 106t-211.5 45q-179 0 -269 -76 t-90 -204q0 -85 70 -128t240 -85q95 -24 161 -50t120 -65t80 -94t26 -129q0 -119 -47.5 -213t-130.5 -152t-190.5 -88t-231.5 -30q-159 0 -292.5 52t-228.5 152zM330 -373l47 217h162l-45 -217h-164z" />
<glyph unicode="&#x1e63;" horiz-adv-x="972" d="M-49 135l102 121q143 -137 334 -137q124 0 200.5 52.5t76.5 139.5q0 64 -47 92.5t-175 65.5q-15 4 -22 6q-51 15 -81 24.5t-66 23t-55.5 25.5t-40.5 29t-31 37t-16.5 45.5t-6.5 57.5q0 107 61 192t166.5 131.5t235.5 46.5q230 0 358 -141l-104 -108q-52 59 -115 85.5 t-147 26.5q-123 0 -200 -50t-77 -142q0 -61 40 -86.5t163 -59.5q73 -20 121.5 -37t93.5 -40.5t71 -50.5t41 -64.5t15 -85.5q0 -152 -131 -253t-344 -101q-130 0 -241 40.5t-179 114.5zM223 -373l47 217h162l-45 -217h-164z" />
<glyph unicode="&#x1e64;" horiz-adv-x="1204" d="M907 2111l47 218h162l-45 -218h-164zM887 1655l-111 41l156 207h178zM-25 190l121 156q49 -76 170 -135t269 -59q166 0 261 68.5t95 191.5q0 39 -16 70.5t-42 54.5t-72.5 44t-93 36t-118.5 34q-181 49 -266.5 117.5t-85.5 192.5q0 153 81.5 269t217 175t301.5 59 q264 0 420 -166l-117 -149q-36 61 -130.5 106t-211.5 45q-179 0 -269 -76t-90 -204q0 -85 70 -128t240 -85q95 -24 161 -50t120 -65t80 -94t26 -129q0 -119 -47.5 -213t-130.5 -152t-190.5 -88t-231.5 -30q-159 0 -292.5 52t-228.5 152z" />
<glyph unicode="&#x1e65;" horiz-adv-x="972" d="M702 1704l48 217h161l-45 -217h-164zM682 1247l-111 41l156 207h178zM-49 135l102 121q143 -137 334 -137q124 0 200.5 52.5t76.5 139.5q0 64 -47 92.5t-175 65.5q-15 4 -22 6q-51 15 -81 24.5t-66 23t-55.5 25.5t-40.5 29t-31 37t-16.5 45.5t-6.5 57.5q0 107 61 192 t166.5 131.5t235.5 46.5q230 0 358 -141l-104 -108q-52 59 -115 85.5t-147 26.5q-123 0 -200 -50t-77 -142q0 -61 40 -86.5t163 -59.5q73 -20 121.5 -37t93.5 -40.5t71 -50.5t41 -64.5t15 -85.5q0 -152 -131 -253t-344 -101q-130 0 -241 40.5t-179 114.5z" />
<glyph unicode="&#x1e66;" horiz-adv-x="1204" d="M860 2111l47 218h162l-45 -218h-164zM608 1853l109 50l137 -129l193 129l88 -50l-238 -184h-131zM-25 190l121 156q49 -76 170 -135t269 -59q166 0 261 68.5t95 191.5q0 39 -16 70.5t-42 54.5t-72.5 44t-93 36t-118.5 34q-181 49 -266.5 117.5t-85.5 192.5 q0 153 81.5 269t217 175t301.5 59q264 0 420 -166l-117 -149q-36 61 -130.5 106t-211.5 45q-179 0 -269 -76t-90 -204q0 -85 70 -128t240 -85q95 -24 161 -50t120 -65t80 -94t26 -129q0 -119 -47.5 -213t-130.5 -152t-190.5 -88t-231.5 -30q-159 0 -292.5 52t-228.5 152z " />
<glyph unicode="&#x1e67;" horiz-adv-x="972" d="M655 1704l47 217h162l-45 -217h-164zM403 1446l109 49l137 -129l193 129l88 -49l-238 -184h-131zM-49 135l102 121q143 -137 334 -137q124 0 200.5 52.5t76.5 139.5q0 64 -47 92.5t-175 65.5q-15 4 -22 6q-51 15 -81 24.5t-66 23t-55.5 25.5t-40.5 29t-31 37t-16.5 45.5 t-6.5 57.5q0 107 61 192t166.5 131.5t235.5 46.5q230 0 358 -141l-104 -108q-52 59 -115 85.5t-147 26.5q-123 0 -200 -50t-77 -142q0 -61 40 -86.5t163 -59.5q73 -20 121.5 -37t93.5 -40.5t71 -50.5t41 -64.5t15 -85.5q0 -152 -131 -253t-344 -101q-130 0 -241 40.5 t-179 114.5z" />
<glyph unicode="&#x1e68;" horiz-adv-x="1204" d="M768 1686l47 217h162l-45 -217h-164zM-25 190l121 156q49 -76 170 -135t269 -59q166 0 261 68.5t95 191.5q0 39 -16 70.5t-42 54.5t-72.5 44t-93 36t-118.5 34q-181 49 -266.5 117.5t-85.5 192.5q0 153 81.5 269t217 175t301.5 59q264 0 420 -166l-117 -149 q-36 61 -130.5 106t-211.5 45q-179 0 -269 -76t-90 -204q0 -85 70 -128t240 -85q95 -24 161 -50t120 -65t80 -94t26 -129q0 -119 -47.5 -213t-130.5 -152t-190.5 -88t-231.5 -30q-159 0 -292.5 52t-228.5 152zM330 -373l47 217h162l-45 -217h-164z" />
<glyph unicode="&#x1e69;" horiz-adv-x="972" d="M563 1278l47 217h162l-45 -217h-164zM-49 135l102 121q143 -137 334 -137q124 0 200.5 52.5t76.5 139.5q0 64 -47 92.5t-175 65.5q-15 4 -22 6q-51 15 -81 24.5t-66 23t-55.5 25.5t-40.5 29t-31 37t-16.5 45.5t-6.5 57.5q0 107 61 192t166.5 131.5t235.5 46.5 q230 0 358 -141l-104 -108q-52 59 -115 85.5t-147 26.5q-123 0 -200 -50t-77 -142q0 -61 40 -86.5t163 -59.5q73 -20 121.5 -37t93.5 -40.5t71 -50.5t41 -64.5t15 -85.5q0 -152 -131 -253t-344 -101q-130 0 -241 40.5t-179 114.5zM223 -373l47 217h162l-45 -217h-164z" />
<glyph unicode="&#x1e6c;" horiz-adv-x="1200" d="M649 1290h-473l35 164h1130l-34 -164h-473l-275 -1290h-184zM309 -373l47 217h162l-45 -217h-164z" />
<glyph unicode="&#x1e6d;" horiz-adv-x="692" d="M98 150q0 29 6 59l154 719h-139l31 141h137l75 356h181l-76 -356h227l-30 -141h-226l-141 -664q-4 -20 -4 -31q0 -41 25.5 -61t66.5 -20q66 0 160 45l10 -144q-39 -28 -112.5 -47.5t-151.5 -19.5q-87 0 -140 41.5t-53 122.5zM74 -373l47 217h162l-45 -217h-164z" />
<glyph unicode="&#x1e6e;" horiz-adv-x="1200" d="M649 1290h-473l35 164h1130l-34 -164h-473l-275 -1290h-184zM129 -293l29 119h542l-28 -119h-543z" />
</font>
</defs>
</svg>
